#TITLE:m1dy Festival;
#SUBTITLE:;
#ARTIST:m1dy;
#TITLETRANSLIT:;
#SUBTITLETRANSLIT:;
#ARTISTTRANSLIT:;
#GENRE:TOKYO STYLE SPEEDCORE;
#CREDIT:;
#BANNER:m1dy Festival.png;
#BACKGROUND:m1dy Festival-bg.png;
#LYRICSPATH:;
#CDTITLE:cdtitle.png;
#MUSIC:m1dy Festival.ogg;
#OFFSET:-0.186000;
#SAMPLESTART:26.311560;
#SAMPLELENGTH:15.000000;
#SELECTABLE:YES;
#BPMS:0.000000=112.500000
,14.000000=225.000000
,80.000000=450.000000
,208.000000=225.000000
,237.000000=112.500000
,251.000000=225.000000
,281.000000=450.000000
,337.000000=225.000000
,341.000000=450.000000
,405.000000=112.500000
,434.000000=225.000000
,435.000000=450.000000
;
#STOPS:14.000000=0.800000,
79.000000=0.800000,
236.000000=0.800000,
251.000000=0.800000,
280.000000=0.800000,
419.000000=0.533000,
434.000000=0.800000
;
#BGCHANGES:-0.500=m1dy Festival.avi=1.000=0=0=0=StretchNoLoop==CrossFade_Fastest==,
99999=-nosongbg-=1.000=0=0=0 // don't automatically add -songbackground-
;
#KEYSOUNDS:;
#ATTACKS:;

//---------------dance-single - Daff_4K----------------
#NOTES:
     dance-single:
     Daff_4K:
     Beginner:
     5:
     0.144524,0.403743,0.082250,0.000000,0.000000,123.000000,113.000000,10.000000,0.000000,0.000000,0.000000,0.144524,0.403743,0.082250,0.000000,0.000000,123.000000,113.000000,10.000000,0.000000,0.000000,0.000000:
0000
0000
0000
0000
,
0000
0000
0000
0000
,
0000
0000
0000
0000
,
0000
0000
0000
1000
,
0000
0000
0000
0001
,
0000
0000
0000
0100
,
0000
0000
0000
0010
,
0000
0100
0000
0010
,
0000
0000
0000
1000
,
0000
0000
0000
0001
,
0000
1000
0000
0001
,
0000
0000
0000
1000
,
0000
0000
0000
0100
,
0000
0000
0000
0010
,
0000
0001
0000
0010
,
0000
0000
0000
0001
,
0000
0000
0000
0100
,
0000
0000
0000
0010
,
0000
1000
0000
0010
,
0000
0000
0000
1001
,
0000
0000
0000
0000
,
0000
0000
0000
0000
,
1000
0000
0000
0000
,
0100
0000
0000
0000
,
1000
0000
0000
0000
,
0000
0000
0000
0000
,
0001
0000
0000
0000
,
0100
0000
0000
0000
,
0001
0000
0000
0000
,
0000
0000
0000
0000
,
0010
0000
0000
0000
,
0001
0000
0000
0000
,
0010
0000
0000
0000
,
0000
0000
0000
0000
,
0100
0000
0000
0000
,
1000
0000
0000
0000
,
0100
0000
0000
0000
,
0000
0000
0000
0000
,
1000
0000
0000
0000
,
0010
0000
0000
0000
,
1000
0000
0000
0000
,
0000
0000
0000
0000
,
0001
0000
0000
0000
,
0010
0000
0000
0000
,
0001
0000
0000
0000
,
0000
0000
0000
0000
,
0100
0000
0000
0000
,
0001
0000
0000
0000
,
0100
0000
0000
0000
,
0000
0000
0000
0000
,
0010
0000
0000
0000
,
1000
0000
0000
0000
,
1001
0000
0000
0000
,
0000
0000
0000
0000
,
0001
0000
0000
0000
,
0000
0000
0000
0000
,
1000
0000
0000
0000
,
0000
0000
0000
0000
,
0001
0000
0000
0000
,
1001
0000
0000
1000
,
0000
0001
0000
0010
,
0010
0010
0000
0100
,
0000
1000
0000
1001
,
0000
0000
0001
0000
,
0000
0000
1000
0000
,
0000
0000
0001
0000
,
0000
0000
1000
0000
,
0000
0000
0100
0000
,
0000
0000
0010
0000
,
0000
0000
0100
0000
,
0110
0000
0000
0000
,
0000
0000
0000
0000
,
0000
0010
0000
0000
,
0000
0000
0000
0000
,
0000
0001
0000
0000
,
0000
0000
0000
0000
,
0000
1000
0000
0000
,
0000
0001
0000
0000
,
0000
0100
0000
0000
,
0000
0000
0000
0000
,
0000
0010
0000
0000
,
0000
0000
0000
0000
,
0000
1000
0000
0000
,
0000
0000
0000
0000
,
0000
0001
0000
0000
,
0000
1000
0000
0000
,
0000
0000
0000
0000
,
0000
0010
0000
0000
,
0000
0000
0000
0000
,
0000
1000
0000
0000
,
0000
0000
0000
0000
,
0000
0100
0000
0000
,
0000
1000
0000
0000
,
0000
0001
0000
0000
,
0000
0000
0000
0000
,
0000
0010
0000
0000
,
0000
0000
0000
0000
,
0000
0001
0000
0000
,
0000
0000
0000
0000
,
0000
0100
0000
0000
,
0000
0001
0000
0000
,
0000
1001
0000
0000
,
0000
0000
0000
0000
,
0000
0000
1000
0000
,
0001
0000
0100
0100
,
0000
0000
0000
0000
,
0000
0000
0000
0000
,
0000
0000
0000
0000
,
0000
0000
0000
0001
,
0000
0000
0000
0000
,
0000
0000
0000
0001
,
0000
0000
0000
0010
,
0000
0000
0000
0001
,
0000
0000
0000
0000
,
0000
0000
0000
1000
,
0000
0000
0000
0001
,
0000
0000
0000
1000
,
0000
0000
0000
0000
,
0000
0000
0000
1000
,
0000
0000
0000
0010
,
0000
0000
0000
1000
,
0000
0000
0000
0000
,
0000
0000
0000
0001
,
0000
0000
0000
1000
,
0000
0000
0000
1001
,
0000
0000
0000
0000
,
0000
0000
0000
0010
,
0000
0000
0000
0100
,
0000
0000
0000
0110
,
0000
0000
0000
0000
,
0000
0000
0000
1000
,
0000
0000
0000
0001
,
0000
0000
0000
1001
,
0000
0000
0000
0000
,
0000
0000
0000
0100
,
0000
0000
0000
0010
,
0000
0000
0000
0110
,
0000
0000
0000
0000
,
0000
0000
0000
0001
,
0000
0000
0000
1000
,
0000
0001
0000
0000
;

//---------------dance-single - Daff_4K----------------
#NOTES:
     dance-single:
     Daff_4K:
     Easy:
     7:
     0.284349,0.520949,0.123375,0.197399,0.000000,242.000000,227.000000,15.000000,24.000000,0.000000,0.000000,0.284349,0.520949,0.123375,0.197399,0.000000,242.000000,227.000000,15.000000,24.000000,0.000000,0.000000:
0000
0000
0000
0000
,
0000
0000
0000
0000
,
0000
0000
0000
0000
,
0000
0000
0000
2001
,
0000
3100
0000
1000
,
0001
1000
0000
1020
,
0000
0130
0000
0010
,
1000
0001
0000
1002
,
0000
0103
0000
0001
,
1000
0001
0000
0021
,
0000
2030
0000
3010
,
0001
1000
0000
0001
,
0100
0001
0100
0010
,
0100
0010
0000
1000
,
0100
1000
0100
0010
,
0100
0010
0000
0001
,
1000
0001
1000
0001
,
0100
0010
0000
1000
,
0001
1000
0001
1000
,
0100
0010
0000
1001
,
0001
0000
0000
0000
,
0100
0000
0000
0000
,
0001
0000
1000
0000
,
0001
0000
0000
0000
,
1000
0000
0000
0000
,
0100
0000
0000
0000
,
0010
0000
0001
0000
,
0010
0000
0001
0000
,
1000
0000
0000
0000
,
0100
0000
0000
0000
,
1000
0000
0001
0000
,
1000
0000
0000
0000
,
0001
0000
0000
0000
,
0100
0000
0000
0000
,
0010
0000
1000
0000
,
0010
0000
1000
0000
,
0001
0000
1000
0000
,
0001
0000
0000
0000
,
1000
0000
0000
0000
,
0100
0000
0000
0000
,
0010
0000
0100
0000
,
0010
0000
0000
0000
,
0001
0000
1000
0000
,
0001
0000
0000
0000
,
1000
0000
0001
0000
,
1000
0000
0000
0000
,
0001
0000
0000
0000
,
0100
0000
0000
0000
,
0010
0000
0100
0000
,
0010
0000
0000
0000
,
1000
0000
0001
0000
,
1000
0000
0000
0000
,
0020
0000
0100
0000
,
0100
0000
0130
0000
,
0002
0000
1000
0000
,
1000
0000
1003
0001
,
0020
0000
0100
0000
,
0100
0000
0130
0000
,
2000
0000
3001
0000
,
1001
0002
0000
0203
,
0000
0320
0000
1030
,
0001
2000
0000
3200
,
0000
0320
0030
1001
,
0001
0001
0100
0000
,
0010
1000
0010
0000
,
1000
1000
0100
0000
,
0010
0001
0010
0000
,
0100
0100
1000
0000
,
0010
0100
0010
0000
,
0100
0100
0001
0000
,
1001
1000
0000
0000
,
0000
0001
0000
0000
,
0000
1000
0000
0000
,
0000
0100
0000
0000
,
0000
0010
0000
0000
,
0000
0100
0000
0000
,
0000
1000
0000
0001
,
0000
1000
0000
0000
,
0000
0001
0000
0000
,
0000
1000
0000
0000
,
0000
0001
0000
0000
,
0000
0100
0000
0000
,
0000
0010
0000
0000
,
0000
0100
0000
0000
,
0000
0020
0000
0000
,
0000
1030
0000
0000
,
0000
0100
0000
0000
,
0000
0001
0000
0000
,
0000
0100
0000
0000
,
0000
1000
0000
0000
,
0000
0001
0000
0000
,
0000
0010
0000
0100
,
0000
0010
0000
0000
,
0000
0001
0000
0000
,
0000
0100
0000
0000
,
0000
1000
0000
0000
,
0000
0100
0000
0000
,
0000
0001
0000
0000
,
0000
1000
0000
0000
,
0000
0010
0000
0100
,
0000
0010
0000
0100
,
0000
0002
0000
0010
,
0000
1000
0000
0103
,
0010
2000
0000
0100
,
0000
0001
3000
1001
,
0002
0000
0000
0000
,
2003
0000
0000
0000
,
3020
0000
0000
0000
,
0200
0330
1001
0001
,
0000
0000
0000
0010
,
0000
0000
0000
0001
,
0000
0100
0000
0001
,
0000
0000
0000
1000
,
0000
0000
0000
0010
,
0000
0000
0000
0100
,
0000
0001
0000
1000
,
0000
0001
0000
1000
,
0000
0000
0000
0010
,
0000
0000
0000
1000
,
0000
0100
0000
1000
,
0000
0000
0000
0001
,
0000
0000
0000
0010
,
0000
0000
0000
0100
,
0000
1000
0000
0001
,
0000
0000
0000
1001
,
0000
0000
0000
0000
,
0000
0000
0000
1000
,
0000
0001
0000
1000
,
0000
0000
0000
0110
,
0000
0000
0000
0000
,
0000
0000
0000
0010
,
0000
0100
0000
0010
,
0000
0000
0000
1001
,
0000
0000
0000
0000
,
0000
0000
0000
0001
,
0000
1000
0000
0001
,
0000
0000
0000
0110
,
0000
0000
0000
0000
,
0000
0000
0000
0010
,
0000
0100
0000
0010
,
0000
0220
0000
0330
;

//---------------dance-single - Daff_4K----------------
#NOTES:
     dance-single:
     Daff_4K:
     Medium:
     12:
     0.528748,1.157664,0.378349,0.320774,0.000000,450.000000,404.000000,46.000000,39.000000,0.000000,0.000000,0.528748,1.157664,0.378349,0.320774,0.000000,450.000000,404.000000,46.000000,39.000000,0.000000,0.000000:
0000
0000
0000
0000
,
0000
0000
0000
0000
,
0000
0000
0000
0000
,
0000
0000
1001
1010
,
0101
0000
0001
0000
1000
0001
1000
0000
,
0100
0010
0001
0000
0100
0000
0110
0000
,
1001
0000
0001
0000
1000
0001
1000
0010
,
0100
0001
0010
0011
,
1100
0000
1000
0000
0001
1000
0001
0000
,
0100
0010
1000
0000
0100
0000
2100
0000
,
3010
0000
0102
0000
0013
0000
0001
1000
,
0001
0100
0010
0000
1000
0000
1002
0000
,
1000
0010
0010
1000
,
1000
0100
0100
0023
,
1000
1000
0100
0100
,
0001
0031
1000
2001
,
0001
0010
0010
0001
,
0001
0100
0100
3020
,
0001
0001
0100
0100
,
1000
1030
0001
1001
,
1000
0000
0001
0000
,
0010
0001
0010
0000
,
0001
1000
0001
0000
,
1000
0000
0010
0000
,
1000
0001
1000
0000
,
0001
0000
0010
0000
,
0100
1000
0001
1000
,
0001
0000
0200
0000
,
0301
0000
1000
0000
,
0010
1000
0010
0000
,
1000
0001
1000
0000
,
0001
0000
0010
0000
,
0001
1000
0001
0000
,
1000
0000
0010
0000
,
0100
0001
1000
0001
,
1000
0000
0200
0000
,
1300
0000
0010
0000
,
0100
0001
0100
0000
,
0010
0000
1000
0000
,
0001
1000
0001
0000
,
0010
0000
0100
0000
,
1000
0001
1000
0000
,
0010
0100
0010
0100
,
0010
0000
1000
0000
,
0001
0000
0010
0000
,
0100
1000
0100
0000
,
0010
0000
0001
0000
,
1000
0001
1000
0000
,
0010
0000
0100
0000
,
0001
1000
0001
0000
,
0010
0100
0010
0100
,
0010
0000
0001
0000
,
0200
0010
0010
0010
,
0320
1000
2030
0100
,
3200
0010
0010
0010
,
0320
0000
0001
0000
0031
1000
0001
1000
,
0020
0100
0100
0100
,
0230
0001
0302
0010
,
0023
0100
0100
0130
,
1001
2000
0000
3020
,
0000
0032
0000
0203
,
2300
3002
0000
2003
,
0000
3020
0000
0130
,
0102
1000
0013
0100
,
0010
0110
1001
0101
,
2010
0001
3100
0010
,
0100
1001
0110
1001
,
2100
0001
3010
0100
,
0010
0110
1001
1100
,
0012
1000
0103
0010
,
1001
1000
0000
0100
,
0000
0001
0000
0100
,
0010
0100
0000
0010
,
0000
0001
0000
1000
,
0001
1000
0000
0010
,
0000
0001
0000
0010
,
0100
0010
0000
1000
,
0001
1000
0000
0001
,
1000
0001
0000
0100
,
0000
1000
0000
0100
,
0010
0100
0000
0010
,
0000
1000
0000
0001
,
1000
0001
0000
0010
,
0000
1000
0000
0010
,
0000
2002
0000
0000
,
3003
1000
0000
0010
,
0000
0001
0000
0010
,
0100
0010
0000
1000
,
0000
0001
0000
0010
,
0100
0010
0000
0001
,
0000
1000
0000
0010
,
0100
0010
0100
0001
,
0000
1000
0001
1000
,
0000
0001
0000
0010
,
0000
1000
0000
0010
,
0100
0010
0000
0001
,
0000
1000
0000
0010
,
0100
0010
0000
1000
,
0000
0001
0000
0010
,
0100
0010
0100
1000
,
0001
1000
0002
0000
,
0000
0000
1003
0100
1100
0000
1000
0001
,
1001
1000
0010
0100
0101
0000
0001
0010
,
0110
1000
0001
0100
0101
0000
0001
1000
,
1001
0001
0010
0100
1100
0000
1001
0000
,
2000
0000
0000
0000
,
3002
0000
0000
0000
,
0203
0000
0000
0000
,
0020
0330
1001
1000
,
0000
0001
0000
0010
,
0100
0010
0000
0001
,
1000
0001
0000
0100
,
0000
0010
0000
1000
,
0001
1000
0000
0100
,
0000
0010
0000
0001
,
1000
0010
1000
0001
,
0000
0020
0000
0031
,
0000
1000
0000
0010
,
0100
0010
0000
1000
,
0001
1000
0000
0100
,
0000
0010
0000
0001
,
1000
0001
0000
0100
,
0000
0010
0000
1000
,
0001
0010
0001
1000
,
0001
0100
0000
0110
,
0000
0000
0000
0000
,
0000
0000
0000
1001
,
0000
1000
0001
1000
,
0001
0010
0000
0110
,
0000
0000
0000
0000
,
0000
0000
0000
1001
,
0000
1000
0001
0010
,
0000
0100
0000
0110
,
0000
0000
0000
0000
,
0000
0000
0000
1001
,
0000
0001
1000
0001
,
1000
0010
0000
0110
,
0000
0000
0000
0000
,
0000
0000
0000
1001
,
0000
0001
1000
0010
,
0000
0220
0000
0330
;

//---------------dance-single - Daff_4K----------------
#NOTES:
     dance-single:
     Daff_4K:
     Hard:
     16:
     0.768447,1.331314,0.501723,0.279649,0.016450,654.000000,593.000000,61.000000,34.000000,0.000000,0.000000,0.768447,1.331314,0.501723,0.279649,0.016450,654.000000,593.000000,61.000000,34.000000,0.000000,0.000000:
0000
0000
0000
0000
,
0000
0000
0000
0000
,
0000
0000
0000
0000
,
0000
0000
1001
1100
,
0011
0000
2001
0000
3010
1000
0001
0010
,
0100
1000
1001
0101
,
1010
0000
1002
0000
0013
0000
0100
0010
,
0100
1000
0010
0100
0001
0000
0101
0000
,
1010
0000
1002
0000
0013
0001
1000
0010
,
0100
0001
1001
1200
,
0310
0000
0201
0000
0310
0000
1000
0001
,
0010
0100
1000
0010
0100
0000
0102
0000
,
1000
0000
0010
0000
1003
0000
0001
0100
,
0010
0100
0001
1000
0100
0000
0210
0000
,
0001
0000
0010
0000
1300
0000
0001
1000
,
0010
0100
0010
1000
0001
0000
2100
0000
,
0001
0000
0010
0000
3001
0000
1000
0100
,
0010
0100
1000
0001
0100
0000
0210
0000
,
1000
0000
0010
0000
0301
0000
1000
0001
,
0010
0000
0100
0010
0100
0000
1000
0000
0001
0000
0000
0000
1001
0000
0000
0000
,
1000
0010
0100
0010
,
1000
0001
1000
0001
,
0010
0100
1000
0001
,
0100
0010
2000
0000
,
3001
1000
0100
1000
,
0001
0100
0010
0100
,
0010
1000
0001
0010
,
0100
0010
0100
0000
2000
0000
0000
0000
,
3001
0010
0100
0010
,
0001
1000
0001
1000
,
0010
0100
0001
1000
,
0100
0010
0002
0000
,
1003
0001
0100
0001
,
1000
0100
0010
0100
,
0010
0001
1000
0010
,
0100
0010
0100
0000
0002
0000
0000
0000
,
0013
0100
0010
0001
,
0010
0100
0010
0001
,
1000
0000
0010
0100
0010
0000
0100
0000
,
0001
0010
0100
1000
,
0001
0100
0010
0100
,
0001
1000
0001
0010
,
0100
1000
0001
0100
,
0010
1000
0001
1000
,
0010
0100
0010
1000
,
0010
0100
0010
1000
,
0001
0000
0010
0100
0010
0000
0100
0000
,
1000
0010
0100
0001
,
1000
0100
0010
0100
,
1000
0001
1000
0010
,
0100
0001
1000
0100
,
0010
0001
1000
0001
,
2000
0010
0001
3100
,
1000
0010
1000
0001
1000
0100
0010
0000
,
0200
0001
0010
1300
,
0100
0010
0001
1000
0010
0100
0010
0100
,
0002
0010
1000
0103
,
0001
0010
0001
1000
0001
0100
0010
0000
,
0200
1000
0010
0301
,
1001
2200
3000
0020
,
0300
0002
0030
0203
,
0310
0000
1000
0000
0100
0000
0001
0000
0100
0000
1000
0001
0100
0000
1000
0000
,
0100
0000
0001
1000
0100
0000
0010
0000
0001
0000
1000
0000
1001
0000
0000
0000
,
0101
0000
0110
0000
0101
0000
0100
0010
,
1000
1100
1001
0101
,
0011
0000
0110
0000
0011
0000
0010
0100
,
1000
1010
0101
1001
,
1100
0000
0110
0000
1100
0000
0100
0010
,
0001
0101
1001
1100
,
1010
0110
1010
0110
,
1001
0001
0010
0100
,
0010
0001
0010
0100
,
0010
0001
1000
0001
,
0010
0001
1000
0001
,
0010
0001
0010
0000
0100
0000
1000
0000
,
0100
0010
0100
1000
,
0100
0010
0001
1000
,
0001
0000
0100
0000
0010
0100
0010
0000
,
1000
0001
1000
0000
0010
0000
0100
0000
,
0010
1000
0010
0100
,
0010
1000
0001
1000
,
0010
1000
0001
1000
,
0010
1000
0010
0000
0100
0000
0001
0000
,
0100
0010
0100
0001
,
1000
0000
0000
0000
0100
0000
0010
0000
0100
0010
0100
0000
1000
0000
0002
0000
,
0000
1003
0010
0100
,
0010
1000
0010
0100
,
0010
1000
0010
0000
1000
0000
0001
0000
,
1000
0010
1000
0001
,
1000
0001
1000
0000
0100
0000
0010
0000
,
0100
1000
0100
0010
,
0100
0010
0100
0000
1000
0000
0001
0000
,
1000
0000
0010
0000
0100
0010
0100
0000
,
0001
1000
0001
0000
0010
0000
0100
0000
,
0010
0001
0010
0100
,
0010
0001
0010
0000
0001
0000
1000
0000
,
0001
0010
0001
1000
,
0001
1000
0001
0000
0100
0000
0010
0000
,
0100
0001
0100
0010
,
0100
0010
0100
0000
0001
1000
0001
0000
,
1000
0100
0020
0000
,
0000
0000
0031
0100
0110
0100
0001
1000
,
1001
1000
0001
0010
0110
0010
0001
0100
,
0110
1001
1000
0100
0110
0100
1000
0001
,
1001
0001
1000
0010
0110
0010
1001
0000
,
2000
0000
0000
0000
,
0002
0000
0000
3000
,
0020
0000
0000
0003
,
0200
0000
0330
0000
1001
0000
1000
0001
,
1000
0001
0100
0010
,
1000
0001
1000
0100
,
0001
0000
0100
0010
0100
0000
0010
0000
,
0001
0000
1000
0000
0001
0000
0100
0010
,
0100
0010
1000
0001
,
1000
0000
0100
0000
0010
0100
0010
0000
,
0001
0000
1000
0001
1000
0000
0010
0100
,
0010
0000
0200
0000
0000
0000
0301
1000
,
0001
1000
0100
0010
,
0001
1000
0001
0100
,
1000
0000
0100
0010
0100
0000
0010
0000
,
1000
0000
0001
0000
1000
0000
0100
0010
,
0100
0010
0001
1000
,
0001
0000
0100
0000
0010
0100
0010
0000
,
1000
0000
0001
1000
0001
0000
0010
0100
,
0010
0200
0300
1001
,
0000
0000
0000
0000
,
0000
0000
0000
0000
1000
0001
1000
0000
,
0001
0010
1000
0010
,
0001
1000
0000
1010
,
0000
0000
0000
0000
,
0000
0000
0100
0001
,
1000
0001
1000
0000
0100
0000
0010
0000
,
0000
0220
0330
1001
,
0000
0000
0000
0000
,
0000
0000
0000
0000
0001
1000
0001
0000
,
1000
0010
0001
0010
,
1000
0001
0000
0011
,
0000
0000
0000
0000
,
0000
0000
0100
1000
,
0001
1000
0001
0000
0100
0000
0010
0000
,
0000
0220
0000
0330
;

//---------------dance-single - D4K Festival----------------
#NOTES:
     dance-single:
     D4K Festival:
     Challenge:
     17:
     0.867147,1.331314,0.633323,0.238524,0.037012,738.000000,661.000000,77.000000,29.000000,0.000000,0.000000,0.867147,1.331314,0.633323,0.238524,0.037012,738.000000,661.000000,77.000000,29.000000,0.000000,0.000000:
// measure 0
0000
0000
0000
0000
,  // measure 1
0000
0000
0000
0000
,  // measure 2
0000
0000
0000
0000
,  // measure 3
0000
0000
1001
1100
,  // measure 4
0011
0000
0000
0001
2000
0000
0000
0000
3010
0000
0100
0000
0010
0000
1000
0000
,  // measure 5
0001
0010
0100
1000
0010
0000
0110
0000
,  // measure 6
1001
0000
0000
0001
0020
0000
0000
0000
0130
0000
1000
0000
0001
0000
1000
0000
,  // measure 7
0010
0000
0100
0010
0100
0000
0001
0000
1000
0000
0000
0000
0101
0000
0000
0000
,  // measure 8
1010
0000
0000
1000
0002
0000
0000
0000
0013
0000
0100
0000
0010
0000
0001
0000
,  // measure 9
1000
0010
0100
0001
1000
0000
0012
0000
,  // measure 10
0103
0000
0000
0000
2010
0000
0000
0000
3100
0000
0000
0000
1000
0001
1000
0000
,  // measure 11
0001
0010
0100
1000
0010
0000
1010
0000
,  // measure 12
1001
0000
1100
0000
1001
0000
0001
0100
,  // measure 13
0010
0100
0001
1000
0100
0000
1100
0000
,  // measure 14
1010
0000
0101
0000
0001
0010
1000
0010
,  // measure 15
0001
0000
1000
0001
1000
0000
0010
0000
0100
0000
0001
0000
0011
0000
0000
0000
,  // measure 16
1001
0000
0101
0000
1001
0000
1000
0100
,  // measure 17
0010
0100
1000
0001
0100
0000
0101
0000
,  // measure 18
0011
0000
1100
0000
1000
0010
0001
0010
,  // measure 19
1000
0000
0001
1000
0001
0000
0010
0000
0100
0000
0000
0000
1001
0000
0000
0000
,  // measure 20
1000
0100
1000
0000
0001
0000
1000
0000
,  // measure 21
0010
0000
1000
0000
0001
0000
0010
0001
,  // measure 22
0010
0000
0100
1000
0100
0000
1000
0000
,  // measure 23
0001
0100
0010
1000
,  // measure 24
0100
0010
0001
0000
1000
0000
0001
0000
,  // measure 25
0100
0000
0010
0100
0010
0000
1000
0001
,  // measure 26
1000
0000
0001
0000
0010
0000
0100
1000
,  // measure 27
0001
1000
0001
0000
0200
0000
0000
0000
,  // measure 28
0301
0100
0001
0000
1000
0000
0001
0000
,  // measure 29
0010
0000
0001
0000
1000
0000
0010
1000
,  // measure 30
0010
0000
0100
0001
0100
0000
0001
0000
,  // measure 31
1000
0100
0010
0001
,  // measure 32
0100
0010
1000
0000
0001
0000
1000
0000
,  // measure 33
0100
0000
0010
0100
0010
0000
0001
1000
,  // measure 34
0001
0000
1000
0000
0010
0000
0100
0001
,  // measure 35
1000
0001
1000
0000
2002
0000
3003
0000
,  // measure 36
0001
0010
0100
0010
,  // measure 37
0001
0010
0100
1000
,  // measure 38
0010
0000
0100
0001
0100
0000
0010
0000
,  // measure 39
1000
0001
1000
0000
0100
0000
0010
0000
,  // measure 40
0001
0100
0001
1000
,  // measure 41
0001
0000
0010
0000
0100
0000
1000
0001
,  // measure 42
1000
0000
0001
0000
0100
0001
0100
0000
,  // measure 43
0010
1000
0010
0000
1000
0001
1000
0001
,  // measure 44
1000
0010
0100
0010
,  // measure 45
1000
0010
0100
0001
,  // measure 46
0010
0000
0100
1000
0100
0000
0010
0000
,  // measure 47
0001
1000
0001
0000
0100
0000
0010
0000
,  // measure 48
1000
0100
1000
0001
,  // measure 49
1000
0000
0010
0000
0100
0000
0001
1000
,  // measure 50
0001
0000
0010
0100
0010
0100
1000
0000
,  // measure 51
0010
0100
0010
0000
0100
0000
0001
0000
,  // measure 52
0011
1001
0101
1001
,  // measure 53
0001
0010
1000
0001
0100
1000
0010
0000
,  // measure 54
0110
0101
0110
1001
,  // measure 55
0011
0000
0000
0000
1100
0000
0000
0000
1000
0000
0001
0010
0001
0000
1000
0000
,  // measure 56
1010
1001
1100
1001
,  // measure 57
1000
0010
0001
1000
0100
0001
0010
0000
,  // measure 58
0110
1100
1001
0110
,  // measure 59
1001
0202
0003
0020
,  // measure 60
0300
2000
0030
3200
,  // measure 61
0310
0001
2000
0010
0010
0010
3020
0100
,  // measure 62
0100
0100
0230
0001
0001
0301
1001
0000
,  // measure 63
0011
0000
1100
0000
1001
0000
0001
0100
,  // measure 64
1000
0000
0110
0000
1001
0000
1000
0001
,  // measure 65
0010
0000
1100
0000
0011
0000
1000
0010
,  // measure 66
0001
0000
0110
0000
1001
0000
0001
1000
,  // measure 67
1010
0000
0101
0000
1001
0000
1000
0100
,  // measure 68
0001
0000
0110
0000
1001
0000
0001
1000
,  // measure 69
0010
0000
0101
0000
1010
0000
0001
1000
,  // measure 70
1001
0001
0100
0010
,  // measure 71
0100
0000
0001
0000
0100
0010
0100
0000
,  // measure 72
0001
1000
0010
1000
,  // measure 73
0001
0000
1000
0000
0010
1000
0010
0000
,  // measure 74
0100
0001
0100
0000
0001
0000
1000
0000
,  // measure 75
0010
0000
1000
0000
0001
1000
0001
0000
,  // measure 76
0010
0100
1000
0010
,  // measure 77
0100
0010
0100
0000
0001
0100
0001
0000
,  // measure 78
1000
0100
1000
0000
0100
0000
0010
0000
,  // measure 79
0100
0000
1000
0000
0100
0010
0100
0000
,  // measure 80
1000
0001
0010
0001
,  // measure 81
1000
0000
0001
0000
0010
0001
0010
0000
,  // measure 82
0100
1000
0100
0000
1000
0000
0001
0000
,  // measure 83
0010
0000
0001
0000
1000
0001
1000
0000
,  // measure 84
0010
0000
0000
0000
0100
0000
0001
0000
1000
0001
1000
0000
0100
0000
0020
0000
,  // measure 85
0000
0031
0100
0010
,  // measure 86
1000
0000
0001
0000
0100
0010
0100
0000
,  // measure 87
0001
1000
0100
0010
,  // measure 88
0001
0000
1000
0000
0100
1000
0100
0000
,  // measure 89
0010
0001
0010
0000
0001
0000
1000
0000
,  // measure 90
0010
0000
0100
0000
0001
0100
0001
0000
,  // measure 91
0010
0100
1000
0001
,  // measure 92
0100
0001
0100
0000
0010
1000
0010
0000
,  // measure 93
1000
0100
1000
0000
0100
0000
0010
0000
,  // measure 94
0001
0000
1000
0000
0100
0010
0100
0000
,  // measure 95
1000
0001
0100
0010
,  // measure 96
1000
0000
0001
0000
0100
0001
0100
0000
,  // measure 97
0010
1000
0010
0000
1000
0000
0001
0000
,  // measure 98
0010
0000
0100
0000
1000
0001
1000
0000
,  // measure 99
0001
1000
0001
0000
0100
0010
0100
0000
,  // measure 100
0010
2000
0002
0000
,  // measure 101
3003
0000
1000
0100
0101
0100
1000
0100
,  // measure 102
0101
0100
1000
0010
0011
0010
1000
0010
,  // measure 103
0011
1010
0001
0100
1100
0100
0001
0100
,  // measure 104
1100
0100
0001
0010
1010
0010
1001
0000
,  // measure 105
0002
0000
0000
0000
,  // measure 106
2000
0000
0000
0000
0000
0000
0000
0003
,  // measure 107
0020
0000
0000
0000
0000
0000
0000
3000
,  // measure 108
0200
0000
0000
0330
1001
0000
1000
0100
,  // measure 109
0010
0001
1000
0010
,  // measure 110
0100
0001
0100
0000
0010
0000
1000
0000
,  // measure 111
0001
0000
0010
0100
0010
0100
1000
0000
,  // measure 112
0001
0000
0010
0000
0001
0000
0100
0010
,  // measure 113
1000
0010
0100
0001
,  // measure 114
1000
0001
1000
0000
0100
0010
0100
0000
,  // measure 115
0010
0000
0001
1000
0001
1000
0010
0100
,  // measure 116
0010
0000
0200
0000
0000
0000
0301
0100
,  // measure 117
0010
1000
0001
0010
,  // measure 118
0100
1000
0100
0000
0010
0000
0001
0000
,  // measure 119
1000
0000
0010
0100
0010
0100
0001
0000
,  // measure 120
1000
0000
0010
0000
1000
0000
0100
0010
,  // measure 121
0001
0010
0100
1000
,  // measure 122
0001
1000
0001
0000
0100
0010
0100
0000
,  // measure 123
0010
0000
1000
0001
1000
0001
0010
0100
,  // measure 124
0010
0200
0300
1001
,  // measure 125
0000
0000
0000
0000
,  // measure 126
0000
0000
0000
0000
1000
0010
1000
0000
,  // measure 127
0010
0100
0001
0000
1000
0000
0001
0000
,  // measure 128
0010
0200
0300
1100
,  // measure 129
0000
0000
0000
0000
,  // measure 130
0000
0000
0000
0000
1000
0001
1000
0000
,  // measure 131
0001
0100
0010
0000
1000
0000
0001
0000
,  // measure 132
1000
0200
0300
1001
,  // measure 133
0000
0000
0000
0000
,  // measure 134
0000
0000
0000
0000
0001
0010
0001
0000
,  // measure 135
0010
0100
1000
0000
0001
0000
1000
0000
,  // measure 136
0010
0200
0300
0101
,  // measure 137
0000
0000
0000
0000
,  // measure 138
0000
0000
0000
0000
0001
1000
0001
0000
,  // measure 139
1000
0100
0010
0000
0001
1000
0001
0000
,  // measure 140
0100
0020
0000
0030
;
