#VERSION:0.83;
#TITLE:goodnight ojosama;
#SUBTITLE:it's time to go to bed;
#ARTIST:ASMRZ(TANAKA, NEEDMORECASH) (prod. Gwana);
#TITLETRANSLIT:;
#SUBTITLETRANSLIT:;
#ARTISTTRANSLIT:;
#GENRE:;
#ORIGIN:;
#CREDIT:Crash Cringle;
#BANNER:HollowBanner.png;
#BACKGROUND:;
#PREVIEWVID:;
#JACKET:;
#CDIMAGE:;
#DISCIMAGE:;
#LYRICSPATH:;
#CDTITLE:;
#MUSIC:TimeToGoToBed.ogg;
#OFFSET:-0.190000;
#SAMPLESTART:53.189999;
#SAMPLELENGTH:12.000000;
#SELECTABLE:YES;
#BPMS:0.000=120.000;
#STOPS:;
#DELAYS:;
#WARPS:;
#TIMESIGNATURES:0.000=4=4;
#TICKCOUNTS:0.000=4;
#COMBOS:0.000=1;
#SPEEDS:0.000=1.000=0.000=0;
#SCROLLS:0.000=1.000,
104.000=0.000,
105.500=1.000,
120.000=0.000,
121.500=1.000,
136.000=0.000,
137.500=1.000,
166.000=0.020,
176.000=1.000,
208.000=0.000,
209.500=1.000,
211.500=0.250,
211.625=1.010,
213.500=0.250,
213.625=1.010,
215.500=0.250,
215.625=1.010,
217.500=0.250,
217.625=1.010,
219.500=0.250,
219.625=1.010,
221.500=0.250,
221.625=1.010,
224.000=0.000,
225.500=1.000,
227.500=0.250,
227.625=1.010,
229.500=0.250,
229.625=1.010,
231.500=0.250,
231.625=1.010,
233.500=0.250,
233.625=1.010,
235.500=0.250,
235.625=1.010,
237.500=0.250,
237.625=1.010,
240.000=0.000,
241.500=1.000,
250.000=0.010,
251.000=1.000;
#FAKES:68.000=4.000;
#LABELS:0.000=Song Start;
#BGCHANGES:-1.000=TimeToGoToBed-Con.mp4=1.000=0=0=0=StretchNoLoop====,
99999=-nosongbg-=1.000=0=0=0 // don't automatically add -songbackground-
;
#KEYSOUNDS:;
#ATTACKS:
;

//---------------dance-single - ----------------
#NOTEDATA:;
#CHARTNAME:;
#STEPSTYPE:dance-single;
#DESCRIPTION:;
#CHARTSTYLE:;
#DIFFICULTY:Challenge;
#METER:12;
#RADARVALUES:0.323924,0.507859,0.015478,0.518500,0.208948,293.000000,289.000000,2.000000,67.000000,24.000000,1.000000,32.000000,0.000000,8.000000,0.323924,0.507859,0.015478,0.518500,0.208948,293.000000,289.000000,2.000000,67.000000,24.000000,1.000000,32.000000,0.000000,8.000000;
#CREDIT:Crash Cringle;
#NOTES:
// measure 0
0000
0000
0000
0000
,  // measure 1
0000
0000
0000
0000
,  // measure 2
0000
0000
0000
0000
,  // measure 3
0000
0000
0000
0000
,  // measure 4
0000
0000
0000
0000
,  // measure 5
0000
0000
0000
0000
,  // measure 6
0000
0000
0000
0000
,  // measure 7
0000
0000
0000
0000
,  // measure 8
0000
0000
0000
0000
,  // measure 9
0000
0000
0000
0000
,  // measure 10
0000
0000
0001
0000
,  // measure 11
0000
0000
1000
0000
,  // measure 12
0000
0000
0010
1000
,  // measure 13
0001
0010
0001
1000
,  // measure 14
0100
0000
0010
0000
0001
0100
0001
1000
,  // measure 15
0100
1000
0001
0100
0010
1000
0001
0010
,  // measure 16
0001
1000
0100
1000
0001
0100
0010
1000
0001
0000
0000
0000
0000
0000
0000
0000
,  // measure 17
0000
0000
0000
0000
M00M
0MM0
M00M
0MM0
,  // measure 18
0000
0000
0000
0000
1000
0100
1000
0100
,  // measure 19
0010
0000
0001
0000
0010
0000
0001
0000
0100
0000
0000
0010
1000
0000
1000
0000
,  // measure 20
0400
0000
0000
0300
1000
0010
1000
0010
,  // measure 21
0001
0000
0010
0000
1000
0000
0010
0000
2000
0000
0000
3100
1000
0000
0001
0000
,  // measure 22
0040
0000
0000
0000
0000
0000
0000
0030
0001
0000
0010
0000
0001
0000
0010
0000
,  // measure 23
1000
0000
0010
0000
0001
0000
0010
0000
0002
0000
0000
0103
0001
0000
0100
0000
,  // measure 24
0040
0000
0000
0030
1000
0100
1000
0100
,  // measure 25
0001
0000
0100
0000
1000
0000
0010
0000
0200
0000
0000
0310
1000
0000
0MM1
0000
,  // measure 26
0020
0000
0030
0000
0400
0300
0000
0000
1000
0000
0000
0000
0001
0000
0000
0000
0200
0000
0000
0000
0000
0000
1000
0000
0000
0000
0000
0000
M302
0000
0000
0000
,  // measure 27
0023
0000
0000
1000
0000
0000
M032
0000
0203
0000
0000
1000
0000
0000
M302
0000
,  // measure 28
0023
0000
0000
0000
0000
0000
0000
0000
0000
1000
0000
0000
0000
0000
0000
0000
M000
0000
0031
0000
0000
0000
0000
0000
0200
0000
0000
0000
0000
0000
0000
0000
0000
1000
0000
0000
0000
0000
M000
0300
0000
0000
0001
0000
0000
0000
0000
0000
,  // measure 29
0020
0000
0000
0000
0000
0000
0000
0000
0000
0000
0000
0000
0000
0000
0000
0000
0000
0000
0000
0000
0000
0000
0000
0000
0000
0000
0000
0000
0000
0000
0000
0000
0000
0000
0000
0000
1000
0000
0000
0000
0000
0000
0000
0000
0000
0000
0000
0000
0000
0000
0000
0000
0000
0000
0000
0000
M000
0000
0000
0000
0000
0000
0000
0000
0000
0000
0000
0000
0000
0000
0000
0000
0031
0000
0000
0000
0000
0000
0000
0000
0000
0000
0000
0000
0000
0000
0000
0000
0000
0000
0000
0000
0000
0000
0000
0000
0200
0000
0000
0000
0000
0000
0000
0000
0000
0000
0000
0000
0000
0000
0000
0000
0000
0000
0000
0000
0000
0000
0000
0000
0000
0000
0000
0000
0000
0000
0300
0000
0000
0000
0000
0000
0010
0000
0000
0000
0000
0000
0000
0000
0000
0000
0000
0000
1000
0000
0000
0000
0000
0000
0000
0000
0000
0000
0000
0000
0000
0000
0000
0000
0000
0000
0000
0000
0000
0000
0000
0000
1000
0000
0000
0000
0000
0000
0000
0000
0000
0000
0000
0000
0000
0000
0000
0000
0000
0000
0000
0000
0000
0000
0000
0000
,  // measure 30
0001
0000
0010
0000
0100
0000
1000
0000
0020
0000
0000
0001
0000
0000
203M
0000
,  // measure 31
3200
0000
0000
0001
0000
0000
230M
0000
3020
0000
0000
0001
0000
0000
203M
0000
,  // measure 32
3200
0000
0000
0000
0000
0000
0000
0000
0000
0001
0000
0000
0000
0000
0000
0000
000M
0000
1300
0000
0000
0000
0000
0000
0020
0000
0000
0000
0000
0000
0000
0000
0000
0001
0000
0000
0000
0000
000M
0030
0000
0000
1000
0000
0000
0000
0000
0000
,  // measure 33
0200
0000
0000
0000
0000
0000
0000
0000
0000
0001
0000
0000
0000
0000
000M
0000
0000
0000
1300
0000
0000
0000
0000
0000
0020
0000
0000
0000
0000
0000
0000
0000
0000
0130
0000
0000
0001
0000
0000
0000
0000
0000
1000
0000
0000
0000
0000
0000
,  // measure 34
0002
0003
0010
0000
0100
0000
1000
0000
0001
0000
0000
1000
0000
0000
0100
0000
,  // measure 35
0000
0000
1000
0000
0010
0000
0100
0000
0002
0003
0000
0002
0003
0000
0002
0000
,  // measure 36
0000
0003
2000
3000
0002
0000
0103
0000
0002
0003
0000
0020
0030
0000
0200
0300
,  // measure 37
0000
0000
0100
0000
1000
0000
0010
0000
2000
0000
3000
0200
0000
0300
0002
0003
,  // measure 38
0200
0000
0000
2300
0000
3000
0020
0030
0002
0003
0000
0000
0020
0000
0000
0030
,  // measure 39
2000
0000
0000
3000
0002
0003
0000
0000
0200
0000
0300
0000
0020
0000
0030
0000
,  // measure 40
1000
0000
0000
0000
0002
0003
0000
0000
0010
0000
0001
0000
1000
0000
0100
0000
,  // measure 41
1000
0001
0010
0001
2002
0000
0000
0000
,  // measure 42
0000
0000
0000
0000
,  // measure 43
0000
0000
0000
0000
,  // measure 44
0000
3003
0000
0000
1000
0001
0010
1000
,  // measure 45
0001
0000
0100
0000
1000
0000
0010
0000
0200
0000
0000
0310
0001
0000
0010
0000
,  // measure 46
0400
0000
0000
0000
0000
0300
0000
0000
0010
0000
0100
0000
1000
0000
0001
0000
,  // measure 47
0010
0000
1000
0000
0001
0000
0010
0000
0002
0000
0000
1000
0013
0000
0100
0000
,  // measure 48
0040
0000
0000
0000
0000
0000
0000
0000
0000
0000
0000
0000
0000
0030
0000
0000
1000
0000
0000
0000
0100
0000
0000
0000
0001
0000
0000
0000
1000
0000
0000
0000
,  // measure 49
0010
0000
0001
0000
0100
0000
0010
0000
2000
0000
0000
3001
1000
0000
0010
0000
,  // measure 50
4000
0000
0000
0000
0000
0000
0000
0000
0000
0000
0000
3000
0000
0000
0000
0000
0001
0000
0000
0000
0010
0000
0000
0000
1000
0000
0000
0000
0001
0000
0000
0000
,  // measure 51
0100
0000
1000
0000
0010
0000
0001
0000
0020
0000
0000
1030
0010
0000
1000
0000
,  // measure 52
0001
0000
0010
0000
0100
0000
1000
0000
0004
0000
0000
0403
0000
0000
0302
0003
,  // measure 53
4000
0000
0000
3400
0000
0000
2300
3000
0004
0000
0000
0043
0000
0030
2000
3000
,  // measure 54
0040
0000
0000
0034
0000
0003
0200
0300
0004
0000
0003
4000
0000
3000
0020
0030
,  // measure 55
0400
0000
0300
0004
0000
0000
0203
0300
0002
0000
0003
1000
0001
0000
1000
0000
,  // measure 56
0001
0000
0010
0000
0100
0000
1000
0000
0004
0000
0000
0403
0000
0000
2300
3000
,  // measure 57
0400
0000
0300
0004
0000
0000
0023
0030
0004
0000
0000
4003
0000
0000
3020
0030
,  // measure 58
0400
0000
0000
0304
0000
0000
2003
3000
0004
0000
0000
0043
0000
0030
2000
3000
,  // measure 59
0040
0000
0000
0034
0000
0000
2003
3000
0020
0000
0000
1030
0010
0000
1000
0000
,  // measure 60
0002
0000
0003
0000
0040
0030
0000
0000
0100
0000
0000
0000
1000
0000
0000
0000
0000
0000
0000
0000
0000
0000
0000
0000
00M0
0000
0000
0000
0M00
0000
0000
0000
,  // measure 61
00M0
0000
0M00
0000
00M0
0000
0M00
0000
00M0
0000
0000
0M00
0000
0000
00M0
0000
,  // measure 62
0000
0M00
0000
0001
1000
0000
0000
0000
1111
0000
0000
0000
0000
0000
0000
0000
;
