#VERSION:0.83;
#TITLE:deadeye;
#SUBTITLE:;
#ARTIST:Acotto;
#TITLETRANSLIT:;
#SUBTITLETRANSLIT:;
#ARTISTTRANSLIT:;
#GENRE:;
#CREDIT:;
#MUSIC:deadeye.ogg;
#BANNER:bn.png;
#BACKGROUND:bg.png;
#JACKET:;
#DISCIMAGE:;
#CDIMAGE:;
#SELECTABLE:YES;
#LYRICSPATH:;
#CDTITLE:;
#SAMPLESTART:105.585;
#SAMPLELENGTH:11.497;
#OFFSET:0.762;
#BPMS:0.000000=167.000000;
#STOPS:;
#WARPS:;
#DELAYS:;
#SPEEDS:;
#SCROLLS:;
#TICKCOUNTS:;
#TIMESIGNATURES:;
#LABELS:;
#COMBOS:;
#FAKES:;
#BGCHANGES:;
#FGCHANGES:;
#ATTACKS:;

//---------------dance-single - ---------------
#NOTEDATA:;
#CHARTNAME:;
#CHARTSTYLE:;
#CREDIT:Talkion;
#STEPSTYPE:dance-single;
#DESCRIPTION:;
#DIFFICULTY:Beginner;
#METER:4;
#METERF:4;
#RADARVALUES:0,0,0,0,0;
#NOTES:
// measure 0
0000
0000
0000
0000
,  // measure 1
0000
0000
0000
0000
,  // measure 2
0000
0000
0000
0000
,  // measure 3
0000
0000
0000
0000
,  // measure 4
0000
0000
0000
0000
,  // measure 5
0000
0000
0000
0000
,  // measure 6
0000
0000
0000
0000
,  // measure 7
0000
0000
0000
0000
,  // measure 8
0000
0000
0000
0000
,  // measure 9
0000
0000
0000
0000
,  // measure 10
1001
0000
0001
0000
,  // measure 11
0001
0000
0000
0000
,  // measure 12
1000
1000
0000
0000
0000
0000
0000
0000
,  // measure 13
0010
0000
0000
0000
,  // measure 14
1000
0000
0001
0000
,  // measure 15
1000
0000
0010
0000
,  // measure 16
2000
0000
0000
0000
,  // measure 17
3000
0000
0000
0000
,  // measure 18
0010
0000
1000
0000
,  // measure 19
0001
0000
0010
0000
,  // measure 20
0100
0000
0100
0000
,  // measure 21
1000
0000
0001
0000
,  // measure 22
1000
0000
0010
0000
,  // measure 23
0100
0000
0001
0000
,  // measure 24
0100
0000
0100
0000
,  // measure 25
0000
0000
0000
0000
,  // measure 26
0000
0001
0000
0001
,  // measure 27
0000
1000
0000
1000
,  // measure 28
0000
0001
0000
0001
,  // measure 29
0000
1000
0000
1000
,  // measure 30
0010
0000
0000
0000
,  // measure 31
1000
0000
0000
0000
,  // measure 32
0001
0000
0000
0000
,  // measure 33
1000
0000
0000
0001
0000
0000
0000
0000
,  // measure 34
0010
0000
0000
0000
,  // measure 35
0001
0000
0000
0000
,  // measure 36
1000
0000
0000
0000
,  // measure 37
0002
0000
0000
0003
,  // measure 38
1001
0000
0000
0000
1000
0000
0000
1000
,  // measure 39
0000
0000
0000
0000
0001
0000
0000
0002
,  // measure 40
0000
0000
0000
0000
0000
0000
0000
0003
,  // measure 41
0000
0000
0000
0000
,  // measure 42
1001
0000
0000
0000
1000
0000
0000
1000
,  // measure 43
0000
0000
0000
0000
,  // measure 44
0002
0000
0000
0000
,  // measure 45
0003
0000
0000
0000
,  // measure 46
0000
0000
0000
0000
,  // measure 47
0000
0000
0000
0000
,  // measure 48
0000
0000
0000
0000
,  // measure 49
0000
0000
0000
0000
,  // measure 50
0000
0000
0000
0000
,  // measure 51
0000
0000
0000
0000
1000
0000
0000
2001
,  // measure 52
0000
0000
3000
0000
,  // measure 53
0000
0000
0000
0000
0001
0000
0000
1002
,  // measure 54
0000
0000
0000
0003
,  // measure 55
2000
0000
0000
0000
,  // measure 56
0000
0000
0000
3000
,  // measure 57
0002
0000
0000
0000
,  // measure 58
0000
0000
0000
0003
,  // measure 59
0200
0000
0000
0300
,  // measure 60
0020
0000
0000
0030
,  // measure 61
2000
0000
0000
3000
,  // measure 62
1001
0000
0000
0000
,  // measure 63
0000
0000
0000
0000
,  // measure 64
0001
0001
0000
0000
0000
0000
0000
0000
,  // measure 65
1000
0000
0000
1000
0000
0000
0000
0000
,  // measure 66
0001
0000
1000
0000
,  // measure 67
0001
0000
0010
0000
,  // measure 68
0001
0000
1000
0000
,  // measure 69
0001
0000
0000
0000
,  // measure 70
1000
0000
0000
1000
0000
0000
0000
0000
,  // measure 71
0001
0000
0000
0001
0000
0000
0000
0000
,  // measure 72
2000
0000
0000
0000
,  // measure 73
3000
0000
0000
0000
,  // measure 74
0001
0000
0100
0000
,  // measure 75
0001
0000
0010
0000
,  // measure 76
0200
0000
0000
0300
,  // measure 77
0200
0000
0000
0300
,  // measure 78
1000
0000
0100
0000
,  // measure 79
1000
0000
0010
0000
,  // measure 80
0200
0000
0000
0300
,  // measure 81
0100
0000
0000
0000
,  // measure 82
0000
0000
0001
0000
,  // measure 83
0010
0000
0001
0000
,  // measure 84
1000
0000
0010
0000
,  // measure 85
1000
0000
0001
0000
,  // measure 86
0010
0000
0000
0000
0100
0000
0000
0100
,  // measure 87
0000
0000
0000
0000
,  // measure 88
2000
0000
0000
3000
,  // measure 89
0002
0000
0003
0000
,  // measure 90
1001
0000
1000
0000
,  // measure 91
1000
0000
1000
0000
,  // measure 92
0001
0000
0001
0000
,  // measure 93
0010
0000
0010
0000
,  // measure 94
0100
0000
0100
0000
,  // measure 95
0100
0000
0100
0000
,  // measure 96
0000
0000
0000
0000
,  // measure 97
0000
0000
0000
0000
,  // measure 98
0000
2000
0000
0000
0000
0000
0000
0000
,  // measure 99
0000
0000
0000
0000
0000
0000
0000
0000
0000
0000
0000
3000
0000
0000
0000
1001
;

//---------------dance-single - RH---------------
#NOTEDATA:;
#CHARTNAME:;
#CHARTSTYLE:;
#CREDIT:Talkion;
#STEPSTYPE:dance-single;
#DESCRIPTION:RH;
#DIFFICULTY:Easy;
#METER:8;
#METERF:8;
#RADARVALUES:0,0,0,0,0;
#NOTES:
// measure 0
0000
0000
0000
0000
,  // measure 1
0000
0000
0000
0000
,  // measure 2
0000
0000
0000
0000
,  // measure 3
0000
0000
0000
0000
,  // measure 4
0000
0000
0000
0000
,  // measure 5
0000
0000
0000
0000
,  // measure 6
0000
0000
0000
0000
,  // measure 7
0000
0000
0000
0000
,  // measure 8
0000
0000
0000
0000
,  // measure 9
0000
0000
0000
0000
,  // measure 10
1001
0001
0001
0001
,  // measure 11
0100
0000
0000
0000
0001
0000
0000
0000
0001
0000
0000
0010
0000
0000
0010
0000
,  // measure 12
0000
0001
0001
1000
,  // measure 13
0010
0010
0010
0100
,  // measure 14
0001
0000
1000
0000
,  // measure 15
0001
0000
0010
0100
,  // measure 16
1000
0010
1000
0010
,  // measure 17
0000
0000
0000
0000
,  // measure 18
1001
1000
0100
1000
,  // measure 19
0001
0100
0001
0010
,  // measure 20
0010
0001
1000
0001
,  // measure 21
0100
0010
0100
0001
,  // measure 22
1001
1000
0100
0010
,  // measure 23
0100
1000
0001
0100
,  // measure 24
0010
0010
1000
0100
,  // measure 25
0000
0000
0000
0000
,  // measure 26
1000
0000
0002
0000
0003
1000
0100
0000
,  // measure 27
1000
0000
0002
0000
0003
0100
0010
0000
,  // measure 28
1000
0000
0002
0000
0003
1000
0100
0000
,  // measure 29
1000
0001
0100
0100
,  // measure 30
0010
0000
0000
0000
1000
0000
0000
0001
0000
0000
1000
0000
0000
0001
0000
0000
,  // measure 31
0000
1000
0100
0010
,  // measure 32
0000
0000
0000
0000
0001
0000
0000
1000
0000
0000
0001
0000
0000
1000
0000
0000
,  // measure 33
0010
0000
0000
0010
0000
0000
1000
0000
,  // measure 34
0100
0000
0000
0000
1000
0000
0000
0001
0000
0000
1000
0000
0000
0001
0000
0000
,  // measure 35
0000
2000
3000
0000
,  // measure 36
0002
0000
0003
0200
0000
0000
0000
0300
,  // measure 37
0020
0000
0000
0030
,  // measure 38
1010
0000
0000
0000
0000
0000
0000
0000
1000
0000
0000
0001
0000
0000
0010
0000
,  // measure 39
0000
0000
0000
0000
0000
0000
0000
0000
0001
0000
0000
1000
0000
0000
0010
0000
,  // measure 40
0000
0200
0000
0000
0000
0000
0000
0300
,  // measure 41
0000
0001
0010
0000
,  // measure 42
0011
0000
0000
0000
0000
0000
0000
0000
0001
0000
0000
1000
0000
0000
0010
0000
,  // measure 43
0000
0000
1000
0001
,  // measure 44
0020
0000
0000
0000
0000
0000
0000
0030
,  // measure 45
0200
0000
0300
2000
0000
3000
0002
0000
,  // measure 46
0000
0000
0000
0000
0000
0000
0000
0003
,  // measure 47
0200
0000
0300
0020
0000
0030
2000
0000
,  // measure 48
0000
0000
0000
0000
0000
3000
0001
0000
,  // measure 49
0020
0000
0000
0000
,  // measure 50
0030
0000
0000
0000
,  // measure 51
0000
0000
0000
0000
0000
0000
0000
0000
0001
0000
0000
0100
0000
0000
0101
0000
,  // measure 52
0000
0000
0000
0000
,  // measure 53
0000
0000
0000
0000
0000
0000
0000
0000
1000
0000
0000
0100
0000
0000
1100
0000
,  // measure 54
0000
2000
0000
0000
0000
0000
0000
3000
,  // measure 55
0002
0000
0003
0200
0000
0300
0020
0000
,  // measure 56
0000
0000
0000
0030
,  // measure 57
2000
0000
3000
0200
0000
0300
0020
0000
,  // measure 58
0000
0000
0000
0000
0000
0030
0001
0000
,  // measure 59
0200
0000
0000
0000
0000
0000
0000
0300
,  // measure 60
0020
0000
0000
0000
0000
0000
0000
0030
,  // measure 61
2000
0000
0000
0000
0000
0000
0000
3000
,  // measure 62
1001
0000
0000
0000
,  // measure 63
0000
0000
0000
0000
,  // measure 64
1001
1001
0000
0000
0000
0000
0000
0000
,  // measure 65
0001
0000
0000
0001
0000
0000
0001
0000
,  // measure 66
1000
0000
0001
0000
,  // measure 67
1000
0000
0010
0000
,  // measure 68
1000
0000
0001
0000
,  // measure 69
1000
0000
0100
0000
,  // measure 70
1000
0000
0000
0001
0000
0000
0010
0000
0000
0100
0000
0000
0000
0000
0000
0000
,  // measure 71
1000
0000
0000
0010
0000
0000
0100
0000
0000
0000
0000
0000
0000
0000
0000
0000
,  // measure 72
0001
1000
0001
1000
,  // measure 73
0000
0000
0000
0000
,  // measure 74
0001
0010
0001
1000
,  // measure 75
0001
0010
0100
1000
,  // measure 76
0010
0000
0100
0000
0002
0000
0000
0003
,  // measure 77
0010
0000
0100
0000
2000
0000
0000
3000
,  // measure 78
0001
0100
0001
1000
,  // measure 79
0001
0100
0010
1000
,  // measure 80
0100
0000
0010
0000
0002
0000
0000
0003
,  // measure 81
1000
0000
0000
1000
0000
0000
0000
0000
0000
0001
0000
0000
0001
0000
0000
0000
,  // measure 82
0000
1000
0010
1000
,  // measure 83
0200
0000
0000
0300
0010
0000
0001
0000
,  // measure 84
0100
0000
0020
0000
0000
0000
0000
0030
,  // measure 85
2000
0000
0000
3000
0001
0000
0010
0000
,  // measure 86
0100
0000
0000
0000
0000
0000
0000
0000
1000
0000
0000
0010
0000
0000
0110
0000
,  // measure 87
0000
0100
0000
0000
0001
0000
1000
0000
,  // measure 88
0100
0000
0000
0020
0000
0000
0000
0000
0000
0000
0000
0000
0030
0000
0001
0000
,  // measure 89
0200
0000
0300
0000
,  // measure 90
1001
1000
1000
1000
,  // measure 91
0100
0000
0000
0000
1000
0000
0000
0000
1000
0000
0000
0010
0000
0000
0010
0000
,  // measure 92
0000
1000
1000
0001
,  // measure 93
0010
0010
0010
0100
,  // measure 94
0000
0000
0000
0000
1000
0000
0000
0000
1000
0000
0000
1000
0000
0000
0000
0000
,  // measure 95
0100
0000
0000
0000
1000
0000
0000
1000
0000
0000
0000
0000
0100
0000
0000
0000
,  // measure 96
1000
0000
0000
0000
0001
0000
0000
1000
0000
0000
0000
1000
0000
0000
0000
0010
,  // measure 97
0000
0000
0000
0000
1000
0000
0000
0001
0000
0000
0000
0001
0000
0000
0000
0010
,  // measure 98
0000
0002
0000
0000
0000
0000
0000
0000
,  // measure 99
0000
0000
0000
0000
0000
0000
0000
0000
0000
0000
0000
0000
0000
0003
0000
1001
;

//---------------dance-single - RH- XO----------------
#NOTEDATA:;
#CHARTNAME:;
#CHARTSTYLE:;
#CREDIT:Talkion;
#STEPSTYPE:dance-single;
#DESCRIPTION:RH- XO-;
#DIFFICULTY:Medium;
#METER:12;
#METERF:12;
#RADARVALUES:0,0,0,0,0;
#NOTES:
// measure 0
0000
0000
0000
0000
,  // measure 1
0000
0000
0000
0000
,  // measure 2
0000
0000
0000
0000
,  // measure 3
0000
0000
0000
0000
,  // measure 4
0000
0000
0000
0000
,  // measure 5
0000
0000
0000
0000
,  // measure 6
0000
0000
0000
0000
,  // measure 7
0000
0000
0000
0000
,  // measure 8
0000
0000
0000
0000
,  // measure 9
0000
0000
0000
0000
,  // measure 10
1001
0000
0000
0000
1000
0000
0100
0000
1000
0000
0000
1000
0000
0000
0100
0000
,  // measure 11
1000
0000
0100
0000
1000
0000
0000
1000
0000
0000
0000
0010
0000
0000
0010
0000
,  // measure 12
0100
0000
0100
0000
0001
0000
0100
0000
0001
0000
0000
0001
0000
0000
0100
0000
,  // measure 13
0010
0000
0100
0000
0010
0000
0000
0010
0000
0000
0010
0000
1000
0000
0000
0000
,  // measure 14
0002
0000
0000
0010
0000
0000
1003
0000
0001
0000
0000
0010
0000
0000
0001
0000
,  // measure 15
2000
0000
0000
0010
0000
0000
3001
0000
0000
0010
0000
0000
0100
0000
0010
0000
,  // measure 16
0001
1000
0001
1000
0001
1000
0010
0100
,  // measure 17
0000
0000
0000
0000
0000
0000
0000
0000
0002
0003
0100
0000
0001
0000
0000
0000
,  // measure 18
1001
0000
0000
0000
1000
0000
0100
0000
0010
0000
0100
0000
1000
0000
0000
1000
,  // measure 19
0000
0000
0001
0000
0100
0000
0000
0010
0000
0000
1000
0000
0100
0000
0000
0100
,  // measure 20
0000
1000
0001
0100
0001
0100
0010
1000
,  // measure 21
0001
0000
0000
0010
0000
0000
0001
0000
0100
0000
0010
0000
1000
0000
0000
0000
,  // measure 22
1001
0000
0000
0000
0001
0000
0000
0100
0000
0001
0000
0010
0000
0000
0001
0000
,  // measure 23
1000
0000
0000
0100
0000
0000
1000
0000
0010
0000
0100
0000
0001
0000
0000
1000
,  // measure 24
0000
0000
1000
0000
0100
0000
1000
0000
0001
0000
1000
0000
0010
0000
0000
0100
,  // measure 25
0000
0000
0000
0000
0000
0000
0000
0000
0010
0000
0000
0010
0000
0000
2000
3000
,  // measure 26
1001
0000
0000
0000
0002
0000
0000
0023
0000
0000
0031
0000
0100
0000
0010
0000
,  // measure 27
1000
0000
0001
0000
2000
0000
0000
3020
0000
0000
1030
0000
0100
0000
0010
0000
,  // measure 28
0001
0000
1000
0000
0002
0000
0000
0023
0000
0000
0031
0000
0100
0000
0010
0000
,  // measure 29
1000
0001
0010
0100
0010
0001
0010
0001
,  // measure 30
0100
0000
0000
0000
0001
0000
0000
0100
0000
0000
1000
0000
0000
0100
0000
0000
,  // measure 31
0001
0001
1000
0100
1000
0010
0100
0000
,  // measure 32
0001
0000
0000
0000
1000
0000
0000
0100
0000
0000
0001
0000
0000
0100
0000
0000
,  // measure 33
1000
0000
0000
0010
0000
0000
0100
0000
0000
0010
0000
0000
1000
0000
0000
0000
,  // measure 34
1001
0000
0000
0000
0001
0000
0000
0010
0000
0000
1000
0000
0000
0010
0000
0000
,  // measure 35
0001
0001
1000
0010
1000
0000
0000
0000
,  // measure 36
0002
0000
0000
2003
0000
0000
0000
0000
,  // measure 37
3100
0000
0000
0010
0000
0000
0100
0000
0000
1000
0000
0000
0010
0000
0000
0000
,  // measure 38
2010
0000
0000
0000
3001
0000
0000
0000
0012
0000
0000
1000
0000
0000
0203
0000
,  // measure 39
0000
0000
0000
0000
0310
0000
0010
0000
2000
0000
0000
0001
0000
0000
3200
0000
,  // measure 40
0000
0000
0320
0000
0000
0100
0000
0000
0031
0000
0000
1000
0000
0000
0010
0000
,  // measure 41
0000
1000
0000
0000
0002
0000
0000
0000
0013
0000
0000
0000
0000
0000
0000
0000
,  // measure 42
0012
0000
0000
0000
1003
0000
0000
0000
2010
0000
0000
0001
0000
0000
3200
0000
,  // measure 43
0000
0300
0000
0000
2000
0000
3002
0000
,  // measure 44
0203
0000
0000
0000
,  // measure 45
0320
0000
0000
2030
0000
0000
3002
0000
,  // measure 46
0000
0000
0000
0000
,  // measure 47
0023
0000
0000
0230
0000
0000
2300
0000
,  // measure 48
0000
0000
0000
0000
0000
0000
3100
0010
,  // measure 49
0002
0000
0000
0000
,  // measure 50
1003
0000
0000
0000
0002
0000
0000
0203
0000
0000
0320
0000
0000
0000
0000
0000
,  // measure 51
0000
0000
0000
0000
0000
0000
1030
0000
0001
0000
0000
0010
0000
0000
0210
0000
,  // measure 52
0000
0000
0000
0000
0000
0000
1300
0000
0002
0000
0000
0203
0000
0000
0320
0000
,  // measure 53
0000
0000
1030
0000
0100
0000
1000
0000
0001
0000
0000
0100
0000
0000
0120
0000
,  // measure 54
0000
2030
0000
0000
0000
0000
0000
0000
,  // measure 55
3002
0000
0000
0023
0000
0000
0230
0000
,  // measure 56
0000
0000
0000
0300
,  // measure 57
2000
0000
0000
3020
0000
0000
0230
0000
,  // measure 58
0000
0000
0000
0302
,  // measure 59
0023
0000
0000
0000
,  // measure 60
0230
0000
0000
0000
,  // measure 61
2300
0000
0000
0000
0000
0000
0000
3000
,  // measure 62
1001
0000
0000
0000
,  // measure 63
0000
0000
0000
0000
,  // measure 64
1001
1001
0000
0000
0000
0000
0000
0000
,  // measure 65
0001
0100
0000
0001
0100
0010
1000
0000
,  // measure 66
0001
0000
0000
0001
0000
0000
0010
0000
0001
0000
0000
0001
0000
0000
0000
0000
,  // measure 67
1000
0000
0000
1000
0000
0000
0010
0000
1000
0000
0100
0000
0010
0000
0000
0000
,  // measure 68
0001
0000
0000
0001
0000
0000
0100
0000
0001
0000
0000
0001
0000
0000
0000
0000
,  // measure 69
1000
0000
0000
1000
0000
0000
0100
0000
1000
0000
0000
0000
0000
0000
0000
0000
,  // measure 70
2100
0000
0000
0100
0000
0000
3002
0000
0000
0103
0000
0000
0000
0000
0000
0000
,  // measure 71
0102
0000
0000
0100
0000
0000
1003
0000
0000
0000
0000
0000
0000
0000
0000
0000
,  // measure 72
0001
1000
0001
1000
0001
1000
0100
0010
,  // measure 73
0000
0000
0000
0001
,  // measure 74
0102
0000
0000
1000
0000
0000
0013
0000
0002
0000
0000
0010
0000
0000
1003
0000
,  // measure 75
2100
0000
0000
0001
0000
0000
3010
0000
0200
0000
0000
1000
0000
0000
0310
0000
,  // measure 76
2000
0000
0000
0010
0000
0000
3002
0000
0000
0000
1003
0000
0001
0000
1000
0000
,  // measure 77
0200
0000
0000
0010
0000
0000
0302
0000
0000
0000
0103
0000
0010
0000
0000
0000
,  // measure 78
0012
0000
0000
1000
0000
0000
0103
0000
0002
0000
0000
0100
0000
0000
1003
0000
,  // measure 79
2010
0000
0000
0001
0000
0000
3100
0000
0020
0000
0000
1000
0000
0000
0130
0000
,  // measure 80
2000
0000
0000
0100
0000
0000
3002
0000
0000
0000
1003
0000
0001
0000
1000
0000
,  // measure 81
0010
0000
0000
0010
0000
0000
0010
0000
0000
0100
0000
0000
0100
0000
0100
0000
,  // measure 82
0001
0000
0000
0000
0100
0000
0001
0000
0020
0000
0000
1000
0000
0000
0230
0000
,  // measure 83
0000
0000
0310
0000
0100
0000
1000
0000
0020
0000
0000
0001
0000
0000
0230
0000
,  // measure 84
0000
0310
0100
0002
0000
0103
0001
0010
,  // measure 85
0200
0010
2300
0100
,  // measure 86
3002
0000
0000
0000
0103
0000
0000
0000
0102
0000
0000
1000
0000
0000
0023
0000
,  // measure 87
0000
0030
0011
0000
0000
0000
0000
0000
0002
0000
0000
0000
2003
0000
0000
0000
,  // measure 88
3020
0000
0000
0230
0000
0000
0000
0000
0000
0000
0000
0000
0000
0000
0310
0000
,  // measure 89
2000
0000
0000
0000
3100
0010
0001
0000
,  // measure 90
1001
0000
0000
0000
1000
0000
0010
0000
1000
0000
0000
1000
0000
0000
0010
0000
,  // measure 91
1000
0000
0010
0000
1000
0000
0000
1000
0000
0000
0000
0100
0000
0000
0100
0000
,  // measure 92
0010
0000
0000
0000
0001
0000
0010
0000
0001
0000
0000
0001
0000
0000
0010
0000
,  // measure 93
0100
0000
0010
0000
0100
0000
0000
0100
0000
0000
0100
0000
1000
0000
0000
0000
,  // measure 94
0001
0000
0001
0000
0100
0000
0010
0000
0100
0000
0000
0100
0000
0000
0010
0000
,  // measure 95
0100
0000
0010
0000
0100
0000
0000
0100
0000
0000
0100
0000
0001
0000
0000
0000
,  // measure 96
1000
0000
0100
0000
0010
0000
0000
0001
0000
0000
0000
1000
0000
0000
0000
0001
,  // measure 97
0000
0000
0100
0000
0010
0000
0000
1000
0000
0000
0000
0001
0000
0000
0000
1000
,  // measure 98
0000
0200
0000
0000
0000
0000
0000
0000
,  // measure 99
0000
0000
0000
0000
0000
0000
0000
0000
0000
0000
0000
0000
0000
0300
0000
1100
;

//---------------dance-single - XO----------------
#NOTEDATA:;
#CHARTNAME:;
#CHARTSTYLE:;
#CREDIT:Talkion;
#STEPSTYPE:dance-single;
#DESCRIPTION:XO-;
#DIFFICULTY:Hard;
#METER:17;
#METERF:17;
#RADARVALUES:0,0,0,0,0;
#NOTES:
// measure 0
0000
0000
0000
0000
,  // measure 1
0000
0000
0000
0000
,  // measure 2
0000
0000
0000
0000
,  // measure 3
0000
0000
0000
0000
,  // measure 4
0000
0000
0000
0000
,  // measure 5
0002
0000
0000
0000
0000
0000
0000
0000
0023
0000
0000
0230
0000
0000
2300
0000
,  // measure 6
0000
0000
0000
0000
0000
0000
0000
0000
3002
0000
0000
0203
0000
0000
0320
0000
,  // measure 7
0000
0000
2030
0000
0000
0000
0000
0000
0000
0000
0000
0000
0000
0000
3001
0010
,  // measure 8
0200
0000
0320
0032
,  // measure 9
2003
0000
0000
0000
0000
0000
0000
3000
,  // measure 10
1001
0000
0000
0000
0001
0100
0000
0100
0001
0000
0100
0001
0000
0100
0001
0000
,  // measure 11
1000
0100
0000
0100
1000
0000
0100
1000
0000
0100
1000
0010
0000
0000
0010
0000
,  // measure 12
0100
0000
0100
0000
0001
0100
0010
0100
0001
0000
1000
0100
0000
0100
1000
0000
,  // measure 13
0010
0100
0000
0100
0010
0000
0100
0010
0000
0010
0100
0001
0010
0000
0000
0000
,  // measure 14
0002
0000
0000
0010
0000
0000
1003
0000
2001
0000
0000
0010
0000
0000
3001
1000
,  // measure 15
0002
0000
0000
0100
0000
0000
1003
0000
0100
0010
0000
0001
1000
0000
0010
0100
,  // measure 16
0001
1000
0100
1000
0001
1000
0100
1000
0001
0100
0001
1000
0001
0100
0010
1000
,  // measure 17
0000
0000
0000
0000
0000
0000
0000
0000
0200
0300
0010
0000
0001
0000
0000
0000
,  // measure 18
1001
0000
0000
0000
1000
0010
1000
0000
0001
0010
0000
0010
0100
0000
1000
0001
,  // measure 19
0000
0100
0010
0100
0010
0000
1000
0100
0000
0100
0010
0000
0001
0100
0000
0100
,  // measure 20
0000
0010
0100
0000
0001
1000
0000
1000
0000
0100
1000
0000
0100
0000
0010
0100
,  // measure 21
0010
0001
0000
1000
0000
0010
0100
0000
0001
0010
0000
0010
0100
0000
1000
0000
,  // measure 22
1001
0000
0001
0100
0010
0100
0000
0010
0000
0100
0001
0010
0000
0010
0100
0000
,  // measure 23
1000
0000
0100
0010
0000
0010
0001
0000
1000
0000
0010
0000
0100
0010
0000
1000
,  // measure 24
0000
0001
0010
0001
0000
1000
0000
0010
0100
0010
0000
1000
0000
0100
0010
0001
,  // measure 25
0000
1000
0000
0000
0001
0000
0100
0000
0010
0100
0000
0100
0000
0010
2000
3000
,  // measure 26
1001
0000
0000
0000
0001
0010
0100
2000
0000
0000
3010
0000
0011
0000
1000
0100
,  // measure 27
1000
0001
0000
1000
0000
0010
0100
0002
0000
0000
0013
0000
1010
0000
0001
0000
,  // measure 28
1000
0000
0100
0010
0000
0001
0100
0010
0000
0010
0001
0000
0010
0000
1000
0001
,  // measure 29
1000
0100
0010
0100
1000
0001
0100
0010
0000
0010
1000
0000
0001
0000
0010
0001
,  // measure 30
0100
0000
0000
0000
0001
0200
0000
1300
0200
0000
0301
0200
0000
1300
0200
0000
,  // measure 31
0301
0000
0001
0000
1000
0100
0000
0001
0100
0000
0100
0000
1000
0001
0100
0010
,  // measure 32
1000
0000
0001
0000
1000
0020
0000
0031
0020
0000
1030
0020
0000
0031
0020
0000
,  // measure 33
2030
0000
0000
0100
0000
0000
3002
0000
0000
0103
0000
0100
0010
0000
1000
0000
,  // measure 34
1001
0000
0000
0000
1000
0200
0000
0301
0200
0000
1300
0200
0000
0301
0200
0000
,  // measure 35
1300
0000
1000
0000
0001
0100
0000
1000
0100
0000
0000
0000
0000
0000
0000
0000
,  // measure 36
0002
0000
0000
2003
0000
0000
3200
0000
,  // measure 37
0320
0000
0000
0100
0000
0000
0032
0000
0000
0013
0100
1000
0010
0000
0000
0000
,  // measure 38
2010
0000
0000
0000
3001
1000
0001
0010
0200
0000
0000
0001
0000
0000
1300
0000
,  // measure 39
0000
0000
0001
0000
0100
0000
0100
0000
0020
0000
0000
0001
0000
0000
1030
0000
,  // measure 40
0000
0000
2001
0000
0000
0100
0000
0000
3002
0000
0000
0010
0000
0000
2003
0000
,  // measure 41
0000
0010
0000
0000
3001
0100
0010
0100
0001
0000
0000
0010
0000
0000
0010
0000
,  // measure 42
0012
0000
0000
0000
1003
0001
1000
0010
0200
0000
0000
1000
0000
0000
0301
0000
,  // measure 43
0000
0100
0010
0000
2000
0000
3002
0000
,  // measure 44
0023
0000
0000
0000
,  // measure 45
0230
0000
0000
2300
0000
0000
3002
0000
,  // measure 46
0000
0000
0000
0000
,  // measure 47
0203
0000
0000
0320
0000
0000
2030
0000
,  // measure 48
0000
0000
0000
0000
0000
0000
3010
0100
,  // measure 49
0002
0000
0000
0000
,  // measure 50
2003
0000
0000
0000
3200
0000
0000
1000
0000
0000
0320
0000
0000
0000
0000
0000
,  // measure 51
0000
0000
0000
0000
0000
0000
0031
0000
1001
0000
0000
1010
0000
0000
1002
0000
,  // measure 52
0000
0000
0000
0000
0000
0000
0013
0100
2000
0000
0000
0100
0000
0000
3002
0000
,  // measure 53
0000
0000
0103
0000
0010
0000
1000
0000
1001
0000
0000
0011
0000
0000
2001
0000
,  // measure 54
0000
3020
0000
0000
0000
0000
0000
0000
,  // measure 55
2030
0000
0000
0010
0000
0000
3002
0000
0000
1000
0000
0000
0023
0000
0000
0001
,  // measure 56
0000
0000
0130
0010
0000
0100
1000
0000
0100
0010
0000
0100
1000
0000
0100
0010
,  // measure 57
0002
0000
0000
0010
0000
0000
2003
0000
0000
0001
0000
0000
3020
0000
0000
1000
,  // measure 58
0000
0000
0130
0000
0001
0000
0100
0010
0000
0100
0001
0000
0100
0010
0000
1000
,  // measure 59
0001
0000
1000
0100
0000
1000
0001
0000
1000
0100
0000
1000
0001
0000
0010
0100
,  // measure 60
1000
0001
1000
0000
0010
0100
0000
0010
1000
0000
0010
0100
0000
0010
1000
0000
,  // measure 61
0001
1000
0100
1000
0001
0000
1000
0001
0100
0001
1000
0000
0001
0010
0100
1000
,  // measure 62
0010
0000
0000
0000
,  // measure 63
0000
0000
0000
0000
,  // measure 64
1010
0011
0000
0000
0000
0000
0000
0000
,  // measure 65
0001
0000
1000
0100
0010
0000
0001
0000
1000
0010
0100
0000
0002
0000
0000
0000
,  // measure 66
1003
0000
0100
0010
0000
0010
0001
0000
1000
0000
0100
0020
0000
0000
0031
0000
,  // measure 67
1000
0000
0001
0100
0000
0100
0010
0000
1000
0100
0000
0100
1000
0000
0000
0000
,  // measure 68
0001
0000
0100
0010
0000
0010
1000
0000
0001
0000
0100
0020
0000
0000
1030
0000
,  // measure 69
0001
0000
1000
0100
0000
0100
0010
0000
0001
0000
0000
0000
0000
0000
0000
0000
,  // measure 70
1000
0100
1000
0010
0100
0001
1000
0100
1000
0010
0100
0001
0000
0000
0000
0000
,  // measure 71
1000
0010
1000
0100
0010
0001
0010
0100
0000
0000
0000
0000
1000
0000
1000
0000
,  // measure 72
0001
1000
0010
1000
0001
1000
0010
1000
0001
0010
0001
1000
0001
0010
0100
1000
,  // measure 73
0000
0000
0000
1001
,  // measure 74
2010
0000
0000
3001
0000
0100
0010
1000
0001
0000
0010
0100
0000
0100
1000
0000
,  // measure 75
2010
0000
0000
3001
0000
0100
0010
1000
0100
0000
0001
0100
0000
0100
0010
0000
,  // measure 76
0001
0000
1000
0010
0000
0010
0200
0000
0000
0000
0301
0000
1000
0001
1000
0100
,  // measure 77
0010
0000
0001
0100
0000
0100
2000
0000
0000
0000
3100
0000
0001
1000
0010
1000
,  // measure 78
0002
0000
0000
1003
0000
0100
0010
0001
1000
0000
0010
0100
0000
0100
0001
0000
,  // measure 79
0012
0000
0000
1003
0000
0100
0010
0001
0100
0000
1000
0100
0000
0100
0010
0000
,  // measure 80
1000
0000
0001
0010
0000
0010
0200
0000
0000
0000
1300
0000
0001
1000
0001
0100
,  // measure 81
0010
1000
0010
1000
0000
0100
2000
0000
0000
0010
0000
0000
3001
0100
0001
0000
,  // measure 82
1000
0000
0000
0000
0100
0010
0100
1000
0001
0000
0100
0010
0000
0010
0002
0000
,  // measure 83
0000
0000
0013
0000
1000
0010
0100
0001
1000
0000
0100
0010
0000
0010
2000
0000
,  // measure 84
0000
0000
3010
0000
0001
0010
0200
0000
0000
0000
1300
0000
0001
0000
0100
0010
,  // measure 85
2000
0000
0000
0000
3001
0000
0010
0000
0100
0010
0001
1000
0000
0010
0100
0001
,  // measure 86
0010
0000
0000
0000
0001
1000
0001
0100
0020
0000
0000
1000
0000
0000
0032
0000
,  // measure 87
0000
0003
0011
0000
0000
0000
0000
0000
0020
0000
0000
0000
0230
0000
0000
0000
,  // measure 88
0302
0000
0000
2003
0000
0000
3100
0000
0010
0000
0001
0000
1000
0000
0010
0100
,  // measure 89
0001
1000
0100
1000
0001
1000
0010
0100
0001
0000
0000
0000
0000
0000
0000
0000
,  // measure 90
1001
0000
0000
0000
1000
0100
0000
0100
1000
0000
0100
1000
0000
0100
1000
0000
,  // measure 91
0001
0100
0000
0100
0001
0000
0100
0001
0000
0100
0001
0010
0000
0000
0010
0000
,  // measure 92
0100
0000
0100
0000
1000
0100
0010
0100
1000
0000
0001
0100
0000
0100
0001
0000
,  // measure 93
0010
0100
0000
0100
0010
0000
0100
0010
0000
0010
0100
1000
0001
0010
0001
0000
,  // measure 94
0100
0000
0100
0000
0010
0100
0000
0100
0010
0000
0100
0010
0000
1000
0100
0000
,  // measure 95
0010
0100
0000
0100
0010
0000
0100
0010
0000
0001
0100
0010
1000
0001
1000
0000
,  // measure 96
0000
0100
0010
0001
1000
0010
0100
0002
0000
0013
0001
2000
0000
3010
0100
0001
,  // measure 97
0000
0100
0010
1000
0001
0010
0100
2000
0000
3010
1000
0002
0000
0013
0100
1000
,  // measure 98
0000
0002
0000
0000
0000
0000
0000
0000
,  // measure 99
0000
0000
0000
0000
0000
0000
0000
0103
0010
0000
0100
0010
0000
0100
0001
0010
;

//---------------dance-single - XO---------------
#NOTEDATA:;
#CHARTNAME:;
#CHARTSTYLE:;
#CREDIT:Talkion;
#STEPSTYPE:dance-single;
#DESCRIPTION:XO;
#DIFFICULTY:Challenge;
#METER:18;
#METERF:18;
#RADARVALUES:0,0,0,0,0;
#NOTES:
// measure 0
0000
0000
0000
0000
,  // measure 1
0000
0000
0000
0000
,  // measure 2
0000
0000
0000
0000
,  // measure 3
0000
0000
0000
0000
,  // measure 4
0000
0000
0000
0000
,  // measure 5
0002
0000
0000
0000
0000
0000
0000
0000
0023
0000
0000
0230
0000
0000
2300
0000
,  // measure 6
0000
0000
0000
0000
0000
0000
0000
0000
3002
0000
0000
0203
0000
0000
0320
0000
,  // measure 7
0000
0000
2030
0000
0000
0000
0000
0000
0000
0000
0000
0000
0000
0000
3001
0010
,  // measure 8
0200
0000
0320
0032
,  // measure 9
4003
0000
0000
0000
0000
0000
0000
3000
,  // measure 10
1001
0000
0000
0000
0001
0010
0000
0010
0001
1000
0001
0010
0000
0010
0100
1000
,  // measure 11
0001
0100
0000
0100
0001
1000
0001
0100
0000
0100
0001
0010
0000
0001
0010
0000
,  // measure 12
0110
0000
1001
0000
1000
0010
0100
0010
1000
0001
1000
0010
0000
0010
0100
0001
,  // measure 13
0010
0100
0000
0100
0010
0001
0010
0100
0000
0100
0010
0001
0100
0000
0000
0000
,  // measure 14
0001
1000
0100
0010
0000
0001
1000
0010
0100
1000
0100
0010
0000
1000
0001
0010
,  // measure 15
0001
1000
0010
0100
0000
0001
1000
0100
0001
0100
0000
0010
0001
0100
0010
1000
,  // measure 16
0001
0010
0001
0100
0010
1000
0100
1000
0001
0010
0001
0100
0010
1000
0100
1000
,  // measure 17
0000
0000
0000
0000
0000
0000
0000
0000
0020
0030
0100
0000
0001
0000
0000
0000
,  // measure 18
1001
0000
0000
0000
1000
0100
1000
0001
0100
0010
0000
0010
1000
0000
0001
0010
,  // measure 19
0000
0010
0100
1000
0100
1000
0010
0100
0000
0001
0100
0010
1000
0100
0000
0100
,  // measure 20
0000
0010
0100
0010
0001
1000
0000
1000
0001
0010
0100
0010
0001
0000
1000
0010
,  // measure 21
0100
0001
0000
0010
0000
0001
0100
0010
1000
0100
0000
0010
0100
1000
0001
0100
,  // measure 22
0001
0010
0100
0010
0001
1000
0000
0010
0000
0100
0001
0010
0000
0100
0010
0001
,  // measure 23
1000
0100
1000
0010
0000
0100
0010
1000
0001
0100
0001
0010
0100
1000
0000
0001
,  // measure 24
0000
0001
0100
0010
0100
0001
0010
0001
1000
0010
1000
0100
0010
0001
0100
0020
,  // measure 25
0000
1030
0000
0001
0010
0001
1000
0000
0010
0100
0010
0100
0000
0010
2000
3000
,  // measure 26
1001
0000
0000
0000
0001
0010
0100
0002
0000
0000
0103
0000
1100
0000
1000
0001
,  // measure 27
0100
0010
0000
1000
0000
0010
0100
2000
0000
0000
3100
0000
0101
0000
0001
0000
,  // measure 28
1000
0000
0100
0010
0000
0001
0020
0100
0000
0130
0001
1000
0010
0100
1000
0001
,  // measure 29
0010
0001
0100
0010
1000
0100
1000
0001
0100
0010
1000
0001
0010
0100
0010
0001
,  // measure 30
0100
0000
0000
0000
0001
0400
0000
1300
0400
0000
0301
0400
0000
1300
0400
0000
,  // measure 31
0301
0000
0001
0000
1000
0100
0000
0001
0100
0010
0100
0000
1000
0010
0100
0001
,  // measure 32
0010
0001
1000
0000
0001
0040
0000
1030
0040
0000
0031
0040
0000
1030
0040
0000
,  // measure 33
0031
1000
0010
0100
0000
0100
0001
1000
0100
0010
0000
0010
0001
1000
0010
1000
,  // measure 34
0100
0000
0000
0000
1000
0400
0000
0301
0400
0000
1300
0400
0000
0301
0400
0000
,  // measure 35
1300
0000
1000
0000
0001
0100
0000
1000
0100
0000
0000
0000
0000
0000
0000
0000
,  // measure 36
0001
1000
0100
0010
0000
0001
1000
0010
0100
1000
0100
0010
0000
1000
0001
0010
,  // measure 37
0100
0010
0001
1000
0010
0100
0010
1000
0001
0010
0100
1000
0010
0000
0000
0000
,  // measure 38
2010
0000
0000
0000
3001
1000
0001
0010
0200
0000
0000
0001
0000
0000
1300
0000
,  // measure 39
0000
0000
0001
0000
0100
0000
0100
0000
0020
0000
0000
0001
0000
0000
1030
0000
,  // measure 40
0000
0000
2001
0000
0000
0100
0000
0000
3002
0000
0000
0010
0000
0000
2003
0000
,  // measure 41
0000
0010
0000
0000
3001
0010
0001
0100
0010
1000
0010
0100
0000
0100
0001
0000
,  // measure 42
0012
0000
0000
0000
1003
0001
1000
0010
0200
0000
0000
1000
0000
0000
0301
0000
,  // measure 43
0000
0100
0010
0000
2000
0000
3002
0000
,  // measure 44
0023
0000
0000
0000
,  // measure 45
0230
0000
0000
2300
0000
0000
3002
0000
,  // measure 46
0000
0000
0000
0000
,  // measure 47
0203
0000
0000
0320
0000
0000
2030
0000
,  // measure 48
0000
0000
0000
0000
0000
0000
3010
0100
,  // measure 49
0002
0000
0000
0000
,  // measure 50
2003
0000
0000
0000
3200
0000
0000
1000
0000
0000
0320
0000
0000
0000
0000
0000
,  // measure 51
0000
0000
0000
0000
0000
0000
0031
0000
1001
0000
0000
1010
0000
0000
1002
0000
,  // measure 52
0000
0000
0000
0000
0000
0000
0013
0100
2000
0000
0000
0100
0000
0000
3002
0000
,  // measure 53
0000
0000
0103
0000
0010
0000
1000
0000
1001
0000
0000
0011
0000
0000
2001
0000
,  // measure 54
0000
3020
0000
0000
0000
0000
0000
0000
,  // measure 55
2030
0000
0000
0010
0000
0000
3002
0000
0000
1000
0000
0000
0023
0000
0000
0001
,  // measure 56
0000
0000
0130
0010
0000
0100
1000
0000
0100
0010
0000
0100
1000
0000
0100
0010
,  // measure 57
0002
0000
0000
0010
0000
0000
2003
0000
0000
0001
0000
0000
3020
0000
0000
1000
,  // measure 58
0000
0000
0130
0000
0001
0000
0100
0010
0000
0100
0001
0000
0100
0010
0000
1000
,  // measure 59
0001
0000
1000
0100
0000
1000
0001
0000
1000
0100
0000
1000
0001
0000
0010
0100
,  // measure 60
1000
0001
1000
0010
0100
0001
1000
0100
1000
0001
0010
0001
1000
0010
0100
0001
,  // measure 61
1000
0100
0010
0100
1000
0001
0100
0010
1000
0001
0010
0001
1000
0010
0100
0001
,  // measure 62
0010
0000
0000
0000
,  // measure 63
0000
0000
0000
0000
,  // measure 64
0011
1010
0000
0000
0000
0000
0000
0000
,  // measure 65
1000
0001
1000
0100
0010
0000
0001
1000
0001
0100
0010
0000
2000
0000
0000
0000
,  // measure 66
3001
0000
1000
0100
0000
0100
1000
0001
1000
0010
0100
0001
0000
1000
0100
1000
,  // measure 67
0001
0000
1000
0100
0000
0100
1000
0010
0100
0001
0000
0010
0100
0010
0001
0000
,  // measure 68
1000
0000
0001
0100
0000
0100
0001
1000
0001
0010
0100
1000
0000
0001
0100
0001
,  // measure 69
1000
0000
0001
0100
0000
0100
0001
0010
0100
0000
0000
0000
0000
0000
0000
0000
,  // measure 70
1000
0010
0100
0001
0010
0100
1000
0010
0100
1000
0100
0010
0000
0000
0000
0000
,  // measure 71
1000
0100
0010
0001
0100
0010
1000
0100
0001
0000
0000
0000
0100
0000
0100
0000
,  // measure 72
1000
0010
1000
0100
0010
0001
0100
0001
1000
0010
1000
0100
0010
0001
0100
0001
,  // measure 73
0000
0000
0000
1001
,  // measure 74
1200
0000
0000
0320
0000
1030
0010
0100
1000
0001
0100
0010
0000
0010
1000
0000
,  // measure 75
1200
0000
0000
0320
0000
1030
0010
0100
0001
0100
0010
0001
0000
0001
0100
0000
,  // measure 76
0010
0100
0001
1000
0100
1000
0020
0000
1000
0000
1030
0000
0001
0010
0001
1000
,  // measure 77
0010
0100
0001
1000
0100
0010
2000
0000
0010
0000
3010
0000
0001
1000
0010
0200
,  // measure 78
0001
0000
0000
0320
0000
0031
0010
0100
0001
1000
0100
0010
0000
0010
0001
0000
,  // measure 79
0201
0000
0000
0320
0000
0031
0010
0100
1000
0100
0010
1000
0000
1000
0100
0000
,  // measure 80
0010
0100
1000
0001
0100
0001
0020
0000
0001
0000
0031
0000
1000
0010
1000
0001
,  // measure 81
0010
0100
0010
0100
0000
0010
0001
0000
1000
0100
1000
0001
0100
0010
0100
0010
,  // measure 82
1000
0000
0000
0000
0001
1000
0100
0020
1000
0000
0230
0001
0000
0310
0002
0000
,  // measure 83
0013
0100
1000
0001
0000
0001
0100
0020
0001
0000
0230
1000
0000
0310
2000
0000
,  // measure 84
3010
0100
0001
1000
0000
1000
0100
0010
0001
1000
0001
0100
0010
1000
0001
0010
,  // measure 85
0001
0000
1000
0010
0100
0001
1000
0100
0010
1000
0010
0100
0000
1000
0001
0010
,  // measure 86
0001
0000
1000
0010
0100
0001
1000
0100
0020
0000
0000
0001
0000
0000
2030
0000
,  // measure 87
0000
3000
1010
0000
0000
0000
0000
0000
0020
0000
0000
0000
0230
0000
0000
0000
,  // measure 88
1300
0100
1000
0010
0100
0001
1000
0001
0010
0100
1000
0001
1000
0010
0100
0001
,  // measure 89
0040
0000
0031
0000
,  // measure 90
1001
0000
0000
0000
1000
0010
0000
0010
1000
0001
1000
0010
0000
0010
0100
0001
,  // measure 91
1000
0100
0000
0100
1000
0001
1000
0100
0000
0100
1000
0010
0000
1000
0010
0100
,  // measure 92
2000
0000
3100
0000
0001
0010
0100
0010
0001
1000
0001
0010
0000
0010
0100
1000
,  // measure 93
0010
0100
0000
0100
0010
1000
0010
0100
0000
0100
0010
1000
0001
0010
0001
0000
,  // measure 94
0101
0000
1100
0000
1000
0010
0000
0010
1000
0100
1000
0010
0000
0010
1000
0001
,  // measure 95
0010
0100
0000
0100
1000
0010
1000
0100
0000
0100
1000
0010
1000
0100
0010
0000
,  // measure 96
0001
0010
0100
1000
0001
0100
0001
0020
0000
0130
1000
0020
0000
0130
0010
0001
,  // measure 97
0000
0010
0100
0001
1000
0100
1000
0020
0000
0130
0001
0020
0000
0130
0010
1000
,  // measure 98
0000
0000
0020
0000
0000
0031
0010
0100
1000
0010
0100
0002
0000
0013
0100
2000
,  // measure 99
0000
3010
0100
2000
0000
3001
0010
0100
0001
0010
0001
1000
0010
1000
0100
0001
;
