#VERSION:0.83;
#TITLE:check;
#SUBTITLE:;
#ARTIST:bbno$ feat. Hatsune Miku;
#TITLETRANSLIT:;
#SUBTITLETRANSLIT:;
#ARTISTTRANSLIT:;
#GENRE:;
#CREDIT:;
#MUSIC:check.mp3;
#BANNER:check.png;
#BACKGROUND:check-bg.png;
#CDTITLE:;
#SAMPLESTART:0.000;
#SAMPLELENGTH:0.000;
#SELECTABLE:YES;
#OFFSET:-0.375;
#BPMS:0.000=134.000;
#STOPS:;
#BGCHANGES:-0.838=check.mp4=1.000=0=0=0=StretchNoLoop====,
99999.000=-nosongbg-=1.000=0=0=0=StretchNoLoop====
;
#FGCHANGES:;

//--------------- dance-single - ----------------
#NOTEDATA:;
#STEPSTYPE:dance-single;
#DESCRIPTION:;
#CREDIT:Kikoia;
#DIFFICULTY:Medium;
#METER:10;
#RADARVALUES:0,0,0,0,0;
#NOTES:
0000
0000
0000
0000
,
0000
0000
0000
0000
,
0000
0000
0000
0000
,
0000
0000
0000
0000
,
0001
0000
0001
0000
1000
0000
2002
3003
,
1000
0100
0020
0000
0031
0100
0020
0000
,
1030
0001
1000
0001
0010
1000
0010
0001
,
1000
0010
0200
0000
0301
0010
0200
0000
,
1300
0001
1000
0001
0100
1000
0100
0001
,
1000
0000
0001
0000
0020
0000
0030
0000
0001
0000
0100
0010
0000
0010
1000
0000
,
0100
0000
1000
0000
0002
0000
0003
0000
0010
0000
0100
1000
0000
1000
0001
0000
,
0100
0001
2000
3000
0001
0010
0200
0300
,
0110
0000
0110
0000
1000
0001
2002
3003
,
0001
0100
1000
0100
0002
0000
0013
0100
,
1000
0100
0001
0100
2000
0000
3010
1000
,
1010
1001
1010
1001
,
0011
1001
0022
0033
,
1000
0010
0001
0010
2000
0000
3010
0100
,
0001
0010
1000
0010
0002
0000
0103
0001
,
0101
1001
0101
1001
,
1100
1001
2200
3300
,
1000
0100
1000
0100
0010
0000
0000
0000
,
0001
0100
0001
0100
0010
0000
0000
0000
,
1000
0001
1000
0001
0010
0100
0010
0100
,
1000
0001
0200
0000
0310
1000
0100
0000
,
2002
0000
0000
3003
,
0001
0001
1000
0001
1000
1000
0010
0100
,
0001
0010
0001
0000
1000
0010
1000
0000
,
0100
0010
0001
1000
0010
0100
0020
0030
,
1000
0001
0010
0000
0010
0001
1000
1000
,
0001
1000
0010
0000
0010
1000
0001
0001
,
1000
0001
1000
0000
0001
0000
0100
0000
0010
0000
1000
0000
0100
0010
0100
0000
,
0010
0000
0000
0000
0000
0000
0000
0000
0010
0000
0000
0010
0001
0000
1000
0000
,
0001
0001
0001
1000
0100
0100
0100
1000
,
0001
0100
1000
0100
0001
0010
2000
0000
,
3010
0100
0010
0000
0001
1000
0010
0000
,
1000
0001
0100
1000
0100
0001
1001
0000
,
2000
0010
3002
0010
,
1003
0010
1000
0100
1000
1000
0001
0000
,
0001
0100
0001
0000
1000
0010
1000
0000
,
0001
0010
0100
1000
0010
0000
0110
0000
,
0001
0010
1000
0010
0002
0000
0103
0010
,
1000
0010
0001
0010
2000
0000
3100
0010
,
0110
1001
0110
1001
,
0101
1100
2002
3003
,
1000
0100
0001
0100
2000
0000
3100
0010
,
0001
0100
1000
0100
0002
0000
0013
0100
,
0110
1001
0110
1001
,
1010
0011
2002
3003
,
1000
0010
1000
0010
0100
0000
0000
0000
,
0001
0010
0001
0010
0100
0000
0000
0000
,
1000
0001
1000
0001
0100
0010
1000
0100
,
0020
0000
0031
1000
0100
0010
0001
0000
,
0001
0100
0010
0100
0001
0000
0000
0000
,
1000
0100
0010
0100
1000
0000
0000
0000
,
0001
1000
0001
1000
0010
0100
0001
0010
,
0200
0000
1300
0001
0010
0100
1000
0000
,
0002
0100
1000
0010
,
2003
0000
0000
0000
3100
0000
0010
0000
0001
0000
0000
0001
0100
0000
0000
0100
,
0010
1000
0010
0000
1000
0001
1000
0000
,
1000
0010
1000
0010
0001
0010
1000
0000
,
2000
0100
0001
0010
,
3002
0000
0000
0000
1003
0000
0010
0000
0100
0000
0000
0100
0001
0000
0000
0001
,
1000
0001
1000
0000
0001
0010
0001
0000
,
1000
0100
1000
0100
0001
0100
1000
0020
,
0000
0030
0000
0000
;

//--------------- dance-single - ----------------
#NOTEDATA:;
#STEPSTYPE:dance-single;
#CREDIT:Kikoia;
#DESCRIPTION:;
#DIFFICULTY:Hard;
#METER:14;
#RADARVALUES:0,0,0,0,0;
#NOTES:
0000
0000
0000
0000
,
0000
0000
0000
0000
,
0000
0000
0000
0000
,
0000
0000
0000
0000
,
0000
0000
1001
0110
,
0001
0100
0001
0100
0010
1000
0010
1000
,
0100
0010
0001
1000
0010
1000
0100
1000
,
0001
0010
0001
0010
0100
1000
0100
1000
,
0010
0000
0100
0000
0010
1000
0001
0000
0010
0000
0001
0000
0100
0000
0001
0000
,
1000
0000
0100
0000
0001
0000
0100
0000
1000
0000
0010
0100
0000
0001
1000
0000
,
0001
0000
0100
0000
1000
0000
0100
0000
0001
1000
0000
0100
0000
0010
0001
0000
,
1000
0010
0001
0010
1000
0001
0010
0010
,
0100
0000
0110
0000
1000
0001
2002
3003
,
1000
0000
0100
0010
0000
0001
1000
0000
0020
0000
0000
0000
1030
0000
0001
0000
,
0010
0000
0100
1000
0000
0001
0100
0000
0020
0000
0000
0000
1030
0000
0001
0000
,
1010
0001
1100
0001
1010
0001
1100
0001
,
0011
1000
0101
1000
0011
1000
0100
0010
,
0001
0000
0100
0010
0000
1000
0001
0000
0020
0000
0000
0000
0031
0000
1000
0000
,
0010
0000
0100
0001
0000
1000
0100
0000
0002
0000
0000
0000
0103
0000
1000
0000
,
0011
1000
0101
1000
0011
1000
0101
1000
,
1010
0001
1100
0001
0020
0000
0000
0000
,
0130
0001
0100
1000
0020
0100
0100
0000
,
1030
0010
0001
0010
2000
0100
0100
0000
,
3001
0100
0010
0100
1000
0100
0010
0100
,
0001
0010
0100
1000
0010
1000
0100
0010
,
2002
0000
0000
0000
3000
0000
0103
0100
,
0001
1000
0100
0000
0010
0000
0100
0000
1000
0000
1000
0000
0020
0000
0000
0000
,
0130
0100
0001
0010
0100
0100
1000
0001
,
0010
0100
0001
0100
1000
1000
0010
0100
,
0001
0000
0010
0000
0100
0000
0010
0000
0001
0000
1000
0000
0010
0100
0010
0000
,
1000
0100
0010
0100
1000
0001
0100
0010
,
0100
0001
0010
0000
0100
0000
1000
0000
0001
0000
0010
0000
0001
0100
0010
0000
,
2000
0000
0000
0000
0000
0000
0000
0000
3001
0000
0000
0001
0100
0000
0010
0000
,
1000
0001
1000
0000
0100
0000
1000
0000
0001
0010
0001
0000
0100
0000
0020
0000
,
0032
0000
0023
0000
2030
0000
3100
0010
0001
0000
0001
0000
0200
0000
0000
0000
,
1300
0000
0100
0000
0001
0000
1000
0000
0100
1000
0001
0000
0010
0000
0000
0000
,
0001
0100
0001
0000
1000
0010
1000
0001
0010
0100
1000
0000
1001
0000
0000
0000
,
2000
0100
3002
0100
0023
0100
0032
0000
,
1003
0100
1000
0001
0100
0001
1000
0100
0010
0000
0010
0000
0020
0000
0000
0000
,
0031
1000
0010
0000
0010
0000
1000
0001
0010
0100
0010
0100
1000
0000
0001
0000
,
1001
0000
0100
0000
0110
0000
0001
0000
1000
0010
0100
0000
0002
0000
0000
0000
,
1003
0000
0100
0010
0000
0001
2000
0000
0010
0000
3001
0000
0010
0000
0100
0000
,
1000
0000
0010
0100
0000
0001
1000
0000
0200
0000
0010
0000
1300
0000
0001
0000
,
0011
1000
0101
1000
0011
1000
0101
0001
,
1010
0001
1100
0001
1010
0001
0010
0100
,
1000
0000
0010
0100
0000
0001
0010
0000
0200
0000
1000
0000
0310
0000
0001
0000
,
1000
0000
0010
0100
0000
0001
0100
0000
2000
0000
0000
0000
3100
0000
0010
0000
,
1010
0001
1100
0001
1010
0001
1100
1000
,
0011
1000
0101
1000
0010
0010
0010
0010
,
0100
1000
0100
0001
0020
0001
0100
0000
,
0031
0010
1000
0010
0002
1000
0100
0000
,
1003
0010
0001
1000
0100
0001
1000
0100
,
0020
0000
0031
1000
0100
0010
0002
0000
,
1003
0100
0001
0100
2000
0001
0100
0000
,
3001
0100
1000
0100
0002
1000
0010
0000
,
1003
0100
0001
1000
0010
0001
1000
0010
,
0200
0000
0301
1000
0010
0100
0002
0000
,
0013
0000
0000
0010
0100
0000
0000
0100
1000
0000
0000
1000
0010
0000
0000
0010
,
0200
0000
0000
0000
0301
0000
1000
0000
0010
0000
0000
0010
1000
0000
0000
1000
,
0001
0000
0100
0000
1000
0000
0100
0000
0010
0000
1000
0000
0001
0000
0010
0100
,
0000
0010
0100
0000
1000
0000
0001
0100
0000
0001
0100
0000
0010
1000
0001
0000
,
1000
0000
0000
1000
0100
0000
0000
0100
0010
0000
0000
0010
0001
0000
0000
0001
,
2000
0000
0000
0000
3001
0000
0100
0000
0010
0000
0000
0010
1000
0000
0000
1000
,
0001
0000
0010
0000
1000
0000
0010
0000
0100
0000
1000
0000
0001
0000
1000
0020
,
0000
0130
0001
0010
0001
1000
0100
0002
,
0000
0003
0000
0000
;
