#VERSION:0.83;
#TITLE:夢縁;
#SUBTITLE:;
#ARTIST:xi feat. Risa Yuzuki;
#TITLETRANSLIT:Yume enishi;
#SUBTITLETRANSLIT:;
#ARTISTTRANSLIT:;
#GENRE:JUVENILE PIANO ROCK;
#CREDIT:;
#MUSIC:Yume enishi.ogg;
#BANNER:Yume enishi.png;
#BACKGROUND:Yume enishi-bg.png;
#CDTITLE:./CDTitles/bm IIDX 31 EPOLIS.png;
#SAMPLESTART:38.764;
#SAMPLELENGTH:15.000;
#SELECTABLE:YES;
#OFFSET:0.472;
#BPMS:0.000=162.000;
#STOPS:;
#TIMESIGNATURES:0.000=4=4;
#BGCHANGES:0.000=Yume enishi.mp4=1.000=0=0=0=StretchNoLoop====,
99999.000=-nosongbg-=1.000=0=0=0=StretchNoLoop====
;
#FGCHANGES:;

//--------------- dance-single - forcednature ----------------
#NOTEDATA:;
#STEPSTYPE:dance-single;
#DESCRIPTION:forcednature;
#DIFFICULTY:Beginner;
#METER:4;
#RADARVALUES:0,0,0,0,0;
#CREDIT:forcednature;
#NOTES:
0000
0000
0000
0000
,
0000
0000
0000
0000
,
0000
0000
0000
0000
,
0000
0000
0000
0000
,
0000
0000
0000
0000
,
0000
0000
0000
0000
,
2000
0000
0000
3000
,
0002
0003
0200
0300
,
0020
0000
0000
0000
,
0000
0000
0000
0000
,
0030
0000
0000
0000
,
1000
0000
0000
0000
,
0001
0000
0010
0000
,
0100
0000
1000
0000
,
0100
0000
0000
0000
,
1001
0000
0000
0000
,
0001
0000
0100
0000
,
0010
0000
1000
0000
,
0020
0000
0030
0000
,
1000
0000
0000
0000
,
0001
0000
0010
0000
,
0001
0000
1000
0000
,
0100
0000
0000
0000
,
1001
0000
0000
0000
,
0110
0000
0000
0000
,
1000
0000
0001
0000
,
1001
0000
0000
0000
,
1000
1000
1000
0000
,
0010
0000
1000
0000
,
0001
0001
0001
0000
,
0010
0000
0001
0000
,
1001
0000
1000
0000
,
0010
0000
0100
0000
,
0002
0003
2000
3000
,
0020
0030
0200
0300
,
0001
0001
0001
0000
,
0100
0000
0001
0000
,
1000
1000
1000
0000
,
0100
0000
1000
0000
,
0010
0010
0100
0100
,
0010
0010
0100
0100
,
0002
0003
2000
3000
,
2002
0000
3003
0000
,
0001
0000
0010
0000
,
0001
0000
0000
0000
,
1000
0000
0010
0000
,
0100
0000
0001
0000
,
1000
0000
0000
0000
,
0100
0000
0010
0000
,
0001
0001
1000
1000
,
0010
0000
0100
0000
,
0002
0000
0000
0003
,
0020
0000
0000
0030
,
0200
0000
0000
0300
,
2000
0000
0000
3000
,
0001
0000
0001
0001
,
0100
0000
0100
0100
,
0010
0000
0010
0010
,
1000
0000
1000
1000
,
0001
0000
0000
0000
,
0000
0000
0000
0000
,
0000
0000
0000
0000
,
0000
0000
0000
0000
,
0000
1001
0000
1001
,
0000
0110
0000
0110
,
0000
0000
0000
0000
,
2002
0000
3003
0000
,
0001
0001
0001
0000
,
0100
0000
0001
0000
,
1000
1000
1000
0000
,
0100
0000
1000
0000
,
0010
0010
0100
0100
,
0010
0010
0100
0000
,
0220
0000
0330
0000
,
2002
0000
3003
0000
,
2000
0000
3001
0000
,
0002
0000
1003
0000
,
2002
0000
0000
0000
,
0000
0000
3003
0000
,
0001
0000
0010
0000
,
0100
0000
1000
0000
,
2002
0000
0000
0000
,
3003
0000
0000
0000
;

//--------------- dance-single - forcednature ----------------
#NOTEDATA:;
#STEPSTYPE:dance-single;
#DESCRIPTION:forcednature;
#DIFFICULTY:Easy;
#METER:8;
#RADARVALUES:0,0,0,0,0;
#CREDIT:forcednature;
#NOTES:
0000
0000
0000
0000
,
0000
0000
0000
0000
,
0000
0000
0000
0000
,
0000
0000
0000
0000
,
0000
0000
0000
0000
,
0000
0000
0000
0000
,
2000
0001
0001
3001
,
0002
0103
0200
0310
,
0020
1000
1000
1030
,
0001
0010
0100
1000
,
2002
0000
3003
0000
,
0001
0001
0100
0000
,
0001
0010
0100
1000
,
0010
0010
2000
3000
,
0200
0300
0020
0030
,
0001
0001
1000
0000
,
0001
0010
0100
1000
,
0010
0010
0200
0000
,
0301
1000
0001
0000
,
1001
0000
1000
0100
,
0010
0100
1000
0000
,
1001
0000
0001
0100
,
0010
0100
0001
0000
,
0110
0000
1000
0010
,
0100
0001
0100
0000
,
1001
0000
0001
1000
,
0001
1000
0000
0000
0001
0000
1000
0000
,
0002
0203
2300
3200
,
0302
0103
0010
1000
,
0002
0023
2030
3020
,
0032
1003
0010
0100
,
2002
3003
0001
0010
,
0100
1000
0010
0100
,
0001
1000
0001
0000
1000
0001
1000
0000
,
0010
0010
1000
0001
,
2000
3200
0302
0203
,
2300
3001
0010
0100
,
2000
3020
0032
0023
,
2030
3001
0100
0010
,
1001
1001
0110
0110
,
1001
1001
0110
0110
,
2002
3003
0220
0330
,
0001
1000
0001
1000
0002
0000
0003
0000
,
1000
0100
0010
0100
,
1000
0001
1000
0010
,
0100
0001
0010
0001
,
0100
0010
1000
0001
,
1001
1000
0100
0010
,
0001
0100
0010
0100
,
0001
1000
0001
0000
1000
0001
1000
0000
,
0020
0130
0200
0310
,
2002
3000
0020
0003
,
0200
0030
2000
0300
,
3020
0230
0302
0203
,
0320
2030
3002
0023
,
0130
0000
0000
0100
0000
0000
0100
0000
0000
0000
0000
0000
0000
0000
0000
0000
,
0010
0000
0000
0010
0000
0000
0010
0000
0000
0000
0000
0000
0000
0000
0000
0000
,
0001
0100
0001
0000
1000
0100
1000
0000
,
0010
0100
0010
0100
0010
0000
0000
0000
,
1001
0000
0000
0000
,
0000
0000
0000
0000
,
0000
0000
0000
0000
,
0000
0000
0000
0000
,
0000
0101
0000
0101
,
0000
1100
0000
1100
,
1000
0001
1000
0001
,
0100
0010
0100
0000
0010
0000
1001
0000
,
2000
3200
0302
0203
,
2300
3001
0010
0100
,
2000
3020
0032
0023
,
2030
3001
0100
0010
,
1001
1001
0110
0110
,
1001
1001
0110
0110
,
2000
0000
3100
0000
0010
0010
0010
0000
,
0002
0000
0103
0000
0010
0010
0010
0000
,
2001
0000
3010
0000
0100
0100
0100
0000
,
0002
0023
0230
2300
,
3001
0000
0100
0000
0001
0100
0001
0000
,
1000
0000
0100
0000
1000
0100
1000
0000
,
0001
0010
0001
0000
1000
0010
1000
0000
,
0001
0010
0100
0000
2000
0000
3000
0000
,
2002
0000
0000
0000
,
3003
0000
0000
0000
;

//--------------- dance-single - forcednature ----------------
#NOTEDATA:;
#STEPSTYPE:dance-single;
#DESCRIPTION:forcednature;
#DIFFICULTY:Medium;
#METER:12;
#RADARVALUES:0,0,0,0,0;
#CREDIT:forcednature;
#NOTES:
0000
0000
0000
0000
,
0000
0000
0000
0000
,
0000
0000
0000
0000
,
0000
0000
0000
0000
,
0000
0000
0000
0000
,
0000
0000
0000
0002
,
1003
0000
0001
0010
0001
0010
0100
0000
,
2000
0000
3001
0100
0002
0000
1003
0100
,
2000
0000
3001
0010
0001
1000
0010
1000
,
0002
0000
0013
0100
1000
0001
1000
0000
,
2002
0000
0000
3003
,
0001
0000
0100
0001
0100
0000
0010
0100
,
0010
0000
1000
0100
0010
0000
0001
0000
,
1000
0000
0001
1000
0002
0000
0103
0000
,
2000
3100
0020
0130
,
1001
0000
1000
0000
0100
0000
1000
0010
,
1000
0000
0010
0100
0010
0000
0100
0001
,
0100
0001
0020
0030
,
0001
1000
0001
1000
0100
0000
0010
0000
,
0110
0000
0100
1000
0001
0000
0100
0001
,
1000
0000
0100
0010
0001
0010
0001
0000
,
1001
0000
0001
1000
0010
0000
1000
0001
,
0010
0000
0100
1000
0001
0100
0001
0000
,
0101
0000
0100
0010
0100
0010
1000
0000
,
1100
0000
0100
0010
0001
1000
0001
0000
,
2002
0000
3003
0000
1000
0100
0010
0001
,
0100
0100
0000
0000
0001
0010
0100
1000
,
0001
0100
0000
0000
0100
1000
0000
0000
1000
0100
0000
0000
0100
0001
0000
0000
,
0101
0000
0001
1000
0100
0010
0001
0000
,
1000
0100
0000
0000
0100
0001
0000
0000
0001
0100
0000
0000
0100
1000
0000
0000
,
1100
0000
1000
0010
0100
0001
0010
0100
,
2000
0000
3000
0000
0010
0100
0010
1000
,
0001
0010
0000
0000
0010
0100
0000
0000
0100
1000
0000
0000
1000
0001
0000
0000
,
0100
0000
0000
0100
0000
0000
0001
0000
0010
0000
0000
0100
0000
0000
1000
0000
,
0020
0000
0130
0100
0001
0010
0100
1000
,
0001
0010
0000
0000
1000
0010
0000
0000
0001
0010
0000
0000
0100
1000
0000
0000
,
1001
0000
0001
0010
0100
1000
0001
0000
,
1000
0010
0000
0000
0001
0010
0000
0000
1000
0010
0000
0000
0100
0001
0000
0000
,
1001
0000
1000
0001
0010
0100
1000
0000
,
1002
0103
2001
3100
,
1001
0011
1100
1001
,
0001
0000
0000
0001
1000
0000
0100
0000
1000
0000
0000
1000
0001
0000
0100
0000
,
0010
0020
0000
0000
0000
0000
0030
0000
,
1001
0000
1000
0100
0001
0000
0001
0100
,
1000
0000
1000
0001
0010
0100
0010
0001
,
1000
0000
0010
0100
0001
0100
1000
0100
,
0001
1000
0001
0010
0100
0000
0010
0000
,
1001
0000
0001
0100
1000
0100
0001
0100
,
0010
0000
1000
0001
0010
0100
1000
0001
,
0100
0000
0000
0100
0010
0000
0010
0000
0100
0000
0000
0100
0010
0000
0010
0000
,
0110
0000
1000
0001
0010
0100
1000
0001
,
1000
0002
0203
0320
,
2030
0000
3001
1000
0001
0000
0010
0000
,
0110
2000
3020
0230
,
0302
0000
1003
0001
1000
0000
0100
0000
,
0110
0000
0000
0110
0000
0000
0110
0000
0000
0000
0010
0000
0100
0000
0000
0000
,
1001
0000
0000
1001
0000
0000
1001
0000
0000
0000
0001
0000
1000
0000
0000
0000
,
0001
0100
0001
0100
0010
1000
0010
1000
,
0100
0010
0100
0010
0001
0010
0100
1000
,
0001
0000
0000
0000
,
0000
0000
0000
0000
,
0000
0000
0000
0000
,
0000
0000
0000
0000
,
0000
0202
0303
2020
,
3030
0220
0330
1001
,
0001
0000
0000
0001
1000
0000
0100
0000
1000
0000
0000
1000
0001
0000
0100
0000
,
0020
0000
1030
0001
1000
0001
0010
0100
,
1000
0000
0000
0000
1001
0000
0000
0000
0001
0100
0000
0000
1000
0100
0000
0000
,
0110
0000
0010
1000
0001
0010
0100
0000
,
1000
0100
0000
0000
0001
0100
0000
0000
1000
0100
0000
0000
0010
0001
0000
0000
,
1001
0000
1000
0010
0100
0001
0010
0100
,
2001
3100
1002
0103
,
1001
1010
0101
1001
,
1000
0000
0000
1000
0100
0000
0010
0000
0001
0000
0001
0000
0011
0000
0000
0000
,
0001
0000
0000
0001
0100
0000
0010
0000
1000
0000
1000
0000
1010
0000
0000
0000
,
0001
0000
0000
0001
0010
0000
0100
0000
1000
0000
0000
1000
0100
0000
0010
0000
,
0001
0000
1000
0001
1000
0000
0010
0000
0200
0000
0000
0000
0300
0000
0000
0000
,
0001
1000
0100
0010
0001
0100
0010
0100
,
0001
0010
0100
1000
0010
0100
0010
1000
,
0100
0001
0100
1000
0010
0100
0001
0010
,
1000
0000
0010
0000
0001
0000
0100
0000
0010
0000
0100
0010
0100
0000
0000
0000
,
2002
0000
0000
0000
,
3003
0000
0000
0000
;

//--------------- dance-single - forcednature ----------------
#NOTEDATA:;
#STEPSTYPE:dance-single;
#DESCRIPTION:forcednature;
#DIFFICULTY:Hard;
#METER:15;
#RADARVALUES:0,0,0,0,0;
#CREDIT:forcednature;
#NOTES:
0000
0000
0000
0000
,
0000
0000
0000
0000
,
0000
0000
0000
0000
,
0000
0000
0000
0000
,
0000
0000
0000
0000
,
0000
0000
0000
2000
,
3001
0000
1000
0000
0100
1000
0100
0000
0010
0000
0001
1000
0000
1000
0001
0000
,
1000
0000
0001
0000
0100
0001
0100
0000
0010
0000
1000
0001
0000
0001
1000
0000
,
0100
0000
0010
0000
0001
0100
0001
0000
1000
0000
0010
0000
0100
0000
0001
0000
,
1000
0000
0001
0010
0100
0000
1000
0000
0001
0000
1000
0001
1000
0001
1000
0001
,
0020
0000
0000
0030
,
1100
0000
0100
1000
0100
1000
0010
0100
,
0001
0000
0100
0010
0100
0001
1000
0001
,
0010
0100
1000
0000
2100
0000
3010
0000
,
0210
0000
0000
0000
0301
0000
0000
0000
0021
0000
0000
0000
0031
0000
1000
0001
,
1000
0000
0010
0100
0010
1000
0100
0010
,
0002
0000
0000
0000
0103
0000
0010
0000
0100
0000
0000
0100
0001
0000
1000
0000
,
0001
0010
0100
1000
0002
0000
0000
0000
,
0103
0000
0001
0000
0100
0010
0100
0010
0100
0000
0010
0000
1000
0000
0001
0000
,
1001
0000
0000
0000
1000
0000
0100
1000
0100
0000
0010
0000
0001
0000
1000
0000
,
0020
0000
0130
0001
0010
0100
0001
0100
,
1000
0000
0001
1000
0001
0000
0100
0000
0020
0000
1000
0000
1000
0000
0000
0000
,
0130
0000
0001
1000
0001
0000
0010
0000
0100
0000
1000
0000
0001
0100
0010
1000
,
0002
0000
0000
0000
0013
0000
0000
0001
0010
0000
1000
0000
0010
0000
0001
0000
,
0200
0000
0000
0000
0310
0000
0000
1000
0001
0000
0010
0000
0100
0000
1000
0000
,
1001
0000
0001
0100
0001
0000
1000
0000
1001
0000
1000
0100
1000
0000
0001
0000
,
1001
0000
1001
0000
0000
0000
0000
0000
0001
1000
0001
0010
0100
1000
0001
0000
,
2000
3010
0002
0013
2000
3100
0002
0103
,
0020
0000
0031
0000
0100
0001
0100
0000
0010
0000
1000
0001
0010
0001
1000
0000
,
0002
0103
2000
3100
0002
0013
2000
3010
,
0200
0000
1300
0000
0001
1000
0010
0000
0100
0000
0001
1000
0100
0010
0001
1000
,
0002
0000
0000
0000
0103
0010
0100
0000
0001
0000
0010
0100
1000
0000
0010
0000
,
2020
3030
0202
0303
0022
0033
2200
3300
,
1001
0000
0000
1000
0100
0000
0010
0000
1001
0000
0000
0001
0100
0000
0010
0000
,
1001
0000
1000
0001
1000
0001
0100
0000
0010
1000
0001
1000
0010
0000
0100
0000
,
0002
0013
2000
3010
0002
0103
2000
3001
,
0020
0000
1030
0000
0001
1000
0100
0000
0010
0000
0001
1000
0010
1000
0001
0000
,
2000
3010
0002
0013
2000
3100
0002
1003
,
0020
0000
0031
0000
1000
0001
0100
0000
0010
0000
1000
0001
1000
0001
0010
0000
,
0100
1000
0000
1000
0100
0000
0010
0000
0001
0100
0000
0100
0001
0000
0010
0000
,
0100
1000
0000
0001
0100
0000
0010
0000
1000
0001
0010
0100
1000
0000
0000
0000
,
1100
0000
0000
1000
0001
0000
0100
0000
0101
0000
0000
0001
1000
0000
0100
0000
,
0110
2002
0000
0000
3003
0000
0001
1000
,
1001
0000
0000
0000
0001
0100
0010
1000
0010
0000
0000
0000
1000
0001
0010
0100
,
1000
0000
0000
0000
0010
0100
0010
1000
0010
0000
0100
0000
0001
0000
0010
0000
,
0100
0000
1000
0001
1000
0010
0100
0001
1000
0001
0010
0100
1000
0000
0001
1000
,
0010
0000
0100
0000
0001
0000
0100
0000
2000
0000
0000
0000
3100
0000
0001
0100
,
0010
0000
0000
0000
1000
0100
0010
0001
1000
0000
0010
0000
0001
0000
0010
0000
,
1000
0000
0001
1000
0001
0010
0100
1000
0001
0100
0001
1000
0010
0000
0100
0000
,
0101
0000
0000
0100
0001
0000
1000
0000
1100
0000
0000
0100
1000
0000
0001
0000
,
1001
0000
1000
0001
0010
0000
0100
0000
1000
0000
0001
0000
0100
0000
0110
0000
,
1001
0002
0023
2030
,
3020
0000
0000
0000
0031
0000
0010
0001
0010
0000
0100
1000
0001
0000
1000
0000
,
1002
0000
0103
0010
0100
1000
0100
0001
,
0020
0000
0000
0000
0031
1000
0001
1000
0001
0000
0100
0010
1000
0000
0000
0000
,
0110
0000
0100
0001
0000
0100
0010
0000
0100
0001
0000
0100
0010
0000
1000
0001
,
0010
0000
0100
1000
0000
0100
0010
0000
0100
1000
0000
0100
0010
0000
0000
0000
,
0001
1000
0001
0100
0010
1000
0001
1000
0100
0010
0001
1000
0001
0000
0100
0000
,
0010
1000
0010
1000
0001
0100
0010
0100
0001
1000
0100
0010
0001
0010
0100
1000
,
0001
0000
0000
0000
,
0000
0000
0000
0000
,
0000
0000
0000
0000
,
0000
0000
0000
0000
,
0000
2200
3300
0022
,
0033
0202
0303
1010
,
0001
0000
0000
0001
0010
0000
0100
0000
1000
0000
0000
1000
0010
0000
0100
0000
,
0001
0000
1000
0001
0010
0100
1000
0000
0001
0100
0010
1000
0001
0000
0010
0000
,
0100
0000
0001
0100
2000
0000
3001
0000
0200
0000
1300
0000
0002
0000
0013
0000
,
2000
0000
3010
0000
0100
0001
0100
0000
0010
0000
1000
0001
0010
0001
1000
0000
,
0002
0013
2000
3010
0002
0103
2000
3001
,
0020
0000
1030
0000
0001
1000
0100
0000
0010
0000
0001
1000
0010
0100
0001
1000
,
0001
0010
0000
0010
0001
0000
0100
0000
0010
1000
0000
1000
0010
0000
0100
0000
,
0001
0010
0000
0100
1000
0000
0001
0000
1000
0010
0100
0001
1000
0000
0000
0000
,
1100
0000
0000
0100
0010
0000
0001
0000
0011
0000
0011
0000
1001
0000
0000
0000
,
0101
0000
0000
0100
0010
0000
1000
0000
1010
0000
1010
0000
1001
0000
0000
0000
,
0011
0000
0000
0010
0001
0000
1000
0000
0001
0100
0010
1000
0001
0000
1000
0000
,
1001
0000
0001
0010
0100
1000
0001
1000
0020
0000
0000
0030
1000
0001
1000
0001
,
1000
0000
0010
0000
0100
0001
0100
0000
0001
0000
0010
0100
1000
0100
0010
0000
,
0001
0000
0100
0000
0010
1000
0010
0000
1000
0000
0001
0010
0100
1000
0100
0000
,
0010
0000
0001
0000
1000
0001
1000
0000
0010
0000
0100
0000
1000
0000
0100
0000
,
0001
0000
1000
0001
0010
0000
0100
0000
1000
0000
0100
1000
0100
1000
0001
0100
,
0020
0000
0000
0000
,
0030
0000
0000
0000
;

//--------------- dance-double - forcednature ----------------
#NOTEDATA:;
#STEPSTYPE:dance-double;
#DESCRIPTION:forcednature;
#DIFFICULTY:Easy;
#METER:8;
#RADARVALUES:0,0,0,0,0;
#CREDIT:forcednature;
#NOTES:
00000000
00000000
00000000
00000000
,
00000000
00000000
00000000
00000000
,
00000000
00000000
00000000
00000000
,
00000000
00000000
00000000
00000000
,
00000000
00000000
00000000
00000000
,
00000000
00000000
00000000
00000000
,
00002000
00010000
00010000
00013000
,
00020000
00031000
00002000
00103000
,
00200000
00010000
00010000
00310000
,
00010000
10000000
00010000
00000000
,
20020000
00000000
30030000
00000000
,
10000000
10000000
01000000
00000000
,
10000000
00010000
00100000
00000000
,
00001000
00001000
00020000
00030000
,
00000200
00000300
00002000
00003000
,
00000001
00000001
00001000
00000000
,
00000001
00000100
00000010
00000000
,
00001000
00001000
00000200
00000000
,
00010300
00000000
00001000
00000000
,
00011000
00000000
01000000
00010000
,
01000000
00000000
00100000
10000000
,
00100000
00000000
10000000
00010000
,
00100000
00000000
00001000
00010000
,
00011000
00000000
00001000
00010000
,
00000100
00001000
00000001
00000000
,
00001001
00000000
00000110
00000000
,
00000001
00001000
00000000
00000000
00000000
00000000
00000000
00000000
,
00000002
00000203
00002300
00003200
,
00000302
00000103
00000010
00001000
,
00000200
00020300
00032000
00203000
,
00320000
10030000
01000000
00010000
,
00022000
00033000
00001000
00100000
,
00001000
00010000
00000010
00010000
,
00001000
00010000
00001000
00000000
00010000
00001000
00010000
00000000
,
00100000
00100000
10000000
00010000
,
20000000
32000000
03020000
02030000
,
23000000
31000000
00100000
00001000
,
00200000
00302000
00023000
00030200
,
00002300
00003001
00000100
00001000
,
00011000
00011000
00100000
00001000
,
00011000
00011000
00000010
00010000
,
00022000
00033000
00022000
00033000
,
00001000
00001000
00020000
00000000
00000000
00000000
00030000
00000000
,
00000100
00001000
00000100
00000010
,
00000001
00001000
00000001
00000100
,
00000010
00001000
00000010
00010000
,
00001000
01000000
00010000
00000000
,
10010000
10000000
01000000
00100000
,
00010000
01000000
00001000
00010000
,
00022000
00033000
00022000
00033000
,
00010000
00001000
00000010
00000001
,
00001001
00000000
00000002
00000000
,
00000203
00000000
00002300
00000000
,
00023000
00000000
02030000
00000000
,
23000000
00000000
30200000
02300000
,
03010000
00000000
00000000
00010000
00000000
00000000
00010000
00000000
00000000
00000000
00000000
00000000
00000000
00000000
00000000
00000000
,
10000000
00000000
00000000
10000000
00000000
00000000
10000000
00000000
00000000
00000000
00000000
00000000
00000000
00000000
00000000
00000000
,
01000000
00010000
00001000
00010000
,
00001000
00010000
00001000
00010000
00001000
00000000
00000000
00000000
,
00011000
00000000
00000000
00000000
,
00000000
00000000
00000000
00000000
,
00000000
00000000
00000000
00000000
,
00000000
00000000
00000000
00000000
,
00000000
00022000
00033000
00000100
,
00000000
00022000
00033000
01000000
,
00010000
00010000
10000000
10000000
,
00010000
10000000
00010000
00000000
00100000
00000000
01100000
00000000
,
20000000
32000000
03020000
02030000
,
23000000
31000000
00100000
00010000
,
02000000
03002000
00023000
00030020
,
00002030
00003001
00000100
00001000
,
00011000
00011000
00000100
00010000
,
00011000
00011000
01000000
00001000
,
00020000
00000000
00000010
00000000
00000010
00000010
00030010
00000000
,
00002000
00000000
00100000
00000000
00100000
00100000
00103000
00000000
,
00020000
00000000
00000100
00000000
00000100
00000100
00030100
00000000
,
00002000
01000000
00020000
00033000
,
00010000
00000000
00001000
00000000
00010000
00001000
00010000
00000000
,
00000010
00000000
00001000
00000000
00000010
00000100
00000010
00000000
,
00001000
00000001
00000100
00001000
,
00010000
00001000
00010000
00000000
00002000
00000000
00003000
00000000
,
00022000
00000000
00000000
00000000
,
00033000
00000000
00000000
00000000
;

//--------------- dance-double - forcednature ----------------
#NOTEDATA:;
#STEPSTYPE:dance-double;
#DESCRIPTION:forcednature;
#DIFFICULTY:Medium;
#METER:12;
#RADARVALUES:0,0,0,0,0;
#CREDIT:forcednature;
#NOTES:
00000000
00000000
00000000
00000000
,
00000000
00000000
00000000
00000000
,
00000000
00000000
00000000
00000000
,
00000000
00000000
00000000
00000000
,
00000000
00000000
00000000
00000000
,
00000000
00000000
00000000
00020000
,
00031000
00100000
00001000
00100000
00010000
00100000
01000000
10000000
,
00020000
01000000
20030000
01000000
,
30010000
00100000
00010000
00100000
00001000
00010000
00000010
00001000
,
00000020
00000000
00000130
00000001
00000020
00000000
00000030
00000000
,
00002002
00000000
00000000
00003003
,
00000001
00000000
00000100
00000001
00000100
00000000
00000010
00000000
,
00010000
00000000
00001000
00010000
00001000
00000000
00010000
00000000
,
00000010
00001000
00000002
00000103
,
00002000
00003100
00000020
00000130
,
00001001
00000000
00001000
00000000
00000100
00000000
00010000
00001000
,
00010000
00000000
00001000
00100000
00001000
00000000
01000000
00000000
,
00010000
10000000
00200000
00300000
,
10000000
00010000
10000000
00010000
00100000
00000000
01000000
00000000
,
01100000
00000000
00100000
00010000
10000000
00000000
00100000
00000000
,
10000000
00000000
01000000
00100000
00010000
00000000
01000000
00000000
,
00011000
00000000
00001000
00010000
00000010
00000000
00001000
00000001
,
00000010
00000000
00000100
00001000
00000010
00000000
00000100
00000000
,
00001001
00000000
00000001
00000100
00000001
00000000
00000100
00001000
,
00010000
00000000
00011000
00000000
00001000
00010000
00001000
00000000
,
00022000
00000000
00033000
00000000
00010000
00001000
01000000
00010000
,
00100000
00100000
00000000
00000000
00010000
00100000
01000000
10000000
,
00010000
01000000
00000000
00000000
01000000
00100000
00000000
00000000
00100000
10000000
00000000
00000000
10000000
01000000
00000000
00000000
,
01100000
00000000
00100000
00010000
00100000
00001000
00010000
00000000
,
00000100
00001000
00000000
00000000
00001000
00000010
00000000
00000000
00000010
00000100
00000000
00000000
00000100
00000001
00000000
00000000
,
00001001
00000000
00001000
00000010
00010000
00001000
00010000
00000100
,
00002000
00000000
00003000
00000000
00000001
00000010
00000100
00001000
,
00000010
00010000
00000000
00000000
00010000
00001000
00000000
00000000
00001000
00100000
00000000
00000000
00100000
00010000
00000000
00000000
,
01000000
00000000
00000000
01000000
00000000
00000000
00010000
00000000
00100000
00000000
00000000
01000000
00000000
00000000
10000000
00000000
,
02000000
00000000
03010000
00010000
00001000
00010000
00000010
00001000
,
00000001
00000100
00000000
00000000
00000100
00001000
00000000
00000000
00001000
00010000
00000000
00000000
00010000
00001000
00000000
00000000
,
00011000
00000000
00010000
00001000
00100000
00010000
10000000
00100000
,
10000000
01000000
00000000
00000000
01000000
00010000
00000000
00000000
00010000
00001000
00000000
00000000
00001000
00010000
00000000
00000000
,
00011000
00000000
00000010
00001000
00000010
00000100
00000001
00001000
,
00000002
00000023
00002030
00023000
,
00230000
20300000
32000000
03100000
,
10010000
01010000
00011000
00101000
,
00001000
00020000
00000000
00000000
00000000
00000000
00030000
00000000
,
00011000
00000000
00010000
00001000
00000010
00000000
00001000
00010000
,
00000010
00000000
00010000
00001000
00010000
00000010
00000100
00001000
,
00010000
00000000
00100000
01000000
00100000
10000000
00010000
10000000
,
01000000
00100000
00001000
00010000
01000000
00000000
00100000
00000000
,
10010000
00000000
10000000
01000000
00010000
00000000
00001000
00010000
,
00000010
00000000
00001000
00000010
00000100
00000001
00001000
00000100
,
00001100
00000000
00000001
00000100
00000101
00000000
00000010
00000000
,
00011000
00000000
00001000
00010000
00001000
00100000
01000000
00010000
,
00001000
00020000
00032000
00003020
,
00002030
00023000
00032000
00003100
,
00000110
00000020
00002030
00023000
,
02030000
00000000
03010000
10000000
00010000
00000000
00100000
00000000
,
01100000
00000000
00000000
01100000
00000000
00000000
01100000
00000000
00000000
00000000
01000000
00000000
00010000
00000000
00000000
00000000
,
00011000
00000000
00000000
00011000
00000000
00000000
00011000
00000000
00000000
00000000
00001000
00000000
00000010
00000000
00000000
00000000
,
00000001
00000010
00000100
00001000
00000001
00000100
00001000
00000000
,
00010000
00010000
00010000
00010000
00001000
01000000
00100000
00010000
,
00001000
00000000
00000000
00000000
,
00000000
00000000
00000000
00000000
,
00000000
00000000
00000000
00000000
,
00000000
00000000
00000000
00000000
,
00000000
00022000
00033000
00202000
,
00303000
00022000
00033000
00010010
,
00000010
00000000
00000000
00000010
00000000
00000000
00001000
00000000
00000100
00000000
00000000
00000100
00000000
00000000
00000010
00000000
,
00000002
00000000
00000000
00000003
00001000
00000001
00000100
00001000
,
00010000
00000000
00000000
00000000
00011000
00000000
00000000
00000000
00010000
00001000
00000000
00000000
00001000
00010000
00000000
00000000
,
00011000
00000000
00001000
00010000
00000010
00001000
00000001
00000010
,
00000001
00000100
00000000
00000000
00000100
00001000
00000000
00000000
00001000
00010000
00000000
00000000
00010000
00001000
00000000
00000000
,
00011000
00000000
00100000
00010000
00100000
01000000
10000000
00010000
,
20000000
30200000
00320000
00032000
,
00003020
00000032
00000203
00000310
,
00001001
00000000
00000000
00000001
00000100
00000000
00001000
00000000
00010000
00000000
00010000
00000000
00010000
00000000
00000000
00000000
,
00011000
00000000
00000000
00001000
00010000
00000000
00100000
00000000
10000000
00000000
10000000
00000000
10000000
00000000
00000000
00000000
,
00010000
00000000
00000000
10000000
00010000
00000000
00100000
00000000
01000000
00000000
10000000
00000000
01000000
00000000
00010000
00000000
,
00001000
00000000
00010000
00001000
00010000
00000000
00001000
00000000
00000020
00000000
00000000
00000000
00000030
00000000
00000000
00000000
,
00000001
00001000
00000001
00001000
00000010
00000100
00000010
00000100
,
00000001
00000010
00001000
00010000
00001000
00010000
00100000
10000000
,
01000000
00100000
00010000
01000000
00100000
10000000
00100000
00010000
,
00001000
00010000
00010000
00001000
00000010
00000010
00000010
00000000
,
00002002
00000000
00000000
00000000
,
00003003
00000000
00000000
00000000
;

//--------------- dance-double - forcednature ----------------
#NOTEDATA:;
#STEPSTYPE:dance-double;
#DESCRIPTION:forcednature;
#DIFFICULTY:Hard;
#METER:15;
#RADARVALUES:0,0,0,0,0;
#CREDIT:forcednature;
#NOTES:
00000000
00000000
00000000
00000000
,
00000000
00000000
00000000
00000000
,
00000000
00000000
00000000
00000000
,
00000000
00000000
00000000
00000000
,
00000000
00000000
00000000
00000000
,
00000000
00000000
00000000
00011000
,
00001000
00000000
00010000
00000000
00000100
00001000
00000100
00000000
00000010
00000000
00000001
00001000
00000000
00001000
00000001
00000000
,
00000100
00000000
00000010
00000000
00001000
00000010
00001000
00000000
00000100
00000000
00010000
00001000
00000000
00001000
00010000
00000000
,
00001000
00000000
00100000
00000000
00010000
00100000
00010000
00000000
10000000
00000000
00100000
00000000
01000000
00000000
00010000
00000000
,
00100000
00000000
00001000
00010000
00001000
00000000
00000010
00000000
00000001
00000000
00001000
00000001
00000100
00000001
00001000
00000000
,
00002002
00000000
00000000
00003003
,
00000101
00000000
00000100
00000001
00000100
00000001
00000010
00000100
,
00001000
00000000
00000010
00001000
00000010
00010000
00001000
00000100
,
00000010
00000100
00001000
00010000
00002000
00000000
00100000
00000000
,
00023000
00000000
00000000
00000000
00000010
00000000
00000000
00000000
00032000
00000000
00000000
00000000
01003000
00000000
00001000
01000000
,
00010000
00000000
01000000
00100000
01000000
00010000
00100000
01000000
,
20000000
00000000
00000000
00000000
31000000
00000000
00010000
00000000
00001000
00000000
00000000
00001000
00010000
00000000
00001000
00000000
,
00000010
00000001
00000100
00000010
00002000
00000000
00000000
00000000
,
00003001
00000000
00000010
00000000
00000100
00000010
00000100
00001000
00000100
00000000
00010000
00000000
00001000
00000000
00100000
00000000
,
00012000
00000000
00000000
00000000
01003000
00000000
00010000
01000000
00010000
00000000
00100000
00000000
01000000
00000000
10000000
00000000
,
00200000
00000000
00310000
00100000
10000000
01000000
00010000
00001000
,
00000100
00000000
00000001
00000100
00000001
00000000
00000010
00000000
00000200
00000000
00001000
00000000
00001300
00000000
00000000
00000000
,
00000100
00000000
00000010
00000001
00000010
00000000
00000001
00000000
00000100
00000000
00001000
00000000
00010000
00001000
00100000
00010000
,
00200000
00000000
00000000
00000000
01300000
00000000
00000000
00010000
01000000
00000000
10000000
00000000
01000000
00000000
00010000
00000000
,
00002000
00000000
00000000
00000000
00003010
00000000
00000000
00001000
00010000
00000000
00001000
00000000
00000010
00000000
00000001
00000000
,
00000100
00000000
00000000
00001000
00000000
00000000
00010000
00000000
01000000
00000000
00000000
00010000
00000000
00000000
00001000
00000000
,
00011000
00000000
00011000
00000000
00000000
00000000
00000000
00000000
01000000
00010000
00100000
00001000
00010000
00001000
00010000
00000000
,
00002000
00103000
00002000
00013000
00200000
10300000
00020000
10030000
,
02000000
00000000
03010000
00000000
00001000
00010000
01000000
00000000
10000000
00010000
10000000
00000000
00100000
00010000
00001000
00000000
,
00020000
00030010
00020000
00031000
00000020
00000031
00002000
00003001
,
00000200
00000000
00001300
00000000
00010000
00001000
00000100
00000000
00000001
00001000
00000001
00000000
00000010
00001000
00010000
00000000
,
00012000
00000000
00000000
00000000
01003000
00010000
01000000
00000000
00100000
00000000
10000000
01000000
00100000
00000000
00010000
00000000
,
00220000
00330000
02002000
03003000
00020200
00030300
00002020
00003030
,
00001001
00000000
00000000
00000001
00000100
00000000
00001000
00000000
00011000
00000000
00000000
00010000
00100000
00000000
10000000
00000000
,
10010000
00000000
00010000
00000000
00100000
01000000
00100000
01000000
10000000
01000000
00100000
00010000
00100000
00000000
00001000
00000000
,
00020000
00030100
00020000
00031000
00000020
00000031
00000200
00001300
,
00000002
00000000
00000013
00000000
00010000
00001000
00000100
00000000
00000001
00001000
00000001
00000000
00000010
00001000
00010000
00000000
,
00002000
01003000
00002000
00013000
00200000
10300000
02000000
03010000
,
20000000
00000000
30100000
00000000
00001000
00010000
01000000
00000000
10000000
00010000
10000000
00010000
00100000
01000000
10000000
00010000
,
01000000
10010000
00011000
00001001
,
00000001
00000100
00001000
00000000
00010000
00001000
00010000
00000000
00001000
00010000
00100000
00000000
10000000
00010000
10000000
00000000
,
10010000
00000000
00000000
10000000
01000000
00000000
00010000
00000000
00011000
00000000
00000000
00001000
00000010
00000000
00000001
00000000
,
00001001
00000220
00000000
00000000
00000330
00000000
00001000
00000010
,
00000001
00000000
00000000
00000000
00000010
00000100
00001000
00010000
00001000
00000000
00000000
00000000
00010000
00001000
00010000
00100000
,
01000000
00000000
00000000
00000000
00010000
10000000
00100000
10000000
00010000
00000000
01000000
00000000
00010000
00000000
00100000
00000000
,
10000000
00000000
00100000
00000000
01000000
00100000
00010000
00000000
00001000
00000000
00001000
00000100
00000010
00000001
00000010
00000000
,
00000100
00000000
00001000
00000000
00000010
00000000
00000001
00000000
00002000
00000000
00000000
00000000
00003100
00000000
00000001
00000010
,
00000100
00000000
00000000
00000000
00000001
00000100
00001000
00000100
00010000
00000000
00001000
00000000
00100000
00000000
00010000
00000000
,
01000000
00000000
00001000
01000000
00010000
01000000
00100000
00000000
00010000
00001000
00010000
00000000
00100000
00000000
10000000
00000000
,
10010000
00000000
00000000
10000000
01000000
00000000
00010000
00000000
00011000
00000000
00000000
00001000
00000010
00000000
00000001
00000000
,
00001001
00000000
00001000
00000001
00001000
00000010
00000100
00000001
00000100
00000000
00001000
00000000
00010000
00000000
01000000
00000000
,
01100000
20000000
30020000
00032000
,
00003002
00000000
00000000
00000000
00000103
00000000
00000010
00000100
00000010
00000000
00001000
00000001
00000010
00000000
00000100
00000000
,
00002001
00000000
00003001
00000100
00000001
00000010
00001000
00100000
,
00020000
00000000
00000000
00000000
10030000
00010000
10000000
00010000
10000000
00000000
01000000
00100000
00010000
00000000
01000000
00000000
,
10010000
00000000
10000000
01000000
00000000
01000000
00010000
00000000
00010000
00001000
00000000
00000010
00000100
00000010
00000001
00000000
,
00001001
00000000
00000001
00000100
00000000
00000100
00001000
00000000
00001000
00010000
00000000
00100000
01000000
00100000
00000000
00000000
,
10000000
00010000
10000000
01000000
00100000
00010000
00100000
00010000
01000000
00001000
00010000
00001000
00010000
00000000
00000010
00000000
,
00001000
00000001
00001000
00000001
00000010
00000100
00001000
00000001
00000100
00000000
00001000
00000000
00010000
00000000
01000000
00000000
,
01100000
00000000
00000000
00000000
,
00000000
00000000
00000000
00000000
,
00000000
00000000
00000000
00000000
,
00000000
00000000
00000000
00000000
,
00000000
00002002
00003003
00022000
,
00033000
20020000
30030000
01100000
,
10010000
00000000
00000000
10000000
01000000
00000000
00010000
00000000
00011000
00000000
00000000
00001000
00000010
00000000
00000001
00000000
,
00000100
00000000
00000010
00001000
00000010
00001000
00000001
00000100
00001000
00000000
00010000
00001000
00010000
00000000
00100000
00000000
,
10000000
00000000
01000000
00010000
00002000
00000000
00013000
00000000
00200000
00000000
10300000
00000000
02000000
00000000
03010000
00000000
,
20000000
00000000
30100000
00000000
00001000
00010000
01000000
00000000
10000000
00010000
10000000
00000000
00100000
00010000
00001000
00000000
,
00020000
00030100
00020000
00031000
00000020
00000031
00000200
00001300
,
00000002
00000000
00000013
00000000
00010000
00001000
00000100
00000000
00000001
00001000
00000001
00001000
00000010
00000100
00000001
00001000
,
00000100
00001001
00011000
10010000
,
10000000
01000000
00010000
00000000
00001000
00010000
00001000
00000000
00010000
00001000
00010000
00000010
00001000
00000000
00000000
00000000
,
00001001
00000000
00000000
00000001
00000100
00000000
00001000
00000000
00011000
00000000
00011000
00000000
00101000
00000000
00000000
00000000
,
10010000
00000000
00000000
10000000
01000000
00000000
00010000
00000000
00011000
00000000
00011000
00000000
00010010
00000000
00000000
00000000
,
00000110
00000000
00000000
00000100
00000001
00000000
00000010
00000000
00000100
00001000
00000100
00010000
00001000
00000000
00100000
00000000
,
00011000
00000000
00001000
00010000
00001000
01000000
00010000
01000000
00100000
00000000
00000000
00000000
10000000
00010000
10000000
00010000
,
10000000
00000000
00100000
00000000
00010000
00100000
00010000
00000000
00100000
00000000
10000000
00100000
01000000
00100000
10000000
00000000
,
01000000
00000000
00010000
00000000
00001000
00010000
00001000
00000000
00000010
00000000
00000001
00000010
00000100
00001000
00000100
00000000
,
00001001
00000000
00000001
00000000
00000100
00000010
00000100
00000000
00000001
00000000
00000010
00000000
00001000
00000000
00010000
00000000
,
01000000
00000000
10000000
01000000
00100000
00000000
00010000
00000000
01000000
00000000
00001000
00010000
00001000
00010000
00001000
00010000
,
00000020
00000000
00000000
00000000
00000000
00000000
00000000
00000000
00000000
00000000
00000000
00000000
00000000
00000000
00000130
00000001
,
00001000
00000000
00000000
00000000
;
