#TITLE:You Like Music;
#SUBTITLE:;
#ARTIST:death's dynamic shroud;
#TITLETRANSLIT:;
#SUBTITLETRANSLIT:;
#ARTISTTRANSLIT:;
#GENRE:;
#CREDIT:Minxyz;
#MUSIC:You Like Music.ogg;
#BANNER:You Like Music BN.png;
#BACKGROUND:You Like Music BG.png;
#CDTITLE:;
#SAMPLESTART:0.000;
#SAMPLELENGTH:0.000;
#SELECTABLE:YES;
#OFFSET:-0.020;
#BPMS:0.000=162.000;
#STOPS:;
#BGCHANGES:;
#FGCHANGES:;

//--------------- dance-single - Minxyz ----------------
#NOTES:
     dance-single:
     Minxyz:
     Beginner:
     8:
     0,0,0,0,0:
0000
0000
0000
0000
,
0000
0000
0000
0000
,
0000
0000
0000
0000
,
0000
0000
0000
0000
,
0001
0000
0000
0010
0000
0000
0001
0000
,
1000
0000
0000
0010
0000
0000
1000
0000
,
0100
0000
0000
0010
0000
0000
0100
0000
,
0010
0001
0100
0010
,
1000
0000
0000
0100
0000
0000
1000
0000
,
0001
0000
0000
0100
0000
0000
0001
0000
,
0010
0000
0000
0100
0000
0000
0010
0000
,
0100
1000
0010
0100
,
0001
0000
0000
0100
0000
0000
0001
0000
,
1000
0000
0000
0100
0000
0000
1000
0000
,
0010
0000
0000
0100
0000
0000
0010
0000
,
0100
0001
0010
0100
,
1000
0000
0000
1100
0000
0000
0100
0010
,
0001
0000
0000
0011
0000
0000
0001
0100
,
0010
0000
0000
0110
0000
0000
0100
0010
,
1000
0000
0000
1010
0000
0000
1000
0100
,
0010
0000
0000
0110
0000
0000
0100
0010
,
0001
0000
0000
1001
0000
0000
1000
0001
,
0100
0000
0000
0110
0000
0000
0010
1000
,
0100
0000
0000
1001
0000
0000
0001
1000
,
0100
0000
1000
0000
0100
0000
0010
0001
,
0010
0000
0001
0000
0100
0000
0010
1000
,
0010
0000
1000
0000
0100
0000
0010
0100
,
0010
0000
0001
0000
0100
0000
0010
0100
,
0010
0000
0000
1000
0000
0001
0001
0000
,
0010
0000
0000
0001
0000
1000
1000
0000
,
0100
0000
0000
0010
0000
0001
0001
0000
,
1000
0001
0010
0001
,
0100
0000
0000
0001
0000
1000
1000
0000
,
0100
0000
0000
1000
0000
0001
0001
0000
,
0010
0000
0000
0100
0000
1000
1000
0000
,
0002
0000
0000
1003
,
1010
1010
1010
0000
,
0101
0101
0101
0001
,
0011
0011
0011
0000
,
1100
1100
1100
0100
,
0001
0100
1000
0010
,
0100
1000
0100
0001
,
0010
0100
0010
1000
,
0010
0001
0100
0010
,
1000
0000
0001
1000
0001
0000
1001
0000
,
0100
0000
0010
0000
0100
0000
0010
0100
,
0010
0000
1000
0001
1000
0000
1000
0000
,
0010
0100
0001
1000
,
1001
0000
1000
0001
0000
0000
0100
0000
,
0010
0000
0100
0010
0000
0000
1000
0000
,
0100
0000
0010
0100
0000
0000
0010
0000
,
0001
0000
1000
0001
0000
0000
0010
0000
,
0100
0000
0010
0100
0000
0000
0010
0000
,
0001
0000
0100
0010
0000
0000
0100
0000
,
0001
0000
1000
0010
0000
0000
0100
0000
,
0002
0000
0003
2000
0000
3000
0100
0000
,
0110
0110
0110
0000
,
1001
1001
1001
1000
,
1100
1100
1100
0000
,
0011
0000
0011
0000
0011
0000
0010
0100
,
1000
0000
1000
0001
1000
0000
0100
0000
,
0010
0000
0100
0010
0100
0000
1000
0000
,
0001
0000
0100
0010
0100
0000
0010
0000
,
1000
0000
0001
1000
0001
0000
0010
0000
,
2000
0000
3000
0020
0000
0030
0002
0000
,
0203
0000
0300
0020
0000
0030
0001
0000
,
0020
0000
0030
2000
0000
3000
0100
0000
,
0020
0000
0030
2000
0000
3000
0020
0000
,
0031
0000
1000
0000
1010
0000
1000
0100
,
0010
0000
0001
0000
0011
0000
0001
0100
,
0010
0000
1000
0000
1010
0000
1000
0010
,
0100
0000
0001
0000
0101
0000
1000
1000
,
0100
0110
1001
1001
,
0001
1000
0001
0000
0100
0010
0100
0000
,
0101
0101
0101
1000
,
1000
0100
0010
0000
0001
0100
0010
0000
,
1010
1010
1010
0001
,
0001
0010
0100
0000
1000
0010
0100
0000
,
1100
1100
1100
0001
,
0001
0100
0010
0000
1000
0100
0010
0001
,
1000
0000
0000
0000
;

//--------------- dance-single - Minxyz ----------------
#NOTES:
     dance-single:
     Minxyz:
     Easy:
     11:
     0,0,0,0,0:
0000
0000
0000
0000
,
0000
0000
0000
0000
,
0000
0000
0000
0000
,
0000
0000
0000
0000
,
1000
0000
1000
0001
0000
0001
1000
0000
,
0010
0000
0010
0100
0000
0100
0010
0000
,
0100
0000
0001
1000
0000
1000
0001
0000
,
0001
0100
1000
0100
,
0001
0000
0001
1000
0000
1000
0001
0000
,
0100
0000
0100
0010
0000
0010
0100
0000
,
0010
0000
1000
0001
0000
0001
1000
0000
,
1000
0010
0001
0010
,
1000
0000
1000
0001
0000
0001
1000
0000
,
0100
0000
0100
0010
0000
0010
0100
0000
,
0010
0000
0001
1000
0000
1000
0001
0000
,
0001
0010
1000
0010
,
0001
0000
0000
0001
0000
0000
0001
0000
0000
0100
0000
0000
0010
0000
0000
0000
,
1000
0000
0000
1000
0000
0000
1000
0000
0000
0100
0000
0000
0010
0000
0000
0000
,
0100
0000
0000
0001
0000
0000
0001
0000
0000
0001
0000
0000
0100
0000
0000
0000
,
1000
0000
0000
0010
0000
0000
0010
0000
0000
0010
0000
0000
0001
0000
0020
0000
,
0000
0030
0000
0002
0000
0003
0000
2000
,
0000
3000
0000
0200
0000
0300
0000
0002
,
0000
0003
0000
0020
0000
0030
0000
0200
,
0000
0000
0300
0000
0000
0000
2000
0000
0000
3000
0000
0000
0000
0000
0010
0000
,
0100
0000
0000
0001
0000
0000
0001
0000
0000
0010
0000
0000
0001
0000
1000
0000
,
0100
0000
0000
1000
0000
0000
1000
0000
0000
0010
0000
0000
0100
0000
0001
0000
,
0010
0000
0000
0100
0000
0000
0100
0000
0000
1000
0000
0000
0001
0000
1000
0000
,
0100
0000
0000
0010
0000
0000
0010
0000
0000
0001
0000
0000
1000
0000
0001
0000
,
0010
0000
0010
0100
0000
0100
0010
0000
,
0001
0000
0001
1000
0000
1000
0001
0000
,
0100
0000
0100
0010
0000
0010
0100
0000
,
0010
1000
0100
0010
,
0100
0000
0100
0010
0000
0010
0100
0000
,
1000
0000
1000
0001
0000
0001
1000
0000
,
0010
0000
0010
0100
0000
0100
0010
0000
,
0200
0001
0010
0301
,
0010
0100
1100
0011
,
1000
0000
0010
0000
0110
0000
0100
0001
,
0100
0010
1010
0101
,
1000
0000
0100
0000
0110
0000
0010
0001
,
1000
0000
1001
0000
0110
0000
1000
0001
,
0010
0000
0011
0000
1100
0000
0100
0010
,
0001
0000
0101
0000
1010
0000
0010
0100
,
0001
0000
0011
0000
1100
0000
0100
0010
,
0100
0000
0000
0001
0000
0000
0100
0000
1000
0000
0000
0000
0010
0000
0100
0000
,
0010
0000
0110
0000
1001
0000
1000
0001
,
1000
0000
0110
0000
1001
0000
1000
0010
,
0100
0000
0000
1000
0000
0000
0100
0000
0001
0000
0000
0000
0110
0000
0000
0000
,
1001
0000
0010
2000
3000
0000
0200
0300
,
0002
0003
0100
2000
3000
0000
0020
0030
,
0002
0003
1000
0200
0300
0000
0002
0003
,
0020
0030
0100
2000
3000
0000
0110
0000
,
1002
0003
0100
0020
0030
0000
0200
0300
,
0010
0000
0100
0002
0003
0000
2000
3000
,
0200
0300
0010
0002
0003
0000
2000
3000
,
0002
0003
0010
0200
0300
0000
2000
3000
,
1100
0000
1000
0100
0010
0000
0011
0000
,
1000
0010
0100
0000
0101
0000
0001
0010
,
0011
0000
0001
0010
0100
0000
1100
0000
,
0001
0100
0010
0000
1010
0000
1000
0100
,
0110
0000
1000
0010
0100
0000
0101
0000
,
1000
0100
0010
0000
0011
0000
0001
0100
,
0101
0000
0001
0100
0010
0000
1010
0000
,
0001
0010
0100
0000
1100
0000
1000
0010
,
1010
2000
3002
2003
3002
0003
0010
0000
,
0100
0000
1000
0100
1000
0000
0010
0000
,
0011
0002
2003
3002
2003
3000
0010
0000
,
0100
0000
0000
1000
0000
0000
0100
0000
0001
0000
0000
0000
0010
0000
0100
0000
,
0010
0000
0000
0001
0000
0000
0100
0000
0000
0000
1000
0000
0100
0000
0001
0000
,
0010
0000
0000
0100
0000
0000
1000
0000
0000
0000
0010
0000
0001
0000
0010
0000
,
1000
0000
0000
0100
0000
0000
0010
0000
0000
0000
0001
0000
0100
0000
1000
0000
,
0100
0000
0000
0001
0000
0000
0010
0000
0000
0000
0100
0000
1000
0000
0001
0000
,
0011
0000
1100
0000
1010
0000
0010
0100
,
0001
0000
0110
0000
1001
0000
1000
0100
,
1100
0000
0011
0000
0101
0000
0100
0010
,
1000
0010
1000
0010
0100
0001
0100
0010
,
1010
0000
0101
0000
0011
0000
0010
0100
,
1000
0100
1000
0100
0010
0001
0010
0100
,
1100
0000
1010
0000
1100
0000
0100
0010
,
0001
0010
0001
0010
0100
1000
0010
0100
,
1001
0000
0000
0000
;

//--------------- dance-single - Minxyz ----------------
#NOTES:
     dance-single:
     Minxyz:
     Medium:
     14:
     0,0,0,0,0:
0000
0000
0000
0000
,
0000
0000
0000
0000
,
0000
0000
0000
0000
,
0000
0000
0000
0000
,
0001
0000
0010
0001
0000
1000
0100
0010
,
0100
0000
0100
1000
0000
0010
0100
0001
,
0100
0000
0010
0100
0000
0010
1000
0100
,
1000
0000
0000
0001
0000
0000
1000
0000
0000
0000
0100
0000
0010
0100
0000
0000
,
1000
0000
0100
1000
0000
0001
0010
0100
,
0010
0000
0010
0001
0000
0100
0010
1000
,
0010
0000
0100
0010
0000
0100
0001
0010
,
0001
0000
0000
1000
0000
0000
0001
0000
0000
0000
0010
0000
0100
0010
0000
0000
,
0001
0000
0100
0001
0000
1000
0010
0100
,
0010
0000
0010
1000
0000
0100
0010
0001
,
0010
0000
0100
0010
0000
0100
1000
0010
,
1000
0000
0000
0001
0000
0000
1000
0000
0000
0000
0010
0000
0100
0010
0000
0000
,
0110
0000
0000
1000
0000
0000
0100
0000
0000
0100
0000
0000
0010
0000
0001
0000
,
0100
0000
0000
0010
0000
0000
1000
0000
0000
1000
0000
0000
0001
0000
1000
0000
,
0010
0000
0000
0100
0000
0000
0001
0000
0000
0001
0000
0000
0010
0000
0100
0000
,
1000
0000
0000
0100
0000
0000
0010
0000
0000
0010
0000
0000
0001
0000
1000
0100
,
1000
0000
0000
0010
0000
0000
0100
0001
0100
0000
0000
0000
0010
0000
0100
0010
,
0100
0000
0000
0001
0000
0000
0100
0001
0100
0000
0000
0000
0010
0000
1000
0001
,
1000
0000
0000
0100
0000
0000
0010
0001
0010
0000
0000
0000
0100
0000
0010
0100
,
0010
0000
0000
0001
0000
0000
1000
0010
1000
0000
0000
0000
0100
0000
1000
0100
,
0010
0000
0000
0100
0000
0000
0001
0000
0000
0001
0000
0000
0100
0000
1000
0000
,
0010
0000
0000
0001
0000
0000
0001
0000
0000
0010
0000
0000
1000
0000
0010
0000
,
0100
0000
0000
1000
0000
0000
1000
0000
0000
0100
0000
0000
0001
0000
0010
0000
,
0100
0000
0000
0010
0000
0000
0010
0000
0000
0001
0000
0000
1000
0000
0010
0000
,
0100
0000
0000
0100
0001
0000
1000
0000
0000
0000
0100
0000
0010
0000
0001
0000
,
0010
0000
0000
0010
0100
0000
1000
0000
0000
0000
0010
0000
0100
0000
0010
0000
,
1000
0000
0000
1000
0100
0000
0010
0000
0000
0000
0001
0000
1000
0000
0001
0000
,
1000
0000
0000
0010
0000
0000
0010
0000
0000
0000
0010
0000
1000
0100
0000
0000
,
0010
0000
0000
0010
0001
0000
1000
0000
0000
0000
0010
0000
0100
0000
0001
0000
,
0100
0000
0000
0100
0010
0000
1000
0000
0000
0000
0100
0000
0010
0000
0100
0000
,
1000
0000
0000
1000
0010
0000
0100
0000
0000
0000
0001
0000
1000
0000
0001
0000
,
1000
0000
0100
0000
0010
0000
0001
0000
0100
0000
0010
0000
1000
0100
0000
0100
,
1000
0000
1000
0100
0110
0000
0010
0001
,
0100
0010
0100
0010
1010
0000
0010
0100
,
0101
0000
1001
0000
0110
0000
0001
1000
,
0100
0010
0100
0010
0011
0000
0001
0100
,
0110
0000
1010
0000
1100
0000
1000
0100
,
0010
0000
0100
0000
0010
0000
0001
0000
1000
0100
0000
0000
1000
0000
0010
0000
,
0110
0000
0101
0000
0011
0000
0001
0100
,
0010
0000
0100
0000
0001
0000
0010
0000
0001
0100
0000
0000
0001
0000
0010
0000
,
0100
0000
0010
0100
0000
0100
0010
0000
0001
0000
0000
0000
1000
0000
0100
0000
,
0001
0100
1000
0010
1010
0000
0001
0100
,
0010
0000
0000
0000
0100
0000
0000
0100
0010
0000
0000
0000
0100
0000
0001
0000
,
1000
0000
0100
0010
0000
0010
0100
0000
0010
0000
0000
0000
1001
0000
0000
0000
,
1000
0010
0001
2000
3000
0100
0002
0003
,
0020
0030
1000
0002
0003
0100
2000
3000
,
0002
0003
0100
2000
3000
0001
0020
0030
,
2000
3000
0100
0002
0003
1000
0020
0030
,
0002
0003
0100
0020
0030
1000
0200
0300
,
0002
0003
1000
0020
0030
0100
2000
3000
,
0002
0003
0010
0200
0300
0010
0002
0003
,
2000
3000
0001
0200
0300
0001
0020
0030
,
0110
0000
0100
1000
1100
0000
0100
0010
,
0001
1000
0001
0100
0101
0000
1000
0010
,
0110
0000
0100
0001
0101
0000
0100
0010
,
1000
0001
1000
0100
1100
0000
0001
0010
,
0011
0000
1000
1100
0000
0100
0110
0000
,
0011
0000
0100
0101
0000
0100
0110
0000
,
0101
0000
0001
0011
0000
0010
0110
0000
,
1000
0000
0000
0000
0010
0100
0000
0000
0010
0000
0000
0000
1000
0000
0000
0001
,
0010
0100
1000
0001
0100
0000
0020
0030
,
0002
0003
1000
0200
0300
0001
0020
0130
,
0010
0001
0100
0010
1000
0000
0002
0003
,
0200
0300
0010
0100
0000
0000
0100
0010
,
1000
0000
0000
1000
0000
0000
0001
0000
0000
0001
0000
0000
0010
0000
0100
1000
,
0100
0000
0000
0100
0000
0000
0010
0000
0000
0010
0000
0000
0001
0000
1000
0010
,
1000
0000
0010
0100
0001
0000
0100
1000
,
0100
0001
0010
1000
0010
0001
0100
0010
,
0001
0000
0000
0010
0100
0000
0001
0000
1000
0000
0000
0000
0100
0000
0010
0001
,
0010
0000
0000
0010
1000
0000
0000
1000
0010
0000
0000
0010
0001
0000
1000
0000
,
0100
0000
0000
0100
0010
0000
0001
0000
0100
0000
0000
0000
0010
0000
0100
0001
,
0100
0000
0000
0100
1000
0000
0000
1000
0100
0000
0000
0100
0001
0000
0010
0000
,
1000
0000
0000
0010
0100
0000
1000
0000
0001
0000
0000
0000
0100
0000
0010
1000
,
0010
0000
0000
0010
0001
0000
0000
0001
0010
0000
0000
0010
1000
0000
0001
0000
,
0100
0000
0000
0100
0010
0000
1000
0000
0100
0000
0000
0000
0010
0000
0100
1000
,
0100
0000
0000
0100
0001
0000
0000
0001
0100
0000
0000
0100
1000
0000
0010
0000
,
1010
0000
0000
0000
;

//--------------- dance-single - Minxyz ----------------
#NOTES:
     dance-single:
     Minxyz:
     Hard:
     16:
     0,0,0,0,0:
0000
0000
0000
0000
,
0000
0000
0000
0000
,
0000
0000
0000
0000
,
0000
0000
0000
0000
,
0101
0000
0100
0010
0000
0100
0001
0000
,
1100
0000
0100
0010
0000
0100
1000
0000
,
0011
0000
0010
0100
0000
0010
0001
0000
,
1001
0000
0000
1000
0000
0000
0010
0000
0001
0000
0010
0000
1000
0001
0000
0001
,
1000
0000
0010
0100
0000
0010
1000
0000
,
0011
0000
0010
0100
0000
0010
0001
0000
,
1100
0000
0100
0010
0000
0100
1000
0000
,
1001
0000
0000
0001
0000
0000
0100
0000
1000
0000
0100
0000
0001
1000
0000
1000
,
0001
0000
1000
0010
0000
0010
1000
0000
,
0100
0000
0010
0001
0000
0001
0010
0000
,
0001
0000
1000
0100
0000
0100
1000
0000
,
1000
0000
0000
0001
0000
0000
0100
0000
1000
0000
0100
0000
0001
1000
0000
1000
,
0001
0000
0000
0010
0000
0000
1000
0000
0000
0010
0000
0000
0001
0000
0100
0000
,
1000
0000
0000
0100
0000
0000
0001
0000
0000
1000
0000
0000
0100
0000
0001
0000
,
0100
0000
0000
1000
0000
0000
0010
0000
0000
0001
0000
0000
0010
0000
1000
0000
,
0100
0000
0000
0001
0000
0000
0100
0000
0000
1000
0000
0000
0001
0000
0100
0000
,
1000
0000
0000
0100
0000
0000
0010
0000
0000
0001
0000
0000
0010
0000
1000
0000
,
0100
0000
0000
0010
0000
0000
0001
0000
0000
0010
0000
0000
1000
0000
0010
0000
,
0001
0000
0000
0010
0000
0000
0100
0000
0000
1000
0000
0000
0001
0000
0100
0000
,
0010
0000
0000
0100
0000
0000
0001
0000
0000
0010
0000
0000
0100
0000
1000
0000
,
0010
0000
1000
0001
0000
0000
0100
0000
0000
0010
0100
0000
0010
0000
1000
0000
,
1010
0000
0001
1000
0000
0000
0010
0000
0100
0010
0000
0000
0100
0000
0001
0000
,
0101
0000
0100
0010
0000
0000
1000
0000
0000
0100
0010
0000
0001
0000
0010
0000
,
0011
0000
0001
0100
0000
0000
0010
0000
0100
0010
0000
0000
1000
0000
0001
0000
,
1001
0000
0000
0001
1000
0000
1010
0000
0000
0010
0100
0000
0001
0000
0010
0000
,
0011
0000
0000
0010
0100
0000
1100
0000
0000
0100
0010
0000
0001
0000
0100
0000
,
0101
0000
0000
0100
0010
0000
1010
0000
0000
0010
0100
0000
0001
0000
1000
0000
,
1100
0000
0000
0011
0000
0000
1001
0000
0000
0000
0110
0000
0100
0010
0000
1000
,
0001
0000
0000
1000
0001
0000
0101
0000
0000
0100
0010
0000
1000
0000
0100
0000
,
1100
0000
0000
0100
0010
0000
0011
0000
0000
0010
0100
0000
1000
0000
0010
0000
,
1010
0000
0000
0010
0100
0000
0101
0000
0000
0100
0010
0000
1000
0000
0001
0000
,
0011
0000
0000
1100
0000
0000
1001
0000
0000
0000
0110
0000
0100
0010
0100
0010
,
0100
0000
1010
0000
0110
0000
0110
0100
,
0101
0100
0110
0010
1010
0000
1100
0100
,
0110
0000
0110
0000
0011
0000
0011
1000
,
1010
1000
1100
0001
0101
0000
1001
0110
,
1001
0000
0000
0001
0010
0000
0100
0000
1100
0000
0000
0000
1010
0000
0010
0000
,
0100
0000
0001
1000
0001
0000
0100
0000
0101
0000
0000
0000
1001
0000
0110
0000
,
1001
0000
0000
1000
0100
0000
0010
0000
0011
0000
0000
0000
0101
0000
0100
0000
,
0010
0000
1000
0001
1000
0000
0010
0000
1010
0000
0000
0000
1000
0000
0010
0000
,
0101
0000
0001
0100
0000
0001
1000
0000
0010
0000
0000
0000
1100
0000
0100
0000
,
0010
0000
0001
1000
0001
0000
0010
0000
1100
0000
0000
0000
0001
0000
1000
0000
,
1100
0000
0110
0010
0011
0010
0110
0100
,
1100
0000
1000
0100
0000
1000
0001
0000
0101
0000
0100
0000
0110
0000
0010
0000
,
1010
0000
0001
0102
0003
1000
2100
3000
,
2010
3000
0001
0021
0030
0100
0220
0330
,
2002
3003
1000
1020
0030
0100
0220
0330
,
0102
0003
1000
2002
3003
0001
0102
0003
,
1020
0030
0100
0220
0330
1000
2002
3003
,
1000
0000
0010
1000
0000
0010
1000
0000
0001
0100
0000
0001
0100
0000
0010
0000
,
1000
0000
0100
1000
0000
0100
1000
0000
0001
0010
0000
0001
0010
0000
0001
1000
,
0001
0000
0010
0001
0000
0010
0001
0000
1000
0100
0000
1000
0100
0000
0010
0000
,
0011
0000
1001
0000
1010
0000
1100
0100
,
0110
0010
0011
1000
1001
0000
0011
1000
,
1100
0000
1001
0000
0101
0000
0011
0010
,
0110
0100
1100
1000
1010
0000
0110
0001
,
0101
0000
1000
1100
0000
0000
1010
0010
,
0110
0100
0001
0101
1000
0000
0101
1000
,
1010
0000
0000
0000
0001
0000
0011
0000
0000
0000
0000
0000
0001
0000
1000
0100
,
0010
0000
0100
0000
0010
0001
1000
0000
0100
0000
0000
0000
1000
0000
0001
1000
,
0100
0000
0020
0030
0020
0030
0020
0030
0011
0000
0000
0000
1002
0000
0003
0000
,
0100
0001
0100
0001
0000
1000
0100
1000
,
0100
0000
0010
0000
0001
0000
0010
0000
0001
0000
0010
0100
0010
0000
0001
0000
,
0100
0000
0010
1000
0000
0010
1000
0000
0001
0000
0000
0000
0010
0000
0001
0100
,
0010
0000
0100
0001
0010
0000
0100
1000
,
0010
0000
1000
0100
0000
1000
0100
0000
0010
0001
0000
0000
0010
0000
0001
0000
,
1000
0000
0010
0100
0010
0000
1000
0000
0100
0010
0000
0000
0001
0000
0010
0100
,
0010
0000
0001
0000
1000
0000
0010
0000
0100
0001
0100
0001
1000
0010
1000
0010
,
1000
0000
0000
0001
0100
0000
0001
0000
1000
0000
0010
0000
0100
0000
0010
1000
,
0010
0000
0100
0001
0100
0000
0001
0010
0001
0000
0000
0000
1000
0100
1000
0000
,
0100
0010
0100
0001
0100
1000
0010
0100
,
0001
0100
0001
0100
0001
0100
0001
0100
0010
1000
0010
1000
0010
1000
0010
1000
,
0010
0000
0100
0001
0000
0010
0100
0000
0010
0100
0000
0010
0100
0000
1000
0000
,
1000
0100
1000
0100
1000
0100
1000
0100
0010
0001
0010
0001
0010
0001
0010
0001
,
0010
0000
0001
1000
0100
0000
0010
0000
0100
0000
1000
0000
0100
0000
0010
0000
,
0001
1000
0001
1000
0001
1000
0001
1000
0001
0100
0010
0100
0010
0100
0010
1000
,
0001
0000
0000
0000
;

//--------------- dance-single - Minxyz ----------------
#NOTES:
     dance-single:
     Minxyz:
     Challenge:
     18:
     0,0,0,0,0:
0000
0000
0000
0000
,
0000
0000
0000
0000
,
0000
0000
0000
0000
,
0000
0000
0000
0000
,
0001
0000
1000
0100
1000
0000
0010
0000
0100
0001
0100
0000
0010
0000
0100
0010
,
0100
0000
0001
1000
0001
0000
1000
0000
0010
0100
0010
0000
0100
0000
0001
1000
,
0001
0000
0010
0001
0010
0000
0100
0000
1000
0100
1000
0000
0010
0000
0100
0001
,
0100
0000
0010
0100
0000
0010
1000
0000
0010
0000
0100
0000
0100
0010
0000
0100
,
0001
0000
1000
0010
0100
0000
0001
0000
0010
0100
1000
0000
0001
0000
0010
0100
,
0010
0000
0001
0100
0010
0000
1000
0000
0100
0010
0001
0000
1000
0000
0001
1000
,
0001
0000
0100
0010
1000
0000
0010
0000
0100
0010
1000
0000
0100
0000
0010
0001
,
0010
0000
0100
0010
0000
0100
1000
0000
0100
0000
0010
0000
0010
0100
0000
0010
,
1000
0000
0001
0100
0010
0000
1000
0000
0100
0010
0001
0000
1000
0000
0100
0010
,
0100
0000
1000
0010
0100
0000
0001
0000
0010
0100
1000
0000
0001
0000
1000
0001
,
1000
0000
0010
0100
0001
0000
0100
0000
0010
0100
0001
0000
0010
0000
0100
1000
,
0100
0000
0010
0100
0000
0010
0001
0000
0010
0000
0100
0000
0100
0010
0000
0100
,
1000
0000
0100
1000
0000
0100
0010
0000
0100
0001
0000
0100
1000
0000
0010
0100
,
0001
0000
0010
0001
0000
0010
0100
0000
0010
1000
0000
0010
0001
0000
0100
0010
,
1000
0000
0010
1000
0000
0010
0100
0000
0010
0001
0000
0010
1000
0000
0010
0100
,
0001
0000
0100
0001
0000
0100
0010
0000
0100
1000
0000
0100
0001
0000
1000
0100
,
0010
0000
0001
0100
0000
0001
0100
0000
0010
1000
0000
0010
1000
0000
0001
0100
,
0010
0000
1000
0100
0000
1000
0100
0000
0010
0001
0000
0010
0001
0000
1000
0010
,
0100
0000
0001
1000
0000
0001
1000
0000
0010
0100
0000
0010
0100
0000
0001
0010
,
0100
0000
1000
0001
0000
1000
0001
0000
0010
0100
0000
0010
0100
0000
1000
0001
,
1000
0000
0010
0100
0000
0010
1000
0000
0001
0100
0001
0000
0010
0000
0001
0000
,
1000
0000
0100
0010
0100
0010
0100
0010
0100
0010
0100
0000
0010
0000
0100
0000
,
1000
0000
0100
0010
0000
0100
1000
0000
0001
0010
0001
0000
0100
0000
0001
0000
,
1000
0000
0010
0100
0010
0100
0010
0100
0010
0100
0010
1000
0001
1000
0001
1000
,
0001
0000
0000
0100
0010
0000
0100
0000
0001
0000
1000
0010
1000
0000
0100
0000
,
1000
0000
0000
0010
0100
0000
0010
0000
0100
0001
0100
0000
0010
0000
1000
0000
,
0001
0000
0000
0100
0010
0000
0100
0000
0010
1000
0010
0000
0100
0000
0001
0000
,
0010
0000
0100
1000
0000
0100
1000
0000
0001
0010
0000
0000
0001
0100
0010
1000
,
0001
0000
0000
0010
0100
0000
0010
0000
0001
0000
1000
0100
1000
0000
0010
0000
,
1000
0000
0000
0100
0010
0000
0100
0000
0010
0001
0010
0000
0100
0000
1000
0000
,
0001
0000
0000
0010
0100
0000
0010
0000
0100
1000
0100
0000
0010
0000
0001
0000
,
1000
0100
1000
0100
0010
0001
0010
0001
1000
0010
1000
0010
0100
0001
0100
0001
,
1000
0000
0001
1000
0100
0000
0100
0000
1000
0010
0000
0000
0110
0000
0010
0100
,
0001
0000
0100
0010
1000
0010
0100
0000
0001
0010
0000
0100
1000
0100
0000
0010
,
0001
0000
0100
0010
0001
0010
0100
0000
0001
0100
0000
0010
1000
0010
0000
0100
,
0001
0000
1000
0010
0100
0010
1000
0000
0001
0010
0000
0100
1000
0100
0000
0010
,
0001
0000
0100
0010
0100
0000
0001
0000
1000
0010
0000
0000
1010
0000
0010
0000
,
0101
0000
0001
1000
0001
0000
0010
0000
0001
0100
0000
0000
0101
0000
0100
0000
,
1010
0000
0010
0100
0010
0000
1000
0000
0001
0100
0000
0000
0101
0000
0100
0000
,
1010
0000
1000
0001
1000
0000
0100
0000
1000
0010
0000
0000
1010
0000
0010
0000
,
0101
0000
0001
1000
0000
1000
0001
0000
1001
0000
1000
0100
0000
0010
0001
0010
,
0001
0000
1000
0100
1000
0100
1000
0100
1000
0000
0010
0000
0110
0000
0010
0000
,
0100
0000
0001
0100
0001
0100
0001
0100
0001
0000
0010
0000
0110
0000
0100
0000
,
1100
0000
1000
0001
0000
0001
1000
0000
1000
0100
0010
0001
0010
0100
1000
0100
,
1000
0000
0001
0000
0100
0000
0020
0000
0030
0001
0010
0000
2000
0000
3000
0001
,
0200
0000
0300
1000
0001
0000
0020
0000
0030
0100
0001
0000
0200
0000
0310
0000
,
2000
0000
3000
0100
0001
0000
2000
0000
3000
0010
0001
0000
2000
0000
3100
0000
,
0020
0000
0030
0001
1000
0000
0200
0000
0300
0010
1000
0000
0020
0000
0130
0000
,
0002
0000
0003
0100
1000
0000
0002
0000
0003
0100
1000
0000
0002
0000
0013
0000
,
0100
0001
0100
0000
0010
1000
0000
0100
0010
0000
0001
0000
0100
0000
0010
0000
,
1000
0100
0000
0010
0100
0000
0010
0001
0010
0000
0100
0010
0000
0001
0100
0000
,
0010
1000
0010
1000
0001
0100
0001
0100
0001
1000
0001
1000
0100
0010
0100
0010
,
0001
1000
1010
1000
1100
0000
0110
0010
,
0011
0010
0110
0100
1100
0000
1001
0001
,
0101
0100
0110
0100
1100
0000
1100
0100
,
0110
0010
1010
1000
1001
0000
0011
0001
,
0101
0000
0000
0001
1000
0000
1100
0000
0100
0000
0010
0000
0011
0000
0001
0000
,
0101
0100
0010
0110
1000
0000
1001
1000
,
1010
0000
0000
1000
0001
0000
0011
0000
0010
0000
0100
0000
1100
0000
1000
0100
,
0010
0000
0001
0000
0010
0100
1000
0000
1001
0000
0000
0000
1001
0000
0001
1000
,
0100
0000
0002
0000
0203
0000
2300
0000
3200
0000
0310
0001
0010
0000
0000
0000
,
0002
0000
0203
0000
2300
0000
3200
0000
0301
0000
1000
0010
1000
0000
0100
0000
,
2000
0000
3020
0000
0032
0000
0023
0000
2030
0000
3001
0100
0001
0000
0100
0000
,
0001
0000
0010
0100
0000
0010
0100
0000
1000
0000
0010
0000
0100
0010
0100
0010
,
0100
0001
0100
0010
1000
0010
0100
0001
0100
0010
0100
0010
1000
0010
1000
0100
,
0010
0001
0010
0100
0010
0100
1000
0100
1000
0001
0100
0001
0010
0100
1000
0100
,
0010
0100
0010
0100
0010
0001
1000
0001
0100
0010
0100
0010
1000
0001
0010
0100
,
1000
0010
0100
0001
1000
0010
0100
0001
1000
0100
0010
0001
1000
0010
0100
0001
,
1000
0000
0000
0001
0100
0000
0100
0000
0001
1000
0000
0000
0010
0000
0001
0000
,
0010
0000
1000
0000
0001
0000
0100
0000
0010
0100
0010
0000
0100
0000
0010
0000
1000
0000
0001
0000
0010
0000
0100
0000
1000
0100
1000
0000
0001
0000
0000
0000
,
1000
0000
0001
0000
0100
0000
0100
0001
0000
0000
0100
0001
1000
0100
0010
0001
,
1000
0100
1000
0000
0100
0000
0010
0000
0001
0000
0100
0000
0010
0000
1000
0000
0010
1000
0010
0000
0100
0000
0001
0000
1000
0000
0010
0000
0100
0000
0001
0000
,
0100
0000
0001
1000
0001
1000
0001
1000
0100
0010
0100
0010
0100
0000
0010
0000
,
0001
0010
0001
0000
1000
0000
0100
0000
0010
0000
0001
0000
0100
0000
0010
0000
1000
0010
1000
0000
0001
0000
0100
0000
0010
0000
1000
0000
0100
0000
0010
0000
,
0001
0000
1000
0001
1000
0001
1000
0001
0010
0100
0010
0100
0010
0000
0100
0000
,
1000
0100
1000
0000
0001
0000
0010
0000
0100
0000
1000
0000
0010
0000
0100
0000
0001
0100
0001
0000
1000
0000
0010
0000
0100
0000
0001
0000
0010
0000
0100
0000
,
1000
0000
0000
0000
;
