#VERSION:0.83;
#TITLE:You Can't Hurry Love;
#SUBTITLE:;
#ARTIST:Paula Terry;
#TITLETRANSLIT:;
#SUBTITLETRANSLIT:;
#ARTISTTRANSLIT:;
#GENRE:;
#ORIGIN:;
#CREDIT:;
#BANNER:;
#BACKGROUND:;
#PREVIEWVID:;
#JACKET:;
#CDIMAGE:;
#DISCIMAGE:;
#LYRICSPATH:;
#CDTITLE:;
#MUSIC:You Can't Hurry Love.mp3;
#OFFSET:-0.124000;
#SAMPLESTART:20.420235;
#SAMPLELENGTH:9.940001;
#SELECTABLE:YES;
#BPMS:0.000=96.520;
#STOPS:;
#DELAYS:;
#WARPS:;
#TIMESIGNATURES:0.000=4=4;
#TICKCOUNTS:0.000=4;
#COMBOS:0.000=1;
#SPEEDS:0.000=1.000=0.000=0;
#SCROLLS:0.000=1.000;
#FAKES:;
#LABELS:0.000=Song Start;
#BGCHANGES:0.000=You Can't Hurry Love.mp4=1.000=0=0=0=StretchNoLoop====,
99999=-nosongbg-=1.000=0=0=0 // don't automatically add -songbackground-
;
#KEYSOUNDS:;
#ATTACKS:
;

//---------------dance-single - ----------------
#NOTEDATA:;
#CHARTNAME:;
#STEPSTYPE:dance-single;
#DESCRIPTION:;
#CHARTSTYLE:;
#DIFFICULTY:Beginner;
#METER:2;
#RADARVALUES:0.098997,0.116321,0.000000,0.000000,0.000000,63.000000,63.000000,0.000000,0.000000,0.000000,0.000000,0.000000,0.000000,0.000000,0.098997,0.116321,0.000000,0.000000,0.000000,63.000000,63.000000,0.000000,0.000000,0.000000,0.000000,0.000000,0.000000,0.000000;
#CREDIT:Venom;
#NOTES:
0000
0000
0000
0000
,
0000
0000
0000
0000
,
0000
0000
0000
0000
,
0000
0000
0000
0000
,
1000
0000
1000
0000
,
0001
0000
0000
0000
,
0001
0000
0001
0000
,
1000
0000
0000
0000
,
0010
0010
0000
0000
,
0100
0100
0000
0000
,
0001
0001
0000
0000
,
1000
1000
1000
0000
,
0001
0001
0000
0000
,
0010
0010
0000
0000
,
0100
0000
0100
0000
,
1000
0000
0001
0000
,
1000
0000
1000
0000
,
0001
0000
0000
0000
,
0100
0000
0100
0000
,
0010
0000
0000
0000
,
0100
0100
0000
0000
,
0001
0001
0000
0000
,
1000
1000
0000
0000
,
0100
0000
0100
0000
,
0010
0010
0000
0000
,
0001
0001
0000
0000
,
1000
1000
0000
0000
,
0001
0001
0001
0000
,
1000
1000
0000
0000
,
0010
0010
0000
0000
,
0100
0000
0100
0000
,
0001
0001
0001
0000
,
1000
0000
1000
0000
,
0001
0000
0001
0000
,
0100
0000
0100
0000
,
0010
0010
0000
0000
;

//---------------dance-single - ----------------
#NOTEDATA:;
#CHARTNAME:;
#STEPSTYPE:dance-single;
#DESCRIPTION:;
#CHARTSTYLE:;
#DIFFICULTY:Easy;
#METER:4;
#RADARVALUES:0.174423,0.194900,0.043999,0.076998,0.005500,111.000000,107.000000,4.000000,7.000000,0.000000,0.000000,0.000000,0.000000,0.000000,0.174423,0.194900,0.043999,0.076998,0.005500,111.000000,107.000000,4.000000,7.000000,0.000000,0.000000,0.000000,0.000000,0.000000;
#CREDIT:Venom;
#NOTES:
0000
0000
0000
0000
,
0000
0000
0000
0000
,
0000
0000
0000
0000
,
1000
1000
0001
0001
,
0100
0100
0000
0010
,
0100
0100
0000
0001
,
1000
1000
0000
0100
,
1000
0010
0100
0100
,
0001
0001
0001
0000
,
1000
1000
1000
0000
,
0010
1000
0100
0000
,
0010
0010
0100
1001
,
0001
0001
0001
0000
,
1000
1000
1000
0000
,
0010
0100
0001
0000
,
0010
0001
0100
1001
,
0001
1000
0100
1000
,
0002
0000
0003
1000
,
0010
2000
3000
0100
,
0010
0200
0300
0010
,
0001
0020
0030
0001
,
1000
0002
0003
0001
,
0100
0200
0300
0010
,
1000
2000
0001
3001
,
1000
0100
1000
0000
,
0001
0010
0001
0000
,
0100
0010
0100
0000
,
0001
0010
0001
1001
,
1000
0100
1000
0000
,
0010
0100
0001
0000
,
0001
0001
1000
0000
,
0001
0010
0100
1001
,
0001
0001
1000
0000
,
1000
1000
0001
0000
,
0100
0010
0100
0010
,
1000
0000
0000
0000
0001
0000
0000
0001
0000
0000
0000
0000
0000
0000
0000
0000
;

//---------------dance-single - ----------------
#NOTEDATA:;
#CHARTNAME:;
#STEPSTYPE:dance-single;
#DESCRIPTION:;
#CHARTSTYLE:;
#DIFFICULTY:Medium;
#METER:8;
#RADARVALUES:0.259277,0.311840,0.021999,0.065998,0.005500,165.000000,163.000000,2.000000,6.000000,0.000000,0.000000,0.000000,0.000000,0.000000,0.259277,0.311840,0.021999,0.065998,0.005500,165.000000,163.000000,2.000000,6.000000,0.000000,0.000000,0.000000,0.000000,0.000000;
#CREDIT:Venom;
#NOTES:
0000
0000
0000
0000
,
0000
0000
0000
0000
,
0000
0000
0000
0000
,
0000
1000
0000
1000
0000
0001
0000
0001
,
0000
0100
0000
0100
0000
0010
0000
0010
,
0000
1000
0000
1000
0000
0001
0000
0001
,
0000
0010
0000
0010
0000
0100
0000
0100
,
0000
1000
0000
1000
0000
0001
0000
0001
,
1000
0010
1000
0010
0000
0100
0000
0100
,
0001
0100
0001
0100
0000
0001
0000
0001
,
1000
1000
0001
0001
,
0100
0000
0100
0000
0010
0010
0010
0000
,
1000
0100
1000
0100
0000
0010
0000
0010
,
0001
1000
0001
1000
0000
0000
0010
0000
,
0100
0100
0001
0001
,
1000
0100
1000
0000
0001
0100
0001
0000
,
1000
0010
0100
0001
,
2000
0000
0000
0000
3000
0001
0010
0001
,
0020
0000
0130
0000
0000
0100
1000
0100
,
2000
0000
3001
0000
0000
0001
0100
0001
,
0200
0000
0310
0000
0000
0010
0100
0010
,
0200
0301
1000
0100
,
0010
0100
0020
0000
0030
0000
0100
0000
,
1000
1000
0001
0000
0100
0100
0010
0000
,
1000
0100
1000
0100
0000
0010
0000
0010
,
0001
0100
0001
0100
0000
0010
0000
1000
,
0001
0001
1000
1000
,
0100
0100
0100
0000
0010
0010
0010
0000
,
0001
0100
0001
0100
0000
0010
0000
0010
,
1000
0100
1000
0100
0000
0000
0010
0000
,
0001
0100
0010
1000
,
0001
0010
0001
0000
1000
0100
1000
0000
,
0010
1000
0100
1100
,
0010
0001
0100
0101
,
0001
1000
0100
1000
0010
0100
0001
0010
,
0100
0000
1000
0000
0010
0000
0100
0001
0000
0000
0000
0000
0000
0000
0000
0000
;

//---------------dance-single - ----------------
#NOTEDATA:;
#CHARTNAME:;
#STEPSTYPE:dance-single;
#DESCRIPTION:;
#CHARTSTYLE:;
#DIFFICULTY:Hard;
#METER:9;
#RADARVALUES:0.340989,0.331330,0.164995,0.153995,0.027499,217.000000,202.000000,15.000000,14.000000,0.000000,0.000000,0.000000,0.000000,0.000000,0.340989,0.331330,0.164995,0.153995,0.027499,217.000000,202.000000,15.000000,14.000000,0.000000,0.000000,0.000000,0.000000,0.000000;
#CREDIT:Venom;
#NOTES:
// measure 0
0000
0000
0000
0000
,  // measure 1
0000
0000
0000
0000
,  // measure 2
0000
0000
0000
0000
,  // measure 3
1000
0100
0000
0100
0000
0100
0000
0100
,  // measure 4
0010
0001
0000
0001
0000
0001
0000
0001
,  // measure 5
0100
0010
0000
0010
0000
0010
0000
0010
,  // measure 6
1000
0001
0000
0001
0000
0001
1000
0100
,  // measure 7
1000
0001
0000
0001
0100
0010
1000
0000
,  // measure 8
0002
0100
0010
1003
0000
1010
0000
0101
,  // measure 9
2000
0100
0010
3001
0000
0000
0110
0000
,  // measure 10
0002
0100
1000
0103
0000
0001
1000
0000
,  // measure 11
2000
0010
3001
1000
0002
0010
1003
0000
,  // measure 12
2000
0010
0100
3001
0000
0011
0000
1100
,  // measure 13
0002
0010
0100
1003
0000
0000
0110
0000
,  // measure 14
1000
0100
0001
0100
0001
0100
1000
0000
,  // measure 15
0001
1000
0001
0000
0110
0000
1001
0000
,  // measure 16
1000
0100
0001
1000
0100
0001
1000
0100
,  // measure 17
0010
0000
1001
0000
0001
0100
1000
0001
,  // measure 18
0100
1000
0010
0000
1000
0100
0001
1000
,  // measure 19
0100
0001
0010
0000
0001
0100
0010
0001
,  // measure 20
0100
0010
0001
0000
1000
0100
0010
1000
,  // measure 21
0100
0010
1000
0000
0001
0000
1000
0010
,  // measure 22
0001
0100
1000
0000
0001
0000
0100
0010
,  // measure 23
0100
0001
1000
0001
0100
0100
0010
0010
,  // measure 24
2000
0010
0001
3100
0000
1010
0000
0101
,  // measure 25
0002
0010
1000
0103
0000
0000
1001
0000
,  // measure 26
2000
0100
0001
3100
0000
1000
0001
0000
,  // measure 27
2000
0010
3001
1000
0002
0010
1003
0000
,  // measure 28
0002
0100
1000
0013
0000
0011
0000
1100
,  // measure 29
2000
0010
0001
3100
0000
0000
1001
0000
,  // measure 30
0001
0100
0010
0000
0010
0100
0001
0000
,  // measure 31
1000
0100
0010
0000
0010
0001
0100
0010
,  // measure 32
1000
0000
0100
0000
0001
0000
0000
0100
0000
0100
0000
0000
1000
0000
0000
0000
,  // measure 33
0001
0000
0100
0000
1000
0000
0000
0100
0000
0100
0000
0000
0001
0000
0000
0000
,  // measure 34
1000
0010
0001
1000
0100
0001
0010
0100
,  // measure 35
1000
0000
0100
0000
0010
0000
0001
1000
0000
0000
0000
0000
0000
0000
0000
0000
;
