#VERSION:0.83;
#TITLE:YELLOW;
#SUBTITLE:;
#ARTIST:YOH KAMIYAMA;
#TITLETRANSLIT:;
#SUBTITLETRANSLIT:;
#ARTISTTRANSLIT:;
#GENRE:;
#CREDIT:Evergreen;
#MUSIC:YELLOW-Edit.ogg;
#BANNER:yellow-bn.png;
#BACKGROUND:yellow-bg.png;
#CDTITLE:;
#SAMPLESTART:0.000;
#SAMPLELENGTH:0.000;
#SELECTABLE:YES;
#OFFSET:-0.024;
#BPMS:0.000=118.000
,172.000=472.000
,179.000=118.000
;
#STOPS:;
#SPEEDS:0.000=1.000=0.000=0;
#SCROLLS:0.000=1.000,
172.000=0.250,
179.000=1.000
;
#DISPLAYBPM:118.000;
#BGCHANGES:0.000=yellow.avi=1.000=0=0=1=====;
#FGCHANGES:;

//--------------- dance-single - ever(yellow) ----------------
#NOTEDATA:;
#STEPSTYPE:dance-single;
#DESCRIPTION:ever(yellow);
#DIFFICULTY:Hard;
#METER:12;
#RADARVALUES:0,0,0,0,0;
#NOTES:
0000
0000
0000
0000
,
1000
0010
1000
0000
0001
0010
0001
0000
,
1000
0100
0010
0000
0001
0100
0010
0000
,
1000
0010
0100
0000
0001
0010
0100
0000
,
1000
0001
0100
0000
0001
1000
0100
0000
,
1000
0010
0100
0001
0010
0100
1000
0000
,
0001
0010
0100
1000
0010
0100
0001
0000
,
1000
0100
1000
0000
0001
0100
0001
0000
,
1000
0010
0100
0001
1001
0000
0000
1000
,
0100
0010
0100
0001
0100
1000
0001
0100
,
0010
0100
1000
0100
0010
0100
0001
1000
,
0001
0020
0030
0001
1000
0020
0030
1000
,
0002
0000
0203
0000
0310
1000
0001
1000
,
0100
0010
0100
0001
0100
1000
0010
0100
,
0001
0100
1000
0100
0001
0000
1000
0100
,
0010
0001
0000
1000
0010
0100
0001
0020
,
0030
0100
1000
0010
0100
0001
1000
0001
,
0010
0100
1000
0001
,
0100
0000
0001
0000
1000
0001
1000
0000
,
1001
0000
0101
0000
0100
0010
1000
0100
,
1100
0000
1001
0000
0001
0010
0100
1000
,
0001
0100
0010
1000
0100
0010
0001
1000
,
0010
0000
0100
0000
0001
0100
0001
0000
,
1001
0000
1100
0000
1000
0010
0100
0000
,
0101
0000
0011
0000
0010
0100
1000
0001
,
1000
0010
0100
0010
1000
0100
0010
0002
,
0003
1000
0010
0100
0001
1000
0010
0000
,
1010
1000
0000
1100
1000
0000
1001
0000
,
0011
0001
0000
0101
0001
0010
0100
1000
,
1010
0010
0000
0101
0100
0000
1001
0000
,
0011
0010
0110
0100
1100
0000
1001
0000
,
0101
0100
0010
1000
0001
0000
1001
0000
,
1100
1000
0100
0010
0001
1000
1001
0000
,
0011
0010
0001
1000
0010
0100
0001
1000
,
1010
0010
0100
0001
1000
0100
1000
0100
,
0010
0001
0100
0001
0010
0100
1000
0002
,
0003
1000
0010
0100
0001
0010
0001
1000
,
0000
0010
0100
0001
1000
0100
0010
0001
,
1000
0010
0100
0001
0010
0001
0000
0010
,
0100
1000
0010
1000
0100
0010
0001
2000
,
3000
0001
0100
0010
1000
0100
1000
0001
,
1000
0001
0100
0010
,
1000
0100
0010
0001
0100
0010
1000
0001
,
0200
0000
0000
0000
,
0000
0000
0000
0000
0000
0300
0000
0000
,
0000
0000
0000
0000
0000
1001
0000
0000
0000
1010
0000
0000
0000
0010
0000
0100
,
0000
0001
0000
0010
0000
0011
0000
0000
0000
1001
0000
0000
0000
1000
0000
0100
,
0000
0010
0000
0001
0000
1000
0000
0010
0000
0100
0000
0001
0000
0010
0000
0100
,
0000
1000
0000
0001
0000
0100
0000
0000
0000
0010
0000
0000
0000
1000
0000
0010
,
0000
1000
0000
0000
0000
1001
0000
0000
0000
0011
0000
0000
0000
0001
0000
0100
,
0000
0010
0000
0000
0000
1010
0000
0000
0000
1100
0000
0000
0000
0100
0000
0010
,
0000
0001
0000
1000
0000
0001
0000
0100
0000
0010
0000
0100
0000
0001
0000
0010
,
0000
0100
0000
1000
0000
0010
0000
0100
0000
0001
0000
1000
0000
0100
0000
0010
,
0000
0100
0000
1000
0000
0001
0000
0010
0000
0001
0000
0010
0000
0100
0000
1000
,
0000
0100
0000
1000
0000
0010
0000
1000
0000
0010
0000
1000
0000
0001
0000
0100
,
0000
0001
0000
0000
0000
1000
0000
0100
0000
0001
0000
0100
0000
1000
0000
0001
,
0000
1000
0000
0000
0000
0001
0000
0100
0000
1000
0000
0100
0000
0001
0000
1000
,
0000
0001
0000
0000
0000
1000
0000
0010
0000
0001
0000
0010
0000
1000
0000
0001
,
0000
1000
0000
0000
0000
0001
0000
0010
0000
1000
0000
0010
0000
0001
0000
1000
,
0000
0001
0000
0000
0000
1000
0000
0010
0000
1000
0000
0010
0000
0100
0000
0001
,
0000
0100
0000
0001
0000
0010
0000
0001
0000
0010
0000
0001
0000
0010
0000
0100
,
0000
1000
0000
0001
0000
0000
0000
0000
0000
0000
0000
0000
0000
0000
0000
0000
;

//--------------- dance-single - ever(yellow) ----------------
#NOTEDATA:;
#STEPSTYPE:dance-single;
#DESCRIPTION:ever(yellow);
#DIFFICULTY:Challenge;
#METER:14;
#RADARVALUES:0,0,0,0,0;
#NOTES:
0000
0000
0000
0000
,
1000
0000
0010
0100
0000
0001
0010
0100
1000
0001
1000
0100
0000
0010
0000
0001
,
0010
0001
0010
0001
1000
0010
1000
0010
0100
0001
0000
1000
0000
0100
0000
0010
,
0001
0100
0001
0100
0010
1000
0010
1000
0100
0000
0010
0001
0000
1000
0000
0001
,
0000
1000
0100
1000
0001
0010
0001
0010
0001
0000
1000
0001
0000
0100
0000
0001
,
1000
0000
0200
0000
0310
0000
0001
0100
0001
0000
1000
0100
0000
0010
0000
0001
,
1000
0010
1000
0010
0100
0001
0100
0001
1000
0000
0100
0010
0000
0001
0000
0100
,
0010
0000
1000
0001
0000
1000
0000
0010
0100
0000
0001
1000
0000
0001
1000
0000
,
0100
0000
0010
0001
1000
0100
1000
0000
1100
0000
0000
0000
0000
0000
0100
0000
,
0010
0000
0001
1000
0000
0001
0100
0000
0001
1000
0000
0001
0010
0000
0100
0010
,
0001
0000
1000
0001
0000
1000
0100
0000
1000
0001
0000
1000
0010
0000
0100
0001
,
1000
0000
0020
0000
0030
0000
0100
0001
1000
0000
0200
0000
0300
0000
0010
0000
,
0001
0000
0100
0000
1000
0000
0100
0000
0001
0000
1000
0000
0100
0000
0010
0001
,
1000
0000
0010
0100
0000
0010
1000
0000
0100
0010
0000
0100
1000
0000
0001
0100
,
0010
0000
0100
0001
0000
0010
0100
0000
0010
0001
0000
0100
0001
0000
1000
0100
,
0010
0002
0003
0100
0010
2000
3001
0020
,
0000
0130
1000
0001
0100
1000
0100
0001
,
1000
0000
0000
0100
0000
0000
0010
0000
0000
0001
0000
0000
1000
0000
0001
0000
,
1000
0000
0000
0010
0000
0000
0100
0000
0001
1000
0001
1000
0001
0000
0000
0000
,
1010
0000
0100
0000
0001
0000
0010
0100
1000
0000
0001
0000
0100
0000
0001
0000
,
0011
0000
0100
0000
1000
0000
0100
0000
0010
0000
0100
0000
1000
0010
0100
0000
,
0001
0000
0010
0000
0001
0000
1000
0000
0010
0000
0100
0000
0001
0000
0010
0200
,
0000
0000
1300
0000
0001
0000
0100
0000
0001
0000
1000
0000
0100
0010
0001
0000
,
0011
0000
0100
0000
1000
0000
0010
0100
0001
0000
1000
0000
0001
0000
0100
0000
,
1010
0000
0001
0000
0101
0000
0000
0000
0010
0000
0100
0000
1000
0001
1000
0000
,
0010
0100
0001
0010
0100
1000
0001
2000
,
3000
0000
0001
0000
0010
0000
0100
0000
1000
0010
0100
0000
0001
0010
0100
0000
,
1001
0001
0000
1001
1000
0000
1010
0000
,
0110
0100
0000
0110
0010
1000
0100
1000
,
1001
0001
0000
1001
1000
0000
1100
0000
,
0110
0000
0010
0000
0100
0000
0010
0000
0100
0000
1000
0000
0001
1000
0001
0000
,
0101
0000
0100
0000
0010
0000
0100
0000
1000
0000
0100
0000
0010
0000
0100
0001
,
1000
0100
0010
0100
0001
0100
1000
0010
,
1010
1000
0010
0100
0010
0001
0010
1000
,
0001
0001
1000
1000
0001
0010
0100
1000
,
0001
0000
0100
0000
0001
1000
0000
0000
0001
0000
0010
0000
0001
1000
0000
0001
,
1000
0000
0100
0000
1000
0001
0000
0000
1000
0000
0010
0000
1000
0001
0000
0010
,
0100
0000
1000
0000
0100
0000
0010
0000
0100
0000
1000
0000
0010
0000
0100
0002
,
0000
0003
1000
0000
0100
0000
1000
0000
0001
0000
0100
0000
0010
1000
0000
0001
,
1000
0000
0100
0000
0010
0100
0000
1000
0001
0000
0100
0000
0010
0100
0000
0001
,
1000
0000
0010
0000
0100
0010
0000
1000
0001
0000
0010
0000
0100
0010
0000
0001
,
1000
0000
0001
0010
0100
0000
1000
0010
,
0100
0001
0010
0001
2000
0000
3010
0000
,
0220
0000
0000
0000
,
0000
0000
0000
0000
,
0330
0000
0000
0000
0000
0101
0000
0010
0000
1000
0000
0100
0010
0001
0000
1000
,
0000
0010
0000
1000
0000
1100
0000
0010
0000
0001
0000
0010
0000
0100
0000
0010
,
0000
0001
0100
0010
0000
1000
0000
0100
0000
1000
0000
0001
0000
0100
0000
0010
,
0000
1000
0000
0100
0020
0000
0000
0031
0000
1000
0000
0010
0000
1000
0000
0001
,
0000
0010
0100
1000
0000
1010
0000
0010
0000
0100
0000
0001
0010
0100
0000
1000
,
0000
0001
0000
0100
0000
1010
0000
0001
0000
0101
0000
0000
0000
0100
0000
0010
,
0000
1000
0001
1000
0000
0100
0000
0010
0000
0001
0000
0100
0000
0010
0000
1000
,
0000
0001
0000
2000
0000
3000
0000
0001
0000
0100
0000
0010
0000
1000
0000
0100
,
0000
1000
0000
0001
0000
0100
0010
0100
0010
1000
0010
1000
0010
1000
0001
1000
,
0001
0010
0001
0010
0001
0010
0100
0010
0100
1000
0100
1000
0100
1000
0001
1000
,
0001
1000
0001
0100
0001
0100
0000
0010
0000
1000
0100
0010
0001
1000
0000
0001
,
0000
1000
0010
0100
0001
1000
0000
0001
0000
0010
0100
1000
0001
1000
0000
0001
,
0000
0100
0010
1000
0010
0100
0000
0001
0000
0010
0100
1000
0100
0010
0000
0001
,
0000
0100
0010
1000
0001
1000
0000
0100
0000
0010
0001
1000
0010
0100
0000
0001
,
0000
1000
0100
0010
0001
0010
0100
0010
0100
1000
0100
1000
0100
1000
0010
1000
,
0010
0100
0001
0100
0001
1000
0000
0010
0000
0100
0001
1000
0100
0010
0000
0001
,
0000
1000
0001
1000
0001
0000
0000
0000
0000
0000
0000
0000
0000
0000
0000
0000
;
