#VERSION:0.83;
#TITLE:XIII;
#SUBTITLE:;
#ARTIST:Jane Doe;
#TITLETRANSLIT:;
#SUBTITLETRANSLIT:;
#ARTISTTRANSLIT:;
#GENRE:;
#CREDIT:D0omsday;
#MUSIC:XIII.ogg;
#BANNER:;
#BACKGROUND:;
#JACKET:;
#DISCIMAGE:;
#CDIMAGE:;
#SELECTABLE:YES;
#LYRICSPATH:;
#CDTITLE:;
#SAMPLESTART:57.626;
#SAMPLELENGTH:17.561;
#OFFSET:-0.552;
#BPMS:0.000000=164.000000;
#STOPS:;
#WARPS:;
#DELAYS:;
#SPEEDS:0.000000=1.000000=0.000000=0,
0.020833=0.000000=0.000000=0,
0.041667=1.000000=4.000000=0
;
#SCROLLS:0.000000=1.000000;
#TICKCOUNTS:;
#TIMESIGNATURES:;
#LABELS:;
#COMBOS:;
#FAKES:;
#BGCHANGES:;
#FGCHANGES:;
#ATTACKS:;

//---------------dance-single - ---------------
#NOTEDATA:;
#CHARTNAME:;
#CHARTSTYLE:;
#CREDIT:;
#STEPSTYPE:dance-single;
#DESCRIPTION:;
#DIFFICULTY:Easy;
#METER:7;
#METERF:7;
#RADARVALUES:0,0,0,0,0;
#NOTES:
// measure 0
0000
0000
0000
0000
,  // measure 1
1000
0010
1000
0001
,  // measure 2
1000
0000
0000
0100
0000
0000
1000
0000
0000
0001
0000
1000
,  // measure 3
0001
0010
0001
1000
,  // measure 4
0001
0000
0000
0100
0000
0000
0001
0000
0000
1000
0000
0001
,  // measure 5
1000
0100
1000
0001
,  // measure 6
1000
0000
0000
0010
0000
0000
1000
0000
0000
0001
0000
1000
,  // measure 7
0001
0100
0001
1000
,  // measure 8
0001
0000
0000
0010
0000
0000
0001
0000
0000
1000
0000
0001
,  // measure 9
1000
0000
0100
0000
,  // measure 10
0020
0000
0032
0000
,  // measure 11
0103
0010
1000
0000
,  // measure 12
0200
0000
0310
0110
,  // measure 13
1001
1000
0010
0100
,  // measure 14
0001
1000
0100
0010
,  // measure 15
0002
1000
0000
1003
,  // measure 16
0001
0000
0000
0100
0000
0000
0010
0000
0100
0010
0000
0000
,  // measure 17
1000
0001
0010
0100
,  // measure 18
1000
0001
0100
0010
,  // measure 19
2000
3002
0000
1003
,  // measure 20
0001
0000
0000
0010
0000
0000
0100
0000
0000
1000
0000
0100
,  // measure 21
1000
0010
1000
0001
,  // measure 22
1000
0100
1000
1001
,  // measure 23
0001
0010
0001
1000
,  // measure 24
0001
0100
0001
1001
,  // measure 25
1000
0100
1000
0001
,  // measure 26
1000
0010
1000
1001
,  // measure 27
0001
0100
0001
1000
,  // measure 28
0001
0010
0100
1000
,  // measure 29
2001
0000
3020
0000
,  // measure 30
0230
0000
0302
0000
,  // measure 31
0023
0000
0000
0000
0000
0000
0032
0000
0000
0000
1003
0000
,  // measure 32
0020
0000
0230
0000
,  // measure 33
0302
0000
0000
0000
0000
0000
1003
0000
0001
0000
1000
0000
,  // measure 34
0002
0000
0023
0000
,  // measure 35
0130
0000
1000
0000
0001
0000
0100
0000
0001
0000
1000
0000
,  // measure 36
0100
0000
0000
0000
0010
0000
0001
0000
0000
0000
1000
0000
,  // measure 37
0020
0000
0000
0000
,  // measure 38
0230
0000
0000
0000
,  // measure 39
0301
0000
0000
1000
0000
0000
0100
0000
0000
0010
0000
0001
,  // measure 40
0010
0001
0100
0010
,  // measure 41
1000
0000
0000
0001
0000
1000
0100
0000
0000
0010
0000
0000
,  // measure 42
0002
0000
0203
0320
,  // measure 43
1030
0000
0000
0100
0000
0010
0001
0000
0000
1000
0000
0000
,  // measure 44
0010
1000
0001
0010
,  // measure 45
0001
0100
0010
1000
,  // measure 46
0001
0000
1000
0001
0000
1000
0001
0000
1000
0001
0000
0000
,  // measure 47
0010
0000
0000
0100
0000
0000
1000
0000
0000
0010
0000
0010
,  // measure 48
0000
0100
0001
1000
,  // measure 49
0100
0000
0000
0010
0000
0010
0000
0000
0000
0001
0000
0001
,  // measure 50
0000
1000
0010
0100
,  // measure 51
0001
0000
0000
1000
0000
1000
0000
0000
0000
0100
0000
0100
,  // measure 52
0000
0010
0100
1000
,  // measure 53
0002
0000
0203
0320
,  // measure 54
2030
3200
0320
0032
,  // measure 55
2003
0000
0000
0000
,  // measure 56
0000
0000
0000
0000
,  // measure 57
3000
0000
0000
0000
,  // measure 58
2002
0000
0000
3003
,  // measure 59
0001
0000
0011
0000
,  // measure 60
0001
0000
1000
0000
,  // measure 61
1010
0000
1000
0000
,  // measure 62
0001
0000
0101
0000
,  // measure 63
1001
0000
0000
0000
1000
0000
0000
0100
0000
0000
0010
0000
,  // measure 64
0001
0000
0000
0000
1000
0000
0000
0010
0000
0000
0100
0000
,  // measure 65
0001
0000
0000
0000
1000
0000
0000
0100
0000
0000
0010
0000
,  // measure 66
0001
0000
0000
0000
1000
0000
0000
0010
0000
0000
0100
0001
;

//---------------dance-single - ---------------
#NOTEDATA:;
#CHARTNAME:;
#CHARTSTYLE:;
#CREDIT:;
#STEPSTYPE:dance-single;
#DESCRIPTION:;
#DIFFICULTY:Medium;
#METER:10;
#METERF:10;
#RADARVALUES:0,0,0,0,0;
#NOTES:
// measure 0
0000
0000
0000
0000
,  // measure 1
1000
0000
0000
0010
0000
0010
0000
0000
0000
0100
0000
0100
,  // measure 2
0000
0000
0000
0001
0000
0001
0000
0000
0010
0100
0000
0010
,  // measure 3
0100
0000
0000
1000
0000
1000
0000
0000
0000
0001
0000
0001
,  // measure 4
0000
0000
0000
0010
0000
0010
0000
0000
0001
1000
0000
0001
,  // measure 5
1000
0000
0000
0010
0000
0010
0000
0000
0000
1000
0000
1000
,  // measure 6
0000
0000
0000
0100
0000
0100
0000
0000
0010
0001
0000
0010
,  // measure 7
0001
0000
0000
0100
0000
0100
0000
0000
0000
0010
0000
0010
,  // measure 8
0000
0000
0000
1000
0000
1000
0000
0000
0100
0010
0000
0100
,  // measure 9
0010
0100
0010
0000
0000
0000
0001
0000
1000
0000
0001
0000
,  // measure 10
1000
0001
1000
0000
0000
0000
0010
0000
1000
0000
0010
0000
,  // measure 11
1000
0010
1000
0000
0000
0000
0010
0000
0100
0000
0010
0000
,  // measure 12
0100
0001
0010
0110
,  // measure 13
1001
1000
0010
0100
,  // measure 14
0001
0010
0001
1000
,  // measure 15
0200
0010
0010
0010
,  // measure 16
0310
0000
0000
0001
0000
0000
1000
0000
0000
0001
1000
0001
,  // measure 17
1000
0010
1000
0100
,  // measure 18
0010
0001
0100
0010
,  // measure 19
2000
3200
0010
0010
,  // measure 20
0310
0000
0000
0001
0000
0000
1000
0000
0010
0100
0010
0000
,  // measure 21
1000
0000
0000
0001
0000
0010
0000
0000
0000
0001
0000
0100
,  // measure 22
0000
0000
0000
0001
0000
1000
0001
0000
0000
0010
0000
0000
,  // measure 23
0100
0000
0000
1000
0000
0010
0000
0000
0000
1000
0000
0100
,  // measure 24
0000
0000
0000
1000
0000
0001
1000
0000
0000
0010
0000
0000
,  // measure 25
0100
0000
0000
0001
0000
0010
0000
0000
0000
0001
0000
0100
,  // measure 26
0000
0000
0000
0001
0000
1000
0001
0000
0000
0010
0000
0000
,  // measure 27
0100
0000
0000
1000
0000
0010
0000
0000
0000
1000
0000
0100
,  // measure 28
1000
0010
0100
0001
,  // measure 29
2001
0000
0000
0000
0100
0000
3100
0000
0000
0000
0010
0000
,  // measure 30
0010
0000
0000
0000
0001
0000
0001
1000
0000
0001
0000
1000
,  // measure 31
0001
0000
0000
0000
0100
0000
0010
0000
1000
0000
0001
0000
,  // measure 32
0010
0000
0000
0000
0001
0000
1000
0001
1000
0000
0001
0000
,  // measure 33
0100
0000
0010
0000
1000
0000
0100
0000
0100
0000
0100
0000
,  // measure 34
0010
0000
0001
0000
1000
0000
0010
0000
0100
0000
0001
0000
,  // measure 35
0010
0000
0001
0000
1000
0000
0010
0000
0100
0000
0010
0000
,  // measure 36
2000
0000
0000
0000
3001
0000
0010
0000
0100
0000
0010
0000
,  // measure 37
0001
0000
0001
0000
0001
0000
1000
0000
1000
0000
1000
0000
,  // measure 38
0010
0000
0100
0010
0100
0000
0001
0000
0010
0000
0100
0000
,  // measure 39
2000
0000
0000
0000
0000
0000
0000
0000
0000
3010
1000
0010
,  // measure 40
2000
3200
0320
0230
,  // measure 41
2300
0000
0000
0000
0000
3001
0200
0000
0000
0000
0000
0000
,  // measure 42
0320
0000
2030
3002
,  // measure 43
0023
0000
0000
0000
0000
0100
0230
0000
0000
0000
0000
0000
,  // measure 44
0000
0300
2000
3002
,  // measure 45
2003
3020
0230
0302
,  // measure 46
0023
2030
3200
0302
,  // measure 47
2003
0000
0000
0000
0000
0000
0000
0000
0000
0100
0000
0100
,  // measure 48
0000
3020
2030
3002
,  // measure 49
0023
0000
0000
0100
0000
0100
0000
0000
0000
0001
0000
0001
,  // measure 50
0000
0032
0203
0320
,  // measure 51
2030
0000
0000
0001
0000
0001
0000
0000
0000
0010
0000
0010
,  // measure 52
0000
3020
0230
0302
,  // measure 53
2003
0000
3200
0320
,  // measure 54
0032
0203
0320
2030
,  // measure 55
3002
0000
0000
0000
,  // measure 56
0000
0000
0000
0000
,  // measure 57
0003
0000
0000
0000
,  // measure 58
0220
0000
0000
0330
,  // measure 59
0001
0000
0100
0000
0010
0000
2000
0000
0000
0000
0000
0000
,  // measure 60
3002
0000
0000
0000
0000
0000
1003
0000
0100
0000
0010
0000
,  // measure 61
0002
0000
2003
0000
,  // measure 62
3001
0000
0100
0000
0010
0000
1000
0001
1000
0000
0000
0000
,  // measure 63
0100
0000
0000
0000
0010
0000
0000
0001
0000
0000
1000
0000
,  // measure 64
0010
0000
0010
0000
0100
0000
0000
0001
0000
0000
1000
0000
,  // measure 65
0100
0000
0100
0000
0010
0000
0000
0001
0000
0000
1000
0000
,  // measure 66
0010
0000
1000
0000
0001
0000
0000
0010
0000
0000
0100
0010
;

//---------------dance-single - ---------------
#NOTEDATA:;
#CHARTNAME:;
#CHARTSTYLE:;
#CREDIT:;
#STEPSTYPE:dance-single;
#DESCRIPTION:;
#DIFFICULTY:Hard;
#METER:14;
#METERF:14;
#RADARVALUES:0,0,0,0,0;
#NOTES:
// measure 0
0000
0000
0000
0000
,  // measure 1
1000
0000
0001
0010
0000
0010
0100
0000
1000
0010
0000
0010
,  // measure 2
0100
0000
0001
1000
0000
1000
0100
0000
0000
0010
0001
0100
,  // measure 3
0001
0000
1000
0010
0000
0010
0100
0000
0001
1000
0000
1000
,  // measure 4
0100
0000
0010
0001
0000
0001
1000
0000
0000
0010
1000
0100
,  // measure 5
0010
0000
0001
0010
0000
0010
0001
0000
1000
0100
0000
0100
,  // measure 6
1000
0000
0010
0100
0000
0100
0001
0000
0000
1000
0100
0010
,  // measure 7
0100
0000
0010
0001
0000
0001
1000
0000
0010
0100
0000
0100
,  // measure 8
0001
0000
1000
0100
0000
0100
0010
0000
0000
0001
0010
0001
,  // measure 9
1000
0010
1000
0000
0000
0000
0001
1000
0001
1000
0001
1000
,  // measure 10
0010
0100
0010
0000
0000
0000
1000
0010
1000
0010
1000
0010
,  // measure 11
0100
0001
0100
0000
0000
0000
0001
0000
0000
0010
0000
0000
,  // measure 12
0100
0000
0100
1000
0000
1000
0010
0000
0010
0100
0000
0000
,  // measure 13
0001
0000
0000
0010
0000
0010
0001
0000
0000
0100
0000
0100
,  // measure 14
0010
0000
0000
1000
0000
1000
0100
0000
0000
0010
0000
0000
,  // measure 15
0002
0100
0010
1000
,  // measure 16
0103
0000
0000
0010
0000
0000
1000
0001
0010
0100
0010
0001
,  // measure 17
0100
0000
0000
0001
0000
0001
0100
0000
0000
0010
0000
0010
,  // measure 18
1000
0000
0000
0100
0000
0100
0010
0000
0000
0001
0000
0001
,  // measure 19
2000
3020
0100
0001
,  // measure 20
0130
0000
0000
0001
0000
0000
1000
0000
0100
0010
0100
0010
,  // measure 21
0100
0000
1000
0001
0000
0001
0100
0000
0010
1000
0000
1000
,  // measure 22
0001
0000
0010
0100
0000
0100
1000
0000
0000
1010
0000
0000
,  // measure 23
1000
0000
0001
0010
0000
0010
0001
0000
1000
0010
0000
0010
,  // measure 24
1000
0000
0100
0010
0000
0010
0001
0000
0000
0101
0000
0000
,  // measure 25
0001
0000
1000
0100
0000
0100
0010
0000
0001
1000
0000
1000
,  // measure 26
0001
0000
0100
0010
0000
0010
1000
0000
0000
1100
0000
0000
,  // measure 27
1000
0000
0100
0010
0000
0010
0001
0000
1000
0100
0000
0100
,  // measure 28
1000
0000
0010
0100
0000
0100
0001
0010
0100
1000
0010
0100
,  // measure 29
0002
0000
0000
0000
0010
0000
0023
0000
0000
0000
0100
0000
,  // measure 30
0230
0000
0000
0000
1000
0000
1300
0001
0000
0100
0000
0001
,  // measure 31
0020
0000
0000
0000
0130
0010
0100
0000
1000
0000
0010
0100
,  // measure 32
0001
0000
0010
0000
0100
0000
1000
0001
1000
0000
0100
0000
,  // measure 33
0110
0000
0010
0000
0001
0000
1001
0000
0110
0000
1001
0000
,  // measure 34
1000
0000
0010
0000
1000
0000
0100
0000
0010
0001
0010
0001
,  // measure 35
1000
0000
0010
0000
1000
0000
1100
0000
0100
0000
0010
0000
,  // measure 36
0002
0000
0003
0000
1001
0000
1000
0010
1000
0010
1000
0000
,  // measure 37
1010
0000
1010
0000
1010
0000
0011
0000
0011
0000
0011
0000
,  // measure 38
1001
0000
0001
1000
0100
1000
0001
0100
0001
1000
0010
1000
,  // measure 39
0002
0000
0000
0023
0000
0000
0230
0000
0000
1300
0010
1000
,  // measure 40
0001
0000
0001
0200
0000
0000
0310
0000
0010
2000
0000
0000
,  // measure 41
3200
0000
0000
0310
0000
0001
2000
0000
0000
3020
0000
0000
,  // measure 42
0130
0000
0001
0020
0000
0000
0130
0000
1000
0020
0000
0000
,  // measure 43
0230
0000
0000
0000
0000
0010
0320
0000
0000
1030
0000
0001
,  // measure 44
0020
0000
0000
0130
0000
1000
0002
0000
0000
0203
0000
0000
,  // measure 45
0310
0000
1000
0001
0000
0001
0010
0000
0001
1000
0000
1000
,  // measure 46
0001
0100
0001
1000
0010
1000
0001
0010
0001
1000
0100
1000
,  // measure 47
0020
0000
0000
2030
0000
0000
3100
0000
0010
0022
0033
0202
,  // measure 48
0303
0000
0100
0001
0000
1000
0010
0000
1000
0001
0000
0000
,  // measure 49
0010
0000
0100
2200
3300
2002
3003
0000
1000
2020
3030
0220
,  // measure 50
0330
0000
0100
0001
0000
0010
0100
0000
0010
0001
0000
0000
,  // measure 51
0100
0000
0010
2020
3030
2200
3300
0000
1000
2200
3300
0220
,  // measure 52
0330
0000
0010
0100
0000
0010
0001
0000
1000
0010
0000
0000
,  // measure 53
0200
0302
0023
0230
,  // measure 54
1300
0010
1000
0100
0010
0001
0100
0001
0100
0001
0010
0100
,  // measure 55
2000
0000
0000
0000
,  // measure 56
0000
0000
0000
0000
,  // measure 57
3000
0000
0000
0000
,  // measure 58
2002
0000
0000
3003
,  // measure 59
0001
0010
0100
0010
0100
0010
0002
0000
0000
0000
0000
0000
,  // measure 60
0100
0000
0000
0000
0000
0000
1003
0010
0100
0010
0100
0010
,  // measure 61
2000
0000
0100
0000
,  // measure 62
3001
0010
0100
0010
0100
0010
0001
0000
1000
0000
0010
0000
,  // measure 63
0110
0000
0101
0000
1001
0000
1000
0100
0010
0000
0110
0000
,  // measure 64
0011
0000
1001
0000
0101
0000
0100
0010
1000
0000
1001
0000
,  // measure 65
1100
0000
0110
0000
0011
0000
0000
1001
0000
0000
1010
0000
,  // measure 66
1000
0010
0100
0001
0010
0001
0100
0010
1000
0100
0010
0010
;

//---------------dance-single - D0omsday---------------
#NOTEDATA:;
#CHARTNAME:;
#CHARTSTYLE:;
#CREDIT:;
#STEPSTYPE:dance-single;
#DESCRIPTION:D0omsday;
#DIFFICULTY:Challenge;
#METER:17;
#METERF:17;
#RADARVALUES:0,0,0,0,0;
#NOTES:
// measure 0
0000
0000
0000
0000
,  // measure 1
0001
0000
0100
0110
0000
1010
0000
0000
0001
0011
0000
0110
,  // measure 2
0000
0000
1000
1010
0000
0101
0000
0000
0001
0010
0100
1000
,  // measure 3
0010
0000
0100
0101
0000
1001
0000
0000
1000
1100
0000
0110
,  // measure 4
0000
0000
0001
1001
0000
1010
0000
0000
1000
0001
0100
0010
,  // measure 5
1010
0000
0000
0101
0000
1001
0000
0000
1000
1100
0000
0110
,  // measure 6
0000
0000
0001
0101
0000
1010
0000
0000
1000
0100
0010
0001
,  // measure 7
0100
0000
0001
0011
0000
0110
0000
0000
1000
1001
0000
1010
,  // measure 8
0000
0000
0010
0110
0000
0101
0000
0000
0001
0010
0100
1000
,  // measure 9
0010
0100
0010
0000
0000
0000
1000
0100
0010
0001
1000
0010
,  // measure 10
0100
0010
0100
0000
0000
0000
0001
0100
0010
1000
0001
0010
,  // measure 11
0100
0010
0100
0000
0000
0000
1000
0100
1000
0001
0100
0001
,  // measure 12
0010
0000
0000
0000
0001
0100
0010
0000
0000
0000
1000
0100
0010
0000
0001
0000
1000
0000
0010
0000
0000
0000
0000
0000
,  // measure 13
1001
0000
0000
1000
0010
0100
0010
0000
0000
1000
0001
0010
,  // measure 14
0100
0000
0000
0010
0001
1000
0001
0000
0000
0100
0000
0000
,  // measure 15
0020
0000
0000
0001
0000
0000
0100
0000
0000
1030
0001
1000
,  // measure 16
0100
0000
0000
0010
0001
1000
0010
1000
0100
0010
0100
1000
,  // measure 17
0001
0000
0000
0100
0010
1000
0010
0000
0000
0100
0001
1000
,  // measure 18
0100
0000
0000
0010
0001
0010
0100
0000
0000
1000
0000
0000
,  // measure 19
0020
0032
0010
1000
,  // measure 20
0013
0000
0000
0010
0100
0001
1000
0100
0010
0001
1000
0010
,  // measure 21
0100
0001
1000
1100
0000
1000
0001
0010
0100
0110
0000
0100
,  // measure 22
1000
0001
0100
0110
0000
0100
0001
1000
0100
0010
0100
1000
,  // measure 23
0001
0010
0001
0101
0000
0100
0010
1000
0001
0011
0000
0001
,  // measure 24
1000
0100
0010
0011
0000
0010
0100
1000
0010
0100
0010
1000
,  // measure 25
0001
0100
0010
1010
0000
0010
1000
0001
0010
0110
0000
0010
,  // measure 26
0001
0100
0010
1010
0000
1000
0001
0010
0001
1000
0010
0100
,  // measure 27
0001
0010
0001
1001
0000
0001
1000
0010
1000
1100
0000
1000
,  // measure 28
0100
0010
0001
0000
0100
0000
0001
1000
0100
0000
0010
0000
0001
1000
0010
0000
0100
0000
0001
1000
0001
0000
1000
0000
,  // measure 29
2001
0000
0001
0000
0100
0000
3002
0000
1000
0000
0010
0000
,  // measure 30
0103
0000
0010
0000
1000
0000
0001
1000
0100
0010
0001
0010
,  // measure 31
0110
0000
0100
0000
1000
0010
1010
0000
0010
0000
0100
0001
,  // measure 32
1000
0100
0010
0000
0001
0000
1000
0000
0010
0100
0010
0000
1000
0000
1000
0000
0001
0000
0010
0000
0100
0000
1000
0000
,  // measure 33
1010
0010
0100
0001
0010
0100
1100
0000
1001
0000
0101
0000
,  // measure 34
0001
0000
1000
0000
0100
0000
1000
0000
0001
0000
0010
0000
0100
0010
0001
0000
1000
0000
0010
0000
0100
0000
0001
0000
,  // measure 35
1000
0000
0100
0000
1000
0001
0101
0100
0010
1000
0001
0000
,  // measure 36
0010
0000
0100
0010
0011
0000
0001
1000
0010
0100
0001
0010
,  // measure 37
0100
0000
0110
0000
0011
0000
1001
0000
1010
0000
0110
0000
,  // measure 38
0101
0000
0000
0001
0100
0000
0001
1000
0100
0000
0010
0000
0001
0000
1000
0000
0010
0000
0100
0000
0010
0000
1000
0000
,  // measure 39
1001
0001
0010
0001
0100
0010
1000
0001
0010
0100
1000
1000
,  // measure 40
0001
0100
0010
0100
0001
0010
0100
1000
0001
0100
0001
1000
,  // measure 41
0100
0010
0001
1000
0010
1000
0001
0010
0100
0010
0001
0100
,  // measure 42
0010
1000
0100
1000
0001
0100
0010
1000
0001
0010
0001
1000
,  // measure 43
1010
0010
0100
0001
0010
0001
0001
1000
0010
0100
0001
1000
,  // measure 44
0100
1000
0001
0010
0100
1000
0010
0100
0001
0100
0010
1000
,  // measure 45
1001
0001
0010
0001
0100
0010
1000
0001
1000
0100
0010
0100
,  // measure 46
1100
1000
0001
1001
1000
0010
0110
0100
0001
1001
1000
0100
,  // measure 47
0110
0010
0100
1000
0001
0100
0010
1000
0001
0011
0000
0011
,  // measure 48
0010
0100
0010
0001
0100
0010
1000
0001
1000
0100
0010
0001
,  // measure 49
1000
0010
0100
0101
0000
0101
0001
1000
0100
0110
0000
0110
,  // measure 50
0010
0001
1000
0010
0100
0001
1000
0100
0010
0100
1000
0001
,  // measure 51
0100
0010
1000
1001
0000
1001
0001
0010
0100
1100
0000
1100
,  // measure 52
1000
0001
0100
0010
0100
0001
0010
0100
1000
0010
0100
0001
,  // measure 53
0010
0001
1000
0100
0010
0100
1000
0001
0100
0010
1000
0001
,  // measure 54
1000
0000
0100
0000
0010
0000
0100
0000
1000
0000
0001
0000
0100
0010
1000
0001
0100
0010
1000
0000
0001
0000
0010
0000
,  // measure 55
0220
0000
0000
0000
,  // measure 56
0000
0000
0000
0000
,  // measure 57
0330
0000
0000
0000
,  // measure 58
2002
0000
0000
0000
0000
0000
0000
0000
0000
0000
0000
0000
3003
0000
0000
0001
1000
0001
1000
0000
0000
0000
0000
0000
,  // measure 59
0001
0010
0100
0010
0001
0100
0210
0000
0000
0000
0000
0000
,  // measure 60
1000
0000
0000
0000
0000
0000
0310
1000
0001
1000
0100
0010
,  // measure 61
0120
0000
1000
0000
,  // measure 62
0130
1000
0001
0100
0010
0100
0001
0001
0001
1000
0100
0010
,  // measure 63
0110
0000
0011
0000
1001
0000
1100
1000
1010
0000
0110
0000
,  // measure 64
0101
0000
0011
0000
0110
0000
0011
0001
1001
0000
1010
0000
,  // measure 65
0110
0000
0101
0000
0011
0000
1000
0110
0000
0001
1100
0000
,  // measure 66
0001
0010
0100
0000
1000
0000
0010
0000
0100
0000
0001
0000
0010
0000
0001
0000
1000
0000
0010
0000
0110
0000
0110
0000
;

//---------------dance-double - ---------------
#NOTEDATA:;
#CHARTNAME:;
#CHARTSTYLE:;
#CREDIT:D0omsday;
#STEPSTYPE:dance-double;
#DESCRIPTION:;
#DIFFICULTY:Challenge;
#METER:18;
#METERF:18;
#RADARVALUES:0,0,0,0,0;
#NOTES:
// measure 0
00000000
00000000
00000000
00000000
,  // measure 1
00010000
00001000
00000100
00000010
00000000
00000100
00000001
00001000
00000100
00010000
00000000
00001000
,  // measure 2
01000000
00100000
10000000
00010000
00000000
00100000
01000000
10000000
00100000
00010000
00001000
00000100
,  // measure 3
00000001
00000010
00000100
00001000
00000000
00000010
00010000
00001000
00000100
00000001
00000000
00000010
,  // measure 4
00000100
00000000
00001000
00000000
00010000
00000000
00100000
00000000
00000000
00000000
00001000
00000000
00010000
00001000
00010000
00000000
00001000
00000000
00010000
00000000
00100000
00000000
10000000
00000000
,  // measure 5
10100000
00000000
00000000
01001000
00000000
01000000
00010000
00100000
01000000
10000000
00000000
00010000
,  // measure 6
00100000
00001000
00010000
00000100
00000000
00000010
00000001
00000100
00001000
00010000
00100000
10000000
,  // measure 7
01000000
00100000
00010000
10000000
00000000
00100000
00010000
00001000
01000000
00010000
00000000
00100000
,  // measure 8
00001000
00010000
00000010
00000100
00000000
00000001
00000010
00001000
00010000
00001000
00000100
00000001
,  // measure 9
00000010
00000100
00001000
00000000
00000000
00000000
00000010
00010000
00000010
00010000
00000010
00010000
,  // measure 10
00001000
00100000
01000000
00000000
00000000
00000000
10000000
00010000
10000000
00010000
10000000
00010000
,  // measure 11
00100000
01000000
00010000
00000000
00000000
00000000
00000100
00010000
00000100
00001000
00000010
00001000
,  // measure 12
00000001
00000000
00000010
00001000
00000000
00010000
01000000
00000000
10000000
00100000
00000000
00000000
,  // measure 13
10010000
00000000
00000000
10000000
01000000
00010000
00001000
00000000
00000000
10000000
00100000
00010000
,  // measure 14
00001000
00000000
00000000
10000000
01000000
00010000
00001000
00000000
00000000
00000100
00000000
00000000
,  // measure 15
00000020
00000001
00000100
00001030
,  // measure 16
00000001
00000000
00000000
00000010
00001000
00010000
00000010
00000000
00000001
00000010
00001000
00000100
,  // measure 17
00000010
00000000
00000000
00000001
00000100
00001000
00010000
00000000
00000000
00000001
00000010
00001000
,  // measure 18
00010000
00000000
00000000
00000001
00000100
00001000
00010000
00000000
00000000
01000000
00000000
00000000
,  // measure 19
00020000
00032000
00000010
00000001
,  // measure 20
00003010
00000000
00000000
00000100
00000000
00000000
00010000
00001000
00010000
00100000
10000000
00010000
,  // measure 21
00100000
01000000
10000000
00100000
00000000
00010000
00001000
00100000
00010000
00001000
00000000
00000100
,  // measure 22
00010000
00000010
00001000
00000001
00000000
00000010
00000001
00000100
00001000
00010000
01000000
10000000
,  // measure 23
00100000
01000000
00010000
10000000
00000000
01000000
00010000
00001000
00100000
00010000
00000000
01000000
,  // measure 24
00001000
00010000
00100000
10000000
00000000
01000000
10000000
00100000
00010000
00001000
00000010
00000001
,  // measure 25
00000100
00000010
00010000
00001000
00000000
00100000
00010000
01000000
00100000
10000000
00000000
00010000
,  // measure 26
00100000
00001000
00010000
00000010
00000000
00000100
00000001
00000010
00001000
00010000
00100000
10000000
,  // measure 27
01000000
00100000
01000000
10000000
00000000
00010000
00100000
00001000
00010000
00000100
00000000
00010000
,  // measure 28
00001000
01000000
00010000
00000000
10000000
00000000
00100000
10000000
00010000
00000000
00100000
00000000
00001000
00010000
00000100
00000000
00001000
00000000
00000001
00001000
00000001
00000000
00000100
00000000
,  // measure 29
00000020
00000000
00000100
00000000
00001000
00000000
00020030
00000000
00000010
00000000
00001000
00000000
,  // measure 30
00030100
00000000
00000010
00000000
00001000
00000000
00010000
00100000
10000000
00100000
00010000
00100000
,  // measure 31
01000000
00000000
10000000
00000000
01000000
00010000
00100000
00000000
01000000
00000000
00010000
00001000
,  // measure 32
00100000
00010000
00100000
00000000
00001000
00000000
00010000
00000000
00000010
00001000
00000010
00000000
00010000
00000000
00010000
00000000
00001000
00000000
00000010
00000000
00000001
00000000
00000100
00000000
,  // measure 33
00001000
00010000
00001000
00100000
01000000
10000000
10100000
00000000
01010000
00000000
00101000
00000000
,  // measure 34
00100000
00000000
00010000
00000000
00001000
00000000
00000100
00000000
00000010
00000000
00000001
00000000
00001000
00000010
00001000
00000000
00000001
00000000
00000100
00000000
00000010
00000000
00001000
00000000
,  // measure 35
00000100
00000000
00000010
00000000
00000001
00001000
00001010
00000000
00000010
00000000
00000100
00000000
,  // measure 36
00010000
00000000
00001000
00100000
00010000
00001000
00100000
01000000
00010000
01000000
10000000
00010000
,  // measure 37
10010000
00000000
01001000
00000000
00010010
00000000
00001001
00000000
00010100
00000000
00101000
00000000
,  // measure 38
10010000
00000000
00000000
10000000
00010000
00000000
10000000
00010000
10000000
00000000
01000000
00000000
00100000
00000000
00010000
00000000
00001000
00000000
00000100
00000000
00000010
00000000
00000001
00000000
,  // measure 39
00001000
00000010
00010000
00001000
00000010
00000100
00001000
00000010
00000100
00001000
00010000
00010000
,  // measure 40
00000010
00001000
00000001
00000010
00001000
00010000
00000100
00001000
00000010
00000100
00001000
00010000
,  // measure 41
00100000
01000000
00010000
00100000
01000000
00001000
00010000
00100000
00001000
00010000
01000000
10000000
,  // measure 42
00100000
01000000
00010000
00100000
01000000
10000000
00010000
01000000
00100000
00010000
00001000
00100000
,  // measure 43
00110000
00010000
00001000
00000100
00000010
00000001
00000001
00000100
00000010
00000001
00000010
00001000
,  // measure 44
00000100
00010000
00001000
00000010
00001000
00010000
01000000
00100000
00010000
10000000
00100000
01000000
,  // measure 45
01010000
00010000
00100000
00001000
00000010
00000001
00000100
00000010
00001000
00000100
00010000
01000000
,  // measure 46
10000000
00010000
00001000
00000001
00001000
00010000
10000000
00010000
00001000
00000001
00001000
00010000
,  // measure 47
10000000
00010000
10000000
00010000
01000000
00100000
00010000
00001000
00000010
00000100
00000000
10000000
,  // measure 48
00100000
10000000
00010000
00100000
00001000
00010000
00000100
00000010
00000100
00000001
00000100
00001000
,  // measure 49
00010000
00100000
01000000
10000000
00000000
00000010
00000100
00000010
00001000
00000001
00000000
00100000
,  // measure 50
00010000
01000000
00100000
00010000
00001000
00000010
00001000
00010000
01000000
00100000
00001000
00010000
,  // measure 51
00100000
01000000
00010000
10000000
00000000
00000001
00001000
00000100
00000010
00000001
00000000
10000000
,  // measure 52
00010000
01000000
00100000
10000000
01000000
00100000
10000000
00100000
00010000
01000000
00001000
00010000
,  // measure 53
00100000
00010000
00001000
00000100
00000010
00010000
00001000
00000010
00010000
00000010
00000100
00001000
,  // measure 54
00000001
00000100
00001000
00000001
00000010
00001000
00010000
01000000
10000000
00010000
00100000
20000000
,  // measure 55
00020000
00000000
00000000
00000000
,  // measure 56
00000000
00000000
00000000
00000000
,  // measure 57
30030000
00000000
00000000
00000000
,  // measure 58
00022000
00000000
00000000
00000000
00000000
00000000
00000000
00000000
00000000
00000000
00000000
00000000
00033000
00000000
00000000
00001000
00010000
00001000
00010000
00000000
00000000
00000000
00000000
00000000
,  // measure 59
00001000
00100000
00010000
00100000
00001000
00010000
00000020
00000000
00000000
00000000
00000000
00000000
,  // measure 60
00000001
00000000
00000000
00000000
00000000
00000000
00010030
00000010
00001000
00000010
00010000
00001000
,  // measure 61
00200000
00000000
10000000
00000000
,  // measure 62
00301000
00010000
00100000
00010000
00001000
00100000
00010000
00010000
00010000
01000000
00001000
00010000
,  // measure 63
00011000
00000000
00010010
00000000
00001001
00000000
00010100
00000000
00101000
00000000
00010010
00000000
,  // measure 64
01001000
00000000
01100000
00000000
10010000
00000000
00101000
00000000
00010010
00000000
00001001
00000000
,  // measure 65
00010100
00000000
00000110
00000000
00001001
00000000
00000000
00011000
00000000
00000000
10010000
00000000
,  // measure 66
10000000
01000000
00010000
00001000
00000100
00000001
00000010
00001000
00010000
00100000
01100000
01100000
;
