#TITLE:White Hot;
#SUBTITLE:;
#ARTIST:R.A.S.T.;
#TITLETRANSLIT:;
#SUBTITLETRANSLIT:;
#ARTISTTRANSLIT:;
#GENRE:;
#CREDIT:;
#MUSIC:White Hot.ogg;
#BANNER:banner.png;
#BACKGROUND:background.png;
#CDTITLE:;
#SAMPLESTART:9.302;
#SAMPLELENGTH:13.023;
#SELECTABLE:YES;
#OFFSET:0.000;
#BPMS:0.000=129.000;
#STOPS:;
#BGCHANGES:;
#FGCHANGES:;

//--------------- dance-single - ----------------
#NOTES:
     dance-single:
     :
     Easy:
     7:
     0,0,0,0,0:
0000
0000
0000
0000
,
0000
0000
0000
0000
,
0000
0000
0000
0000
,
0000
0000
0000
0000
,
0000
0000
0000
0000
,
0002
0100
1000
0103
,
2000
0100
0001
3100
,
0001
1000
1000
0001
,
0100
0010
0110
0000
,
2000
0100
0001
3100
,
0002
0100
1000
0103
,
0001
0010
0100
0010
,
0000
0002
2003
3000
,
0002
0010
2003
0010
,
3002
0010
2003
0010
,
3002
0100
2003
0100
,
3002
0100
2003
0100
,
3020
0100
2030
0100
,
3002
0100
0023
0100
,
0032
0100
2003
0100
,
3002
0010
2003
0010
,
3002
0010
0203
0010
,
0302
0010
2003
0010
,
3200
0010
2300
0010
,
3002
0010
2003
3000
,
0002
0100
1000
0103
,
2000
0100
0001
3100
,
0000
0110
0000
1001
,
0000
2000
3002
0003
,
0100
0100
0100
0000
0100
0000
0000
0000
,
0010
0010
0010
0000
0010
0000
0000
0000
,
1000
1000
1000
0000
0001
0000
1000
0000
,
0001
0001
0001
0000
2000
0000
3000
0000
,
0200
0302
0203
2300
,
3200
0302
0203
2300
,
3002
0023
2030
3020
,
0031
1001
0110
0001
,
2000
3020
0032
0023
,
2030
3020
0032
0023
,
0230
2300
3200
0302
,
0103
1001
0110
1000
,
0002
0000
0100
0000
0100
0100
0100
0000
,
2003
0000
0100
0000
0100
0100
0100
0000
,
3002
0000
0010
0000
0010
0010
0010
0000
,
2003
0000
0010
0000
0010
0010
3020
0000
,
0000
0000
0000
0030
,
0100
0010
2002
3003
,
2000
0010
0001
3010
,
0002
0010
1000
0013
,
1000
0001
0001
1000
,
0010
0100
0110
0000
,
0001
0000
1000
0000
0001
1000
0001
0000
,
0200
0010
0010
0310
,
1000
0000
0001
0000
1000
0001
1000
0000
,
0020
0230
0320
0030
;

//--------------- dance-single - ----------------
#NOTES:
     dance-single:
     :
     Medium:
     11:
     0,0,0,0,0:
0000
0000
0000
0000
,
0000
0000
0000
0000
,
0000
0000
0000
0000
,
0000
0000
0000
0000
,
0000
0000
0000
0000
,
1000
0001
0000
0001
1000
0000
0010
0000
0100
0000
0000
0000
1001
0000
0000
0000
,
0001
0010
0001
0010
0100
1000
0100
0000
,
0010
0001
0100
0010
1000
0001
1000
0000
,
0010
0000
0100
0000
0001
0000
0010
0000
0100
1000
0000
1000
0000
0000
0000
0000
,
0010
0100
0000
0100
0010
0000
1000
0000
0001
0000
0000
0000
1001
0000
0000
0000
,
1000
0100
0010
0001
0100
0010
1000
0000
,
0001
0010
0000
0010
0100
1000
0100
0000
,
2000
3002
0103
0000
,
0001
0100
0001
0100
1000
0100
0001
0100
,
0010
0100
0001
0100
1000
0100
0001
0100
,
0010
1000
0001
1000
0100
0010
0100
1000
,
0001
0010
1000
0010
0001
0100
0001
0010
,
0100
1000
0010
0100
0010
1000
0100
0010
,
0001
0001
1000
0000
0010
0100
0010
1000
,
0001
0010
1000
0000
0010
0001
0100
0010
,
1000
0010
0001
0000
0010
1000
0010
0100
,
1000
0100
0002
0000
1003
0010
0100
0001
,
1000
0100
0002
0000
0103
1000
0010
0100
,
0001
0010
0001
0010
1000
0010
0001
0010
,
0100
1000
0010
0100
0001
0000
0000
0000
,
1000
0001
0000
0001
1000
0000
0010
0000
0100
0000
0000
0000
1001
0000
0000
0000
,
0001
0100
0001
0100
0010
1000
0100
0000
,
0010
0001
1000
0001
0000
0100
0010
0100
,
0002
0000
2003
0000
3010
0100
0010
0000
,
1000
1000
0002
0000
0000
0100
0103
0000
,
0001
0001
2000
0000
0000
0100
3100
0000
,
1000
1000
0001
0000
0010
0010
0001
0000
,
0100
0010
0010
0100
0000
0001
2000
0000
,
3001
0010
0001
0010
1000
0010
0001
0010
,
1000
0010
0001
0010
0100
0010
0001
0010
,
0100
1000
0010
0100
0010
1000
0100
0010
,
0001
0001
1000
0001
1000
1000
0001
1000
,
0010
0100
0001
0100
1000
0100
0001
0100
,
0010
1000
0100
0010
0100
1000
0010
0100
,
0001
0010
0001
0010
0100
1000
0010
0010
,
0010
1000
0100
0010
0001
0100
0010
0000
,
1001
0100
0010
0000
1001
0010
0100
0000
,
0110
0000
1001
0000
0001
0010
1000
0010
,
0001
0010
0100
0100
0000
1001
0000
0100
,
0010
0010
0100
0000
0110
0000
2002
0000
,
0000
0000
0000
3003
,
0001
1000
0001
0100
0020
0000
0030
0000
,
1000
0001
0000
0001
1000
0000
0010
0000
0100
0000
0000
0000
1001
0000
0000
0000
,
0001
0010
0001
0010
0100
1000
0100
0000
,
0010
0001
0100
0010
1000
0001
1000
0000
,
0010
0000
0100
0000
0001
0000
0010
0000
0100
1000
0000
1000
0000
0000
0000
0000
,
0010
0100
0010
1000
0100
0010
0100
0000
,
1000
1000
0001
1000
0010
0100
0001
0100
,
1000
0100
0001
0000
0100
0010
0100
0000
,
0001
0010
0100
1000
0100
0000
0110
0000
;

//--------------- dance-single - ----------------
#NOTES:
     dance-single:
     :
     Hard:
     15:
     0,0,0,0,0:
0000
0000
0000
0000
,
0000
0000
0000
0000
,
0000
0000
0000
0000
,
0000
0000
0000
0000
,
0000
0000
0000
0000
,
1000
0001
0010
0100
1000
0000
0010
0000
0110
0000
0000
0000
1001
0000
0000
0000
,
0001
0010
1000
0001
1000
0010
0011
0000
,
0001
0100
0010
0000
1000
0100
0010
0000
0011
0000
0100
0000
1001
0000
0000
0000
,
1000
0000
0010
0000
0001
0010
0001
0000
0010
1000
0000
0001
0100
0000
0000
0000
,
0001
1000
0100
0010
0001
0000
0100
0000
0110
0000
0000
0000
1001
0000
0000
0000
,
1000
0010
0001
1000
0001
0010
1010
0000
,
0001
0100
0010
0100
0001
1000
1001
0000
,
0001
0000
0010
0100
1000
0000
0010
0100
0001
0000
1000
0000
1001
0000
0000
0000
,
0001
0010
0001
0010
0000
0100
0010
0000
0001
0000
0100
0010
0100
0000
0001
1000
,
0001
0000
0010
0100
0000
1000
0100
1000
0100
0000
1000
0010
0200
0000
0300
0000
,
0001
0000
1000
0001
0000
0100
0001
1000
0200
0300
0010
0000
0001
0000
0100
0000
,
1000
0000
0100
0001
0100
0000
1000
0000
0001
0000
0010
1000
0010
0000
1000
0001
,
0010
0000
0100
1000
0001
0000
0100
0000
0010
1000
0010
0100
0001
0000
0010
0000
,
0001
1000
0001
0010
0100
0000
0000
1000
0001
1000
0001
0100
0010
0000
1000
0000
,
1001
0000
0001
0020
0000
0000
0030
0000
0100
1000
0100
1000
0010
0100
0001
0000
,
1001
0000
1000
0020
0000
0000
0030
0100
0001
0000
0100
0010
0100
0000
0001
1000
,
0001
0000
0010
0200
0000
0000
0301
0000
0100
0000
1000
0100
0010
0000
0001
0000
,
0100
0000
0010
0200
0000
0000
1300
0000
0100
0001
0100
0000
0010
0000
1001
0000
,
1000
0100
0001
0000
0101
0000
1000
0000
0001
0100
1000
0000
1100
0000
0001
0000
,
0100
0010
0100
0010
0000
1000
0001
0000
0010
0000
0001
1000
0001
0000
0000
0000
,
1000
0100
0010
0001
1000
0000
0010
0000
0110
0000
0000
0000
1001
0000
0000
0000
,
0001
0100
1000
0001
1000
0100
0101
0000
,
1000
0001
0021
0100
0030
1000
1020
0100
,
0030
0000
0001
1000
0001
0000
0010
0100
1000
0000
0010
0100
0001
0000
1000
0000
,
0200
0000
0001
0000
0301
0000
0000
0100
1000
0100
1000
0100
0010
0000
0001
0000
,
0200
0000
1000
0000
1300
0000
0000
0100
0001
1000
0010
0100
0001
0000
1000
0001
,
1000
0000
0010
0000
0010
0000
0000
1000
0100
0010
0001
0100
0010
0000
1000
0001
,
1000
0000
0000
0000
0000
0000
0000
0000
0100
0000
0000
0000
1000
0000
0000
0000
0200
0300
0000
0000
0000
0000
0000
0000
0200
0300
0000
0000
0000
0000
0000
0000
0001
0000
0000
0000
0100
0000
0000
0000
0000
0000
0000
0000
0001
0000
0000
0000
1000
0000
0000
0000
0100
0000
0000
0000
0010
0000
0000
0000
0001
0000
0000
0000
,
0100
0000
0010
1000
0000
0001
0010
0000
0100
1000
0100
1000
0001
0000
0100
0010
,
0000
0010
0100
0000
0001
1000
0100
0010
0001
0000
0100
0000
0010
0100
0001
0000
,
1000
0000
0100
0010
0000
0001
0010
0000
0100
1000
0100
1000
0001
0100
0010
1000
,
0100
0000
0001
0100
0000
1000
0100
1000
0100
0000
0001
0100
0000
1000
0100
0000
,
0010
0000
0001
1000
0010
1000
0001
0000
0010
0100
1000
0000
1200
0000
0310
0000
,
0011
0000
0100
0000
1001
0000
0001
0010
0100
1000
0010
1000
0000
0010
0100
0010
,
1000
0001
1000
0000
1010
0000
0001
1000
0100
0000
0010
0100
0000
1000
1000
0001
,
0100
0000
0010
1000
0001
0000
0010
0000
0100
1000
0100
0010
0001
0000
0100
0000
,
1000
0100
0001
0100
0001
0000
0100
0010
1000
0010
0100
0001
0010
0000
0100
0000
,
1001
0000
1000
0000
0001
0010
1000
0000
1000
0010
0001
0000
0001
0100
1000
0000
,
0100
0010
0100
0001
0100
0000
1001
0000
0001
0010
0200
0300
1000
0010
0100
0001
,
1000
0100
1000
0000
0002
0000
0100
0000
2003
0000
0100
0000
3002
0000
0100
0000
,
2003
0000
0100
0000
0001
0000
0100
3000
,
0001
0010
0001
0010
0100
1000
0010
0100
0001
0000
2000
3000
0000
0000
1002
0003
,
1000
0100
0010
0001
0100
0000
0010
0000
1001
0000
0000
0000
0110
0000
0000
0000
,
0001
0010
1000
0001
1000
0010
0011
0000
,
1000
0100
0010
0000
0001
0100
0010
0000
1010
0000
0100
0000
1001
0000
0000
0000
,
0001
0000
0010
0000
1000
0010
1000
0000
0010
0001
0000
1000
0100
0000
0100
0000
,
1000
0010
0100
0001
0100
0000
0010
1000
0002
0000
0010
0000
2003
0000
0010
0000
,
3001
0100
0001
0100
0010
1000
0100
0010
0001
0000
1000
0000
1001
0000
0110
0000
,
1000
0000
0100
0001
0100
0000
1000
0000
0010
0100
0001
0100
0010
0000
1000
0000
,
0200
0300
0000
0000
0000
0000
0000
0000
0200
0300
0000
0000
0000
0000
0000
0000
0001
0000
0000
0000
0000
0000
0000
0000
0010
0000
0000
0000
0000
0000
0000
0000
0100
0000
0000
0000
0000
0000
0000
0000
0000
0000
0000
0000
0000
0000
0000
0000
0110
0000
0000
0000
0000
0000
0000
0000
0000
0000
0000
0000
0000
0000
0000
0000
,
2002
0000
0000
0000
,
0000
0000
0000
0000
,
3003
0000
0000
0000
;
