#VERSION:0.83;
#TITLE:War against the Eldritch Beasts;
#SUBTITLE:;
#ARTIST:Camellia;
#TITLETRANSLIT:;
#SUBTITLETRANSLIT:;
#ARTISTTRANSLIT:;
#GENRE:;
#CREDIT:;
#MUSIC:War against the Eldritch Beasts.ogg;
#BANNER:bn.png;
#BACKGROUND:bg.png;
#CDTITLE:;
#SAMPLESTART:85.263;
#SAMPLELENGTH:16.991;
#SELECTABLE:YES;
#OFFSET:1.066;
#BPMS:0.000=225.000
,196.000=224.650
,228.000=225.225
,260.000=226.000
;
#STOPS:;
#SCROLLS:0.000=1.004,
196.000=1.006,
228.000=1.003,
260.000=1.000
;
#DISPLAYBPM:226.000;
#JACKET:;
#DISCIMAGE:;
#CDIMAGE:;
#BGCHANGES:;
#FGCHANGES:;

//--------------- dance-single - ----------------
#NOTEDATA:;
#STEPSTYPE:dance-single;
#DESCRIPTION:;
#DIFFICULTY:Medium;
#METER:13;
#RADARVALUES:0,0,0,0,0;
#CHARTNAME:;
#CHARTSTYLE:;
#CREDIT:Talkion;
#METERF:13;
#NOTES:
0000
0000
0000
0000
,
0000
0000
0000
0000
,
0000
0000
0000
0000
,
0000
0000
0000
0000
,
0000
0000
0000
0000
,
0000
0000
0000
0000
,
0000
0000
0000
0000
,
0000
0000
0000
0000
,
0000
0000
0000
0000
,
1001
1000
0010
1000
,
0001
0010
0100
1000
,
0001
1000
0010
1000
,
0001
0010
0100
1000
,
0002
0100
1003
0001
,
0100
0100
0010
1000
,
0002
0010
1003
0001
,
0010
0010
0100
1000
,
0001
0100
0010
0100
,
0001
0010
0100
1000
,
0001
0100
0010
0100
,
0001
0010
0100
1000
,
0001
0100
0000
0100
0010
0000
0100
0010
,
0000
0010
1000
0000
0001
0100
0010
0100
,
0000
0000
0000
0000
,
0000
0000
0000
0000
,
0002
0000
1003
0100
1000
0000
0001
0010
,
0000
0001
0010
0000
0001
0010
0100
0000
,
2000
0000
3001
0100
0001
0000
1000
0010
,
0000
1000
0010
0000
1000
0010
0100
0000
,
0002
0000
1003
0100
1000
0000
0001
0010
,
0000
0001
0010
0000
0001
0010
0100
0000
,
2000
0000
3001
0100
0001
0000
0100
0010
,
0000
0000
1000
0000
0000
0010
0000
0000
1000
0000
0000
0000
0000
0000
0000
0000
,
0002
0000
1003
0100
1000
0000
0010
0100
,
0000
0010
0100
0000
0010
0100
0001
0000
,
2000
0000
3001
0100
0001
0000
0010
0100
,
0000
0000
1000
0000
0000
0001
0000
0000
1000
0000
0000
0001
0000
0000
1000
0000
,
0000
0010
0100
0000
0100
0000
0001
1000
,
0100
0100
0100
1000
,
2001
0000
3002
0100
,
1003
0000
0000
0000
,
0001
0010
0100
0000
1000
0000
0001
0010
,
0100
0010
0001
0000
0200
0000
0310
0000
,
1000
0010
0100
0000
0001
0000
1000
0010
,
0100
0010
1000
0000
0001
0000
0000
0000
,
1000
0100
0010
0000
0001
0000
1000
0100
,
0010
0100
1000
0000
0020
0000
0130
0000
,
0001
0100
0001
0000
1000
0100
1000
0000
,
0010
0100
0020
0000
2030
0000
3200
0000
,
1300
0000
0000
0000
,
0000
0000
0000
0000
,
0000
0000
0000
0000
,
0000
0000
0000
0000
,
0001
0000
0100
0010
,
1000
0000
0010
1000
,
0100
0000
0010
0000
0001
1000
0001
0000
,
0100
0010
0100
0010
0000
0000
1010
0000
,
1000
0001
0010
0001
,
1000
0010
1000
0020
0000
0000
0130
0000
,
0001
1000
0100
1000
,
0010
0100
0010
0200
0000
0000
0301
0000
,
1000
0000
0000
0100
0010
0000
0001
0010
,
0001
0000
0000
0100
0010
0000
1000
0010
,
1000
0000
0000
0100
0010
0000
0001
2000
,
0000
3010
0100
0010
0100
0000
0001
0000
,
1001
0000
1000
0100
1000
0100
2000
0001
,
0000
0100
0000
3001
0000
0000
0000
0000
,
1001
0000
0001
0100
0001
0100
0002
1000
,
0000
0100
0000
1003
0000
0000
0000
0000
,
1100
0000
0100
0010
0100
0010
0002
0100
,
0000
1000
0000
0103
0000
0000
0000
0000
,
0101
0000
0100
0010
0100
0010
2000
0100
,
0000
0001
0000
3100
0000
0000
0000
0000
,
1000
0000
0000
0100
0000
0000
0010
0000
0000
0100
0000
0000
1000
0000
0000
0000
,
0001
0000
0000
0100
0000
0000
0010
0000
0000
0100
0000
0000
0001
0000
0000
0000
,
1000
0000
0000
0100
0000
0000
0010
0000
0000
0100
0000
0000
1000
0000
0000
0000
,
0001
0000
0000
0100
0000
0000
0010
0000
0000
0100
0000
0000
0001
0000
0000
0000
,
1000
0100
0000
0100
0010
0000
0100
0010
,
0000
0010
0001
0000
1000
0100
0010
0100
,
0000
0000
0000
0000
,
0000
0000
0000
0000
,
1001
0000
1000
0000
0010
0100
0000
0001
,
1000
0100
1000
0200
0000
0000
0310
0000
,
0001
0000
1000
0000
0010
0100
0000
0001
,
0010
0100
0010
0200
0000
0000
1300
0000
,
0001
0000
1000
0010
1000
0010
0100
0010
,
1000
0000
0001
0010
0001
0010
0100
1000
,
0010
0000
1000
0001
1000
0001
0010
0100
,
1000
0000
0000
0000
0001
0000
0000
0000
1000
0000
0000
0010
0000
0000
1000
0000
,
0000
0000
0001
0000
0010
0100
0000
1000
,
0001
0100
0001
0200
0000
0000
0310
0000
,
1000
0000
0001
0000
0010
0100
0000
1000
,
0010
0000
0000
0100
0000
0000
0010
0000
0000
0100
0000
0000
0010
0000
0000
0000
,
1000
0000
0001
0010
0001
0010
0100
0010
,
0001
0000
1000
0010
1000
0010
0100
0001
,
0010
0000
0001
1000
0001
1000
0010
0100
,
0001
0010
0100
0010
0002
0000
2003
0000
,
3010
0000
0000
0000
,
0000
0000
0000
0000
,
1000
0000
0001
1000
0001
1000
0100
0010
,
0001
0000
0000
0100
0000
0000
0001
0000
1000
0000
0000
0000
0000
0000
0000
0000
,
0001
0000
0100
0010
1000
0000
0010
0100
,
0000
0010
1000
0000
0001
0010
0100
0010
,
0001
0000
1000
0000
0000
0010
0000
0000
1000
0000
0000
0000
0001
0000
0000
0010
,
0000
0000
0001
0000
0000
0010
0000
0000
0100
0000
0000
0000
1000
0000
0010
0000
,
0000
0010
0100
0000
0010
0100
0000
0100
,
0001
1000
0001
1000
0001
1000
0001
1000
,
0100
0000
0000
0000
,
0000
0000
0000
0000
0000
0000
0000
0110
;

//--------------- dance-single - XO+ DS- ----------------
#NOTEDATA:;
#STEPSTYPE:dance-single;
#DESCRIPTION:XO+ DS-;
#DIFFICULTY:Hard;
#METER:15;
#RADARVALUES:0,0,0,0,0;
#CHARTNAME:;
#CHARTSTYLE:;
#CREDIT:Talkion;
#METERF:15;
#NOTES:
0000
0000
0000
0000
,
0000
0000
0000
0000
,
0000
0000
0000
0000
,
0000
0000
0000
0000
,
0000
0000
0000
0000
,
0000
0000
0000
0000
,
0000
0000
0000
0000
,
0000
0000
0000
0000
,
0000
0000
0000
0000
,
1002
0000
0100
0000
1003
0100
1000
0000
,
0001
0100
0001
0000
0010
0100
0000
0100
,
2000
0000
0100
0000
3001
0100
0001
0000
,
1000
0100
1000
0000
0010
0100
0000
0100
,
0002
0000
0100
0000
1003
0100
1000
0010
,
0000
0010
0000
0100
0010
0100
0001
0000
,
2000
0000
0100
0000
3001
0100
0001
0010
,
0000
0010
0000
0100
0010
0100
1000
0000
,
0001
0100
0010
0000
1000
0010
1000
0100
,
0000
0100
0010
0001
1000
0000
0101
0000
,
1000
0100
0010
0000
0001
0010
0001
0100
,
0000
0100
0010
1000
0001
0000
1100
0000
,
0001
0100
0010
1000
0100
1000
0001
0100
,
0001
0010
0100
1000
0001
0100
0010
1000
,
0000
0000
0001
0010
0100
0020
0000
0031
,
0000
1000
0010
0100
0020
0000
1030
0000
,
2001
0000
3100
0100
1000
0000
0001
0100
,
0010
1000
0100
1000
0001
0100
0010
0000
,
1020
0000
0130
0100
0001
0000
1000
0100
,
0010
0001
0100
0001
1000
0100
1000
0000
,
2001
0000
3010
0010
1000
0000
0001
0010
,
0100
1000
0010
1000
0001
0010
0100
0000
,
1200
0000
0310
0010
0001
0100
0001
0100
,
0010
0000
2000
0000
0000
0100
0000
0000
3001
0000
0000
0000
2000
0000
0000
0000
,
3020
0000
0130
0100
0001
0000
1000
0100
,
0010
0001
0100
0010
1000
0100
0010
0000
,
0021
0000
0130
0100
1000
0000
0001
0100
,
0010
0000
2000
0000
0000
0100
0000
0000
3002
0000
0000
0100
0000
0000
1003
0000
,
0000
0001
0001
0000
0011
0000
0010
0100
,
1100
0000
0101
0000
1100
0000
1000
0010
,
0110
0000
0000
0000
0100
0001
0100
0001
,
0010
0000
0000
0100
0000
0100
2000
0000
,
3001
0100
0001
0010
0100
1000
0100
0010
,
1000
0010
0100
0010
0002
0100
2003
0000
,
3001
0010
0001
0100
0010
1000
0010
0100
,
1000
0100
0010
0100
0001
0002
0010
0000
,
1003
0010
1000
0100
0010
0001
0010
0100
,
0001
0100
0010
0100
2000
0010
3002
0000
,
1003
0100
0110
0000
0001
0100
0110
0000
,
1000
0100
0010
1000
0001
0100
0020
0000
,
0031
0000
0000
0000
,
0000
0000
0000
0000
,
0000
0000
0000
0000
,
0000
0000
0000
0000
,
1000
0000
0000
0010
0100
0000
0001
0010
,
0001
0000
0000
0010
0100
0000
1000
0010
,
1000
0000
0001
0010
0100
0010
0001
0100
,
0010
0100
0001
0020
0000
1030
0010
0100
,
1000
0000
0001
0000
0100
0020
0000
0130
,
1000
0100
0010
0002
0000
0013
0100
0010
,
1000
0000
0001
0000
0010
0200
0000
0310
,
1000
0010
0100
0002
0000
0103
0010
0100
,
1000
0000
0001
0100
0001
0010
0100
0010
,
0001
0000
1000
0100
1000
0010
0100
0010
,
0001
0000
0010
0100
0010
1000
0100
0020
,
0000
0031
0100
0001
0100
0001
0100
0010
,
1000
0000
0001
0010
0100
0010
0002
0100
,
2003
0010
3002
0100
1003
0000
0000
0000
,
1001
0000
1000
0010
0100
0010
2000
0100
,
3002
0010
2003
0100
3001
0000
0000
0000
,
1001
0000
0001
0010
0100
0010
0002
1000
,
0203
0010
0302
1000
0013
0000
0000
0000
,
1001
0000
1000
0010
0100
0010
2000
0001
,
3200
0010
2300
0001
3020
0000
0130
0000
,
0002
0000
0000
0010
0000
0000
2003
0000
0000
0010
0000
0000
3100
0000
0000
0000
,
2000
0000
0000
0100
0000
0000
3002
0000
0000
0100
0000
0000
0013
0000
0000
0000
,
0002
0000
0000
0100
0000
0000
2003
0000
0000
0100
0000
0000
3010
0000
0000
0000
,
2000
0000
0000
0010
0000
0000
3002
0000
0000
0010
0000
0000
0103
0000
0000
0000
,
0001
0010
0100
1000
0010
1000
0001
0010
,
0001
0100
0010
0001
1000
0100
0010
1000
,
0000
0000
0001
0010
0100
0010
0000
0002
,
0000
1003
0010
0100
0020
0000
1030
0000
,
1001
0000
2100
0000
3001
1000
0010
0100
,
1000
0100
0010
0002
0000
0013
1000
0100
,
0010
0000
0012
0000
1003
0010
1000
0100
,
0001
0100
0010
2000
0000
3010
0001
0100
,
0010
0000
1000
0010
0100
0010
1000
0100
,
0010
0000
0001
0010
0100
0010
0001
0100
,
1000
0000
0100
0010
1000
0100
0010
0001
,
0100
0000
1000
0000
0100
0000
0001
0000
0010
0000
0000
0010
0000
0000
0010
0000
,
0011
0000
2010
0000
3001
1000
0100
0010
,
1000
0010
0100
0002
0000
0103
1000
0010
,
0200
0300
0001
0000
0102
0000
0000
0000
1003
0000
0100
0000
1000
0000
0010
0000
,
0001
0000
0000
0010
0000
0000
0100
0000
0000
1000
0000
0000
0100
0000
0010
0000
,
1000
0000
0001
0010
0100
0010
0001
0100
,
0010
0000
1000
0010
0100
0010
1000
0100
,
0001
0000
0100
0010
0001
0100
0010
1000
,
0100
0001
1000
0010
0001
0100
0010
1000
,
0100
0000
2000
0000
3001
0010
0100
0010
,
0001
0000
2000
0000
3001
0100
0010
0100
,
1000
0000
0100
0010
1000
0100
0010
0001
,
0200
0000
0000
2300
0000
0000
3001
0000
0020
0000
0000
2030
0000
0000
3001
0000
,
0010
0100
0010
0001
0100
0000
0100
0010
,
0000
0010
1000
0100
0010
0100
1000
0001
,
0100
0000
0020
0000
0000
0100
0000
0000
1030
0000
0000
0000
0200
0000
0000
0010
,
0000
0000
1300
0000
0000
0001
0000
0000
1000
0000
0010
0000
1000
0000
0001
0000
,
0010
0001
0100
0010
1000
0100
1000
0001
,
0100
0001
0010
0100
0001
1000
0010
0100
,
1000
0000
0000
0000
,
0000
0000
0000
0000
0000
0000
0000
1001
;

//--------------- dance-single - XO ----------------
#NOTEDATA:;
#STEPSTYPE:dance-single;
#DESCRIPTION:XO;
#DIFFICULTY:Challenge;
#METER:19;
#RADARVALUES:0,0,0,0,0;
#CHARTNAME:;
#CHARTSTYLE:;
#CREDIT:Talkion;
#METERF:19;
#NOTES:
0000
0000
0000
0000
,
0000
0000
0000
0000
,
0000
0000
0000
0000
,
0000
0000
0000
0000
,
0000
0000
0000
0000
,
0000
0000
0000
0000
,
0000
0000
0000
0000
,
0000
0000
0000
0000
,
0000
0000
0000
0000
,
1002
0000
0100
0000
1003
1000
0100
0010
,
0001
0001
1000
0010
1000
1000
0100
0010
,
0002
0000
0010
0000
1003
1000
0010
0100
,
0001
0000
0001
0000
1000
0000
0010
0000
1000
0000
1000
0000
0100
0000
0010
0001
,
0010
0100
2000
0000
3001
0100
0001
0010
,
0100
0010
0100
1000
0010
1000
0001
0010
,
0100
1000
0100
0000
0020
0000
0000
0000
0031
0000
1000
0000
0010
0000
1000
0000
,
0100
0010
0001
0100
0010
0100
0001
0000
,
1000
0100
0110
0010
0001
0100
0110
0010
,
1000
0010
1000
0100
0010
0001
1001
0000
,
1000
0010
0110
0100
0001
0010
0110
0100
,
1000
0100
1000
0010
0100
0001
1001
0000
,
1000
0100
0010
0001
1000
0000
0001
0100
0010
1000
0001
0000
1000
0001
0010
0100
,
0010
0000
0001
1000
0010
0100
0010
0000
1000
0001
0010
0100
0010
0000
1000
0000
,
0010
0000
0010
0000
0010
0000
0001
1000
0010
1000
0001
0000
0000
0000
0100
0000
,
0000
0000
0100
0000
0010
1000
0010
0000
0200
0000
0000
0000
0301
0000
0000
0000
,
0012
0000
0000
0000
1003
0000
1000
0000
0010
0000
1000
0000
0001
1000
0001
0010
,
0100
0000
1000
0001
1000
0010
0100
0000
0001
1000
0001
0010
0100
0000
0000
0000
,
2100
0000
0000
0000
3001
0000
0001
0000
1000
0000
0010
0000
1000
0001
1000
0100
,
0010
0000
0001
1000
0010
1000
0001
0000
1000
0001
0010
0001
1000
0000
0000
0000
,
2010
0000
0000
0000
3001
0000
0001
0000
0010
0000
0001
0000
1000
0001
1000
0010
,
0100
0000
0001
1000
0001
0010
0100
0000
1000
0001
1000
0010
0100
0000
0000
0000
,
0102
0000
1003
2000
0100
0001
3100
1000
,
0001
0000
0101
0000
0000
1100
0000
0000
0101
0000
0000
0000
0001
1000
0001
1000
,
0200
0000
0000
0000
0310
0000
0010
0000
0001
0000
1000
0000
0010
0100
0010
1000
,
0001
0000
0010
0100
0010
0001
1000
0000
0010
0100
0010
1000
0001
0000
0000
0000
,
0021
0000
0000
0000
0130
0000
0100
0000
1000
0000
0001
0000
0100
0010
0100
0001
,
1000
0000
0002
0100
0000
2003
0100
0000
3002
0100
0000
2003
0100
0000
3001
0000
,
0000
0000
0101
0000
0101
0000
0000
0000
1001
0000
0000
0000
0011
0000
0010
0100
,
1000
0100
1100
0000
1001
0000
1010
1010
,
0011
0000
0000
0000
0000
0000
0000
0000
0001
1000
0100
1000
0002
0000
0100
0000
,
1003
0000
0000
0100
0000
0100
0020
0000
,
0031
0010
0100
0010
0001
0000
1000
0000
0001
0010
0100
0010
0001
0000
0101
0000
,
1000
0000
1100
0000
0001
0000
0101
0000
0100
0010
0002
0000
0023
0000
0130
0000
,
0001
0100
0010
0100
0001
0000
1000
0000
0001
0100
0010
0100
0001
0000
0011
0000
,
1000
1010
0001
0011
1000
1000
0020
0000
,
1030
0010
0100
0010
1000
0000
0001
0000
1000
0010
0100
0010
1000
0000
1100
0000
,
0001
0000
0101
0000
1000
0000
1100
0000
0100
0010
2000
0000
3020
0000
0130
0000
,
1000
0000
0000
1000
0000
0000
0110
0000
0000
0000
0000
0000
1000
0000
0000
1000
0000
0000
0010
0000
0100
0000
0001
0000
,
0010
0000
0000
0010
0000
0000
0010
0000
0000
0001
0000
0000
1000
0000
0010
0000
0100
0000
1000
0000
0100
0000
0010
0000
,
1000
0000
0000
0000
,
0000
0000
0000
0000
,
0000
0000
0000
0000
,
0000
0000
0000
0000
,
0001
0000
0000
0000
1000
0000
0010
0100
0010
0000
1000
0000
0001
0000
0010
0000
,
0100
0000
0000
0000
1000
0000
0010
0100
0010
0000
1000
0000
0001
0000
0010
0000
,
1000
0000
0000
0000
0010
0000
0001
1000
0001
0000
0100
0000
0010
0000
1000
0000
,
0001
0010
0001
1000
0010
0100
0010
1000
0002
0000
0100
0000
1003
0000
0000
0000
,
1100
0000
0000
0000
2001
0000
0000
0000
3010
0100
0010
0000
0001
0000
0010
0100
,
2000
3200
0302
2003
0000
3100
0100
0010
,
0001
0000
0000
0000
1002
0000
0000
0000
0013
0100
0010
0000
1000
0000
0010
0100
,
0002
0203
2300
3002
0000
0103
0100
0010
,
1000
0000
0000
0000
0001
0000
0010
0100
0010
0000
0001
0000
1000
0000
0010
0000
,
0100
0000
0000
0000
0001
0000
0010
0100
0010
0000
0001
0000
1000
0000
0010
0000
,
0001
0000
0000
0000
0010
0000
1000
0001
1000
0000
0100
0000
0010
0000
0002
0000
,
0000
0000
1003
0001
0100
0001
1000
0100
1000
0001
0100
0010
2000
0000
0000
0000
,
3100
0000
0000
0000
1000
0001
0100
0010
1000
0001
1000
0100
0010
0001
2000
0000
,
3010
0100
0002
0000
0103
0010
2000
0000
3000
0000
0000
0001
0010
0100
0010
0001
,
0100
0000
0000
0000
0001
1000
0100
0010
0001
1000
0001
0100
0010
1000
0002
0000
,
0013
0100
2000
0000
3100
0010
0002
0000
1003
0000
1000
0000
1000
0000
1000
0000
,
0110
0000
0000
0000
0001
1000
0010
0100
0001
0010
0001
0100
0010
1000
0002
0000
,
0013
0100
2000
0000
3010
0100
0002
0000
1003
0001
1000
0000
0100
0010
0100
1000
,
0010
0000
0000
0000
1000
0001
0010
0100
1000
0010
1000
0100
0010
0001
2000
0000
,
3010
0000
0000
0100
0000
0000
0002
0000
0000
0000
0000
0000
0013
0000
0000
0100
0000
0000
2000
0000
0000
0000
0000
0000
3001
0000
0000
0000
0010
0000
0000
0000
0001
0000
0000
0000
0100
0000
0000
0000
0000
0000
0000
0000
0000
0000
0000
0000
,
0110
0000
1000
0100
0000
0100
0010
0000
0001
0100
0000
0100
1000
0000
0000
0000
,
0110
0000
1000
0010
0000
0010
0100
0000
0001
0010
0000
0010
1000
0000
0000
0000
,
0110
0000
0001
0010
0000
0010
0100
0000
1000
0010
0000
0010
0001
0000
0000
0000
,
0110
0000
0001
0100
0000
0100
0010
0000
1000
0100
0000
0100
0001
0000
0000
0000
,
0110
0000
1000
0100
0010
0000
0001
1000
0010
1000
0001
0000
1000
0001
0010
0001
,
1000
0000
0010
0100
0010
1000
0100
0000
0010
0100
0010
0001
0100
0000
1000
0000
,
0100
0000
0100
0000
0100
0000
0001
1000
0100
1000
0001
0000
0000
0000
0010
0000
,
0000
0000
0010
0000
0100
1000
0100
0000
0020
0000
0000
0000
0031
0000
0000
0000
,
0101
0000
0000
0000
2100
0000
0000
0000
3001
0100
0010
0100
1000
0000
0100
0010
,
0002
0000
0023
0000
2030
0000
3200
0000
0010
0000
0310
0000
0001
1000
0010
1000
,
0001
0000
0000
0000
0102
0000
0000
0000
1003
0100
0010
0100
0001
0000
0100
0010
,
2000
0000
3020
0000
0032
0000
0203
0000
0010
0000
0310
0000
1000
0001
0010
0001
,
1000
0000
0000
0000
0001
0100
0010
1000
0001
1000
0100
0010
0001
1000
0010
1000
,
0100
0000
0000
0000
1000
0100
0010
0001
1000
0001
0100
0010
1000
0001
0010
0100
,
0001
0000
0000
0000
0100
0010
0001
1000
0010
1000
0001
0010
0001
1000
0010
0100
,
1000
0000
0100
0010
1000
0001
0010
0100
0010
0000
0000
0010
0000
0000
0010
0000
,
0011
0000
0000
0000
2010
0000
0000
0000
3001
0010
0100
0010
1000
0000
0010
0100
,
0002
0000
0203
0000
2300
0000
3020
0000
0100
0000
0130
0000
0001
1000
0100
1000
,
0002
0003
0010
0000
0012
0000
0000
0000
1003
0010
0100
0010
0001
0000
0010
0100
,
1000
0000
0200
0010
0000
0302
0010
0000
0203
0010
0000
0301
0010
0100
0010
0001
,
1000
0000
0000
0000
0001
0100
0010
1000
0001
1000
0100
0010
0001
1000
0100
1000
,
0010
0000
0000
0000
1000
0010
0100
0001
1000
0001
0010
0100
1000
0001
0100
0010
,
0001
0000
0000
0000
0010
0100
0001
1000
0100
1000
0001
0100
0001
1000
0100
0010
,
1000
0000
0001
0100
0010
0001
1000
0010
0100
0001
1000
0100
1000
0001
0100
0010
,
1000
0000
0001
0010
0100
0010
0001
0100
,
0010
0000
1000
0010
0100
0010
1000
0100
,
0001
0100
0010
0000
0001
0100
0010
1000
0001
0010
0100
0010
0001
1000
0010
0100
,
1000
0000
0001
0010
0100
0001
1000
0100
0010
0000
0000
0001
0000
0000
1000
0000
,
0010
0000
0100
0010
1000
0010
0100
0000
0001
0000
0010
0000
0010
0000
0100
0000
,
0010
0000
0010
0000
0001
0100
0001
0000
1000
0000
0100
0010
0100
1000
0010
0100
,
0001
0000
2000
0100
0000
3002
0100
0000
1003
0100
1000
0000
0002
0010
0000
2003
,
0010
0000
3002
0010
0000
2003
0010
0000
3001
0010
0100
1000
0010
0000
1000
0010
,
0100
0001
0010
0000
0100
0010
0100
1000
0010
0000
0100
0010
0100
0001
0010
0000
,
0001
1000
0010
0100
0001
1000
0100
0010
0001
1000
0010
0100
0001
1000
0100
0010
,
0001
0000
0000
0000
0000
0000
0000
0000
0000
0000
0000
0000
0010
0100
1000
0001
,
0000
0000
0100
0000
0100
0010
0000
0010
0000
1000
0100
0010
0100
1000
0020
0000
,
0000
0000
0000
0000
0000
0030
0000
0000
0000
0000
0000
0000
0000
0000
0000
0000
;
