#VERSION:0.83;
#TITLE:Very Good;
#SUBTITLE:;
#ARTIST:Block B;
#TITLETRANSLIT:;
#SUBTITLETRANSLIT:;
#ARTISTTRANSLIT:;
#GENRE:K-POP;
#ORIGIN:;
#CREDIT:MILEN;
#BANNER:Very Good.png;
#BACKGROUND:Very Good-bg.png;
#PREVIEWVID:;
#JACKET:Very Good-jacket.jpeg;
#CDIMAGE:;
#DISCIMAGE:;
#LYRICSPATH:;
#CDTITLE:;
#MUSIC:Very Good.ogg;
#OFFSET:-0.043000;
#SAMPLESTART:25.175659;
#SAMPLELENGTH:12.000000;
#SELECTABLE:YES;
#BPMS:0.000=136.000;
#STOPS:52.000=1.765,
184.000=1.765;
#DELAYS:;
#WARPS:;
#TIMESIGNATURES:0.000=4=4;
#TICKCOUNTS:0.000=4;
#COMBOS:0.000=1;
#SPEEDS:0.000=1.000=0.000=0;
#SCROLLS:0.000=1.000;
#FAKES:;
#LABELS:0.000=Song Start;
#LASTSECONDHINT:117.872124;
#BGCHANGES:-10000.000=black.mpg=1.000=1=0=1===CrossFade==,
-0.300=Very Good.avi=1.000=0=0=0=StretchNoLoop====,
99999=-nosongbg-=1.000=0=0=0 // don't automatically add -songbackground-
;
#KEYSOUNDS:;
#ATTACKS:
;

//---------------dance-single - ----------------
#NOTEDATA:;
#CHARTNAME:;
#STEPSTYPE:dance-single;
#DESCRIPTION:;
#CHARTSTYLE:;
#DIFFICULTY:Beginner;
#METER:3;
#RADARVALUES:0.150322,0.161046,0.025665,0.017110,0.000000,123.000000,120.000000,3.000000,2.000000,0.000000,0.000000,0.000000,0.000000,0.000000,0.150322,0.161046,0.025665,0.017110,0.000000,123.000000,120.000000,3.000000,2.000000,0.000000,0.000000,0.000000,0.000000,0.000000;
#CREDIT:MILEN;
#NOTES:
0000
0000
0000
0000
,
0000
0000
0000
0000
,
0000
0000
0000
0000
,
0000
0000
0000
0000
,
0000
0000
0000
0000
,
1000
0000
1000
0000
,
1000
0000
1000
0000
,
0001
0000
0001
0000
,
0001
0000
0001
0000
,
0100
0000
0100
0000
,
0010
0000
0010
0000
,
1000
0000
0001
0000
,
1000
0000
0001
0000
,
1001
0000
0000
0000
,
1000
0000
0100
0000
,
0010
0000
0001
0000
,
0100
0000
0100
0000
,
0100
0100
0100
0000
,
0001
0000
0010
0000
,
0100
0000
1000
0000
,
0010
0000
0010
0000
,
0010
0010
0010
0000
,
1000
0000
0001
0000
,
1000
1000
1000
0000
,
0001
0000
1000
0000
,
0001
0001
0001
0000
,
0100
0000
0010
0000
,
0100
0000
0010
0000
,
0200
0300
0000
0100
,
0100
0000
0010
0000
,
1000
0000
0001
0000
,
0010
0000
0100
0000
,
1000
0000
0001
0000
,
0100
0000
0010
0000
,
1000
0000
0100
0000
,
0010
0000
0001
0000
,
1000
0000
0001
0000
,
1000
0000
0001
0000
,
0100
0000
0100
0000
,
0010
0000
0010
0000
,
0100
0000
0010
0000
,
1000
0000
0001
0000
,
0010
0000
0010
0000
,
0100
0000
0100
0000
,
0010
0000
0100
0000
,
1000
0000
0001
0000
,
1001
0000
0000
0000
,
1000
0000
0010
0000
,
0100
0000
0001
0000
,
0100
0000
0100
0000
,
0100
0100
0100
0000
,
0001
0000
0100
0000
,
0010
0000
1000
0000
,
0010
0000
0010
0000
,
0010
0010
0010
0000
,
1000
0000
0100
0000
,
1000
0000
0100
0000
,
0010
0000
0001
0000
,
0020
0000
0030
0000
,
0001
0000
0100
0000
,
0001
0000
0100
0000
,
0010
0000
1000
0000
,
0010
0010
0000
0110
;

//---------------dance-single - ----------------
#NOTEDATA:;
#CHARTNAME:;
#STEPSTYPE:dance-single;
#DESCRIPTION:;
#CHARTSTYLE:;
#DIFFICULTY:Easy;
#METER:5;
#RADARVALUES:0.244426,0.268945,0.076994,0.025665,0.000000,200.000000,191.000000,9.000000,3.000000,0.000000,0.000000,0.000000,0.000000,0.000000,0.244426,0.268945,0.076994,0.025665,0.000000,200.000000,191.000000,9.000000,3.000000,0.000000,0.000000,0.000000,0.000000,0.000000;
#CREDIT:MILEN;
#NOTES:
0000
0000
0000
0000
,
0000
0000
0000
0000
,
0000
0000
0000
0000
,
0000
0000
0000
0000
,
1000
0001
1000
0001
,
0100
0000
0100
0000
,
0010
0000
0010
0000
,
1000
0000
1000
0000
,
0001
0000
0001
0000
,
0010
0001
0010
0000
,
0100
1000
0100
0000
,
1000
0001
0100
0100
,
0001
1000
0010
0010
,
1001
0000
0000
0000
,
1000
0010
1000
0010
,
0100
0001
0100
0001
,
0100
0100
0010
0010
,
0100
0010
1000
0000
,
0001
0010
0001
0010
,
0100
1000
0100
1000
,
0100
0100
0010
0010
,
0100
0010
0001
0000
,
1001
0000
1000
0010
,
0100
0001
0100
0100
,
0001
0010
0001
1000
,
0001
0010
0001
0001
,
0200
0300
0020
0030
,
1000
0001
1000
1000
,
0010
0100
0001
0010
,
0200
0000
0000
0300
,
1000
0010
1000
0001
,
1001
0000
1001
0000
,
0001
0100
0001
1000
,
1001
0000
1001
0000
,
1000
0001
0100
0000
,
0001
1000
0010
0000
,
0100
0010
0100
0100
,
0010
0100
0010
0010
,
1000
0000
1000
0000
,
0001
0000
0001
0000
,
1000
0000
0010
0000
,
0001
0000
0100
0000
,
1000
1000
1000
0000
,
0001
0001
0001
0000
,
1000
0001
0100
0010
,
1000
0010
0100
0001
,
1001
0000
0000
0000
,
0001
0100
0001
0100
,
1000
0100
1000
0100
,
0001
0001
0010
0010
,
0100
1000
0001
0000
,
1000
0100
1000
0100
,
0001
0100
0001
0100
,
1000
1000
0010
0010
,
0100
0001
1000
0000
,
0001
0100
0010
0010
,
0000
0100
0001
0010
,
0100
0100
1000
0010
,
1000
0001
1001
0000
,
1000
0100
0010
0010
,
0000
0100
1000
0010
,
0100
0001
0010
0001
,
1001
0000
0000
0000
0000
1000
0001
1000
;

//---------------dance-single - ----------------
#NOTEDATA:;
#CHARTNAME:;
#STEPSTYPE:dance-single;
#DESCRIPTION:;
#CHARTSTYLE:;
#DIFFICULTY:Medium;
#METER:9;
#RADARVALUES:0.380082,0.457206,0.273757,0.222428,0.000000,311.000000,279.000000,32.000000,26.000000,0.000000,0.000000,0.000000,0.000000,0.000000,0.380082,0.457206,0.273757,0.222428,0.000000,311.000000,279.000000,32.000000,26.000000,0.000000,0.000000,0.000000,0.000000,0.000000;
#CREDIT:MILEN;
#NOTES:
0000
0000
0000
0000
,
0000
0000
0000
0000
,
0000
0000
0000
0000
,
0000
0000
0000
0000
,
1000
0001
1000
0001
,
1000
0010
0100
0001
,
0010
0100
1000
1001
,
0001
0100
0010
1000
,
0100
0010
0001
1001
,
1000
0010
2000
3100
,
0001
0010
0002
0103
,
1000
0001
1000
0000
0010
0000
0100
0000
,
0001
1000
0001
0000
0100
0000
0010
0000
,
2002
0000
3003
0000
0100
0010
0100
0000
,
0110
0001
0100
0010
,
0110
1000
0100
0010
,
0002
0103
2000
3010
,
0002
0100
1003
1001
,
0110
0001
0010
0100
,
0110
1000
0010
0100
,
0002
0013
2000
3100
,
0002
0010
1003
1001
,
0110
0000
0000
0000
0010
1000
0010
0000
,
0100
0001
0100
0000
0001
1000
0001
0000
,
0010
0001
0010
0000
0100
1000
0100
0000
,
1000
0010
1000
0010
0100
0001
0100
0100
,
0000
0001
0020
0000
0130
0000
0010
0001
,
0100
0000
0100
0010
1000
0010
1000
0001
,
0100
0000
0100
0010
1000
0001
1000
0001
,
0020
0000
0000
0000
0030
0000
0100
0010
,
0100
1000
0100
0001
,
0100
0000
1000
0010
0000
0010
0100
0010
,
0100
0001
0100
1000
,
0100
0000
0001
0010
0000
0010
0100
0010
,
0100
0000
1100
0000
0011
0000
0001
0100
,
0010
0000
0110
0000
0100
0010
1000
0000
,
0001
1000
0100
0000
1000
0000
1010
0000
,
1000
0001
0100
0000
0001
0000
0101
0000
,
0100
0010
2000
3001
,
0010
0100
2000
3001
,
0100
0010
2000
3100
,
0020
0031
0200
0310
,
0010
1010
0100
1100
,
0010
0011
0100
0101
,
0011
1100
1010
0101
,
0001
0010
0100
0010
0100
1000
0010
0000
,
0220
0000
0330
0000
0100
0010
0100
0000
,
1001
0010
1000
0100
,
1001
0010
0001
0100
,
0020
1030
0020
0031
,
0020
0100
1030
0110
,
1001
0100
0001
0010
,
1001
0100
1000
0010
,
0200
0301
0200
1300
,
0200
0010
0301
1001
,
1000
0010
0100
0000
0100
0010
1000
0000
,
1000
0001
0100
0000
0100
0001
0010
0000
,
0010
0001
0100
0000
0100
0001
1000
0000
,
1000
0100
0010
0001
0100
0000
0110
0000
,
0010
1000
0001
0000
0001
0010
0100
0000
,
0100
1000
0010
0000
0010
0100
0001
0000
,
0001
1000
0100
0010
0100
0010
0001
0100
,
0020
0000
0030
0000
0000
1000
0001
1001
;

//---------------dance-single - ----------------
#NOTEDATA:;
#CHARTNAME:;
#STEPSTYPE:dance-single;
#DESCRIPTION:;
#CHARTSTYLE:;
#DIFFICULTY:Hard;
#METER:11;
#RADARVALUES:0.477853,0.484101,0.222428,0.213873,0.132601,391.000000,365.000000,26.000000,25.000000,0.000000,0.000000,0.000000,0.000000,0.000000,0.477853,0.484101,0.222428,0.213873,0.132601,391.000000,365.000000,26.000000,25.000000,0.000000,0.000000,0.000000,0.000000,0.000000;
#CREDIT:MILEN;
#NOTES:
0000
0000
0000
0000
,
0000
0000
0000
0000
,
0000
0000
0000
0000
,
0000
0000
0000
0000
,
1000
0100
0010
0001
1000
0100
0010
0001
,
1000
0000
0001
0000
0100
0010
1000
0001
,
0100
0001
1000
0010
0100
0000
0110
0000
,
0001
0000
1000
0000
0100
0010
0001
1000
,
0100
1000
0001
0010
0100
0000
1000
0000
,
0001
0000
0100
0000
0001
0000
0100
0000
0010
0000
0000
0010
0000
0000
0010
0000
,
1000
0100
1000
0001
0010
0001
0100
0100
,
0010
0000
1000
0000
0001
0000
0100
0000
0010
0000
0000
0010
0000
0000
0010
0000
,
0100
0000
0001
0000
1000
0000
0010
0000
0100
0000
0000
0100
0000
0000
0100
0000
,
2002
3003
0000
0000
1001
0000
0000
0000
0001
0000
0010
0000
0100
0000
1000
0000
,
0200
0001
1000
0001
,
0320
0001
1000
0031
,
0001
0000
0000
0001
0000
0000
0100
0000
1000
0000
0000
1000
0000
0000
0100
0000
,
0001
0000
0000
0001
0000
0000
0010
0000
1000
0000
0010
0000
0001
0000
0100
0000
,
0020
0001
1000
0001
,
0230
0001
1000
0301
,
0001
0000
0000
0001
0000
0000
0010
0000
1000
0000
0000
1000
0000
0000
0010
0000
,
0001
0000
0000
0001
0000
0000
0100
0000
1000
0000
0100
0000
0001
0000
0010
0000
,
0200
0000
0300
0000
0000
0000
1000
0000
0010
0100
0010
0000
0200
0000
0300
0000
,
0001
0000
0010
0001
0010
0000
0100
0000
1000
0000
0001
0000
0020
0000
0030
0000
,
0001
0000
0100
0010
0000
0000
0100
0000
0001
0000
0100
0010
0000
0000
0100
0000
,
0001
0000
0100
0010
0100
0000
0010
0000
1000
0000
0010
0000
0100
0000
0101
0000
,
0000
0001
1000
0020
0000
1030
0001
0200
,
0000
0301
1000
0010
0100
0001
0010
0100
,
1100
0000
1000
0010
0001
1000
0100
0001
,
0010
0100
1000
0001
0010
0100
2000
3001
,
1001
0000
0000
1000
0010
0000
1000
0000
0100
0000
0001
0000
0100
0000
2000
0000
,
3010
0000
0002
0103
0000
0001
1000
0001
,
0010
1000
0010
0001
0100
1000
0100
0002
,
0013
0000
2000
3100
0000
1000
0001
1000
,
0010
0100
0000
0000
0101
0000
0000
0000
1010
0000
0000
0000
1000
0000
0100
0000
,
0010
0100
0000
0000
1100
0000
0000
0000
0011
0000
0001
0000
0200
0000
0000
0000
,
0310
0000
1000
0000
0001
0000
0100
0000
0010
0000
0000
0010
0000
0000
0010
0000
,
0100
0000
0001
0000
1000
0000
0010
0000
0100
0000
0000
0100
0000
0000
0100
0000
,
0001
0010
1000
0010
,
0100
0001
0100
1000
,
0010
0001
1000
0100
,
0120
0001
1000
0130
,
0101
0000
0000
0001
0000
0000
0010
0000
0010
0000
0000
0000
1100
0000
0000
0000
,
1010
0000
0000
1000
0000
0000
0100
0000
0100
0000
0000
0000
0011
0000
0000
0000
,
0101
1100
0011
1010
,
1000
0000
0100
0000
0001
0000
0100
0000
1000
0000
0000
0010
0000
0000
0100
0000
,
0220
0330
0000
0000
1001
0000
0000
0000
1000
0000
0010
0000
0100
0000
0001
0000
,
0200
1000
0001
1000
,
0320
1000
0001
1030
,
1000
0000
0000
0100
0000
0000
0100
0000
0001
0000
0000
0100
0000
0000
0100
0000
,
1000
0000
0000
0010
0000
0000
0010
0000
0001
0000
0010
0000
1000
0000
0100
0000
,
0020
1000
0001
1000
,
0230
1000
0001
1300
,
1000
0000
0000
0010
0000
0000
0010
0000
0001
0000
0000
0010
0000
0000
0010
0000
,
1000
0000
0000
0100
0000
0000
0100
0000
0001
0000
0100
0000
1000
0000
0010
0000
,
0100
0001
0100
1000
0100
0001
0100
1000
,
0000
1100
0000
0100
0001
0010
0100
0100
,
0010
1000
0010
0001
0010
1000
0010
0001
,
0100
0010
0100
0000
0010
0000
1000
0000
0100
0000
0000
0000
1001
0000
0000
0000
,
0001
0010
1000
0010
0001
0010
1000
0010
,
0000
0011
0000
0001
0010
1000
0001
0100
,
1000
0010
0001
0010
1000
0010
0001
0010
,
1000
0100
1000
0200
0000
0000
0000
0000
0000
0000
0310
0000
0110
0000
1001
0000
;

//---------------dance-single - ----------------
#NOTEDATA:;
#CHARTNAME:;
#STEPSTYPE:dance-single;
#DESCRIPTION:;
#CHARTSTYLE:;
#DIFFICULTY:Challenge;
#METER:15;
#RADARVALUES:0.688059,1.217203,0.727167,0.470520,0.658728,563.000000,478.000000,85.000000,55.000000,4.000000,0.000000,0.000000,0.000000,74.000000,0.688059,1.217203,0.727167,0.470520,0.658728,563.000000,478.000000,85.000000,55.000000,4.000000,0.000000,0.000000,0.000000,74.000000;
#CREDIT:MILEN;
#OFFSET:-0.043000;
#BPMS:0.000000=136.000000
,57.000000=100000000.000000
,58.000000=136.000000
,59.000000=100000000.000000
,60.000000=136.000000
,61.000000=100000000.000000
,62.000000=136.000000
,260.000000=100000000.000000
,261.000000=136.000000
,262.000000=100000000.000000
,263.000000=136.000000
,264.000000=100000000.000000
,265.000000=136.000000
;
#STOPS:;
#DELAYS:;
#WARPS:62.000000=32.000000
,224.000000=32.000000
,264.000000=32.000000
,359.000000=32.000000
;
#TIMESIGNATURES:0.000000=4=4
;
#TICKCOUNTS:0.000000=4
;
#COMBOS:0.000000=1
;
#SPEEDS:0.000000=1.000000=0.000000=0
,1.000000=1.300000=3.000000=0
,4.000000=0.500000=0.250000=0
,4.250000=1.000000=3.750000=0
,8.000000=0.500000=0.250000=0
,8.250000=1.000000=3.750000=0
,12.000000=0.500000=0.250000=0
,12.250000=1.000000=2.250000=0
,95.000000=1.300000=0.125000=0
,95.125000=1.000000=0.875000=0
,99.000000=1.300000=0.125000=0
,99.125000=1.000000=0.875000=0
,111.000000=1.300000=0.125000=0
,111.125000=1.000000=0.875000=0
,115.000000=1.300000=0.125000=0
,115.125000=1.000000=0.875000=0
,142.500000=1.300000=0.125000=0
,142.625000=1.000000=0.125000=0
,159.000000=1.300000=0.125000=0
,159.125000=1.000000=0.875000=0
,256.000000=999.000000=0.000000=0
,259.000000=1.000000=0.000000=0
,297.000000=1.300000=0.125000=0
,297.125000=1.000000=0.875000=0
,301.000000=1.300000=0.125000=0
,301.125000=1.000000=0.875000=0
,313.000000=1.300000=0.125000=0
,313.125000=1.000000=0.875000=0
,317.000000=1.300000=0.125000=0
,317.125000=1.000000=0.875000=0
;
#SCROLLS:0.000000=0.250000
,4.000000=1.000000
,52.000000=0.000000
,57.000000=0.350000
,58.000000=0.000000
,59.000000=0.350000
,60.000000=0.000000
,61.000000=0.350000
,62.000000=0.000000
,63.000000=1.000000
,94.000000=0.000000
,95.000000=1.000000
,223.000000=4.000000
,224.000000=1.000000
,256.000000=0.000000
,260.000000=0.350000
,261.000000=0.000000
,262.000000=0.350000
,263.000000=0.000000
,264.000000=0.350000
,265.000000=0.000000
,266.000000=1.000000
,296.000000=0.000000
,297.000000=1.000000
,357.750000=4.000000
,358.250000=0.000000
,359.000000=1.000000
,390.500000=0.000000
,391.000000=1.000000
;
#FAKES:359.000000=2.000000
;
#LABELS:0.000000=Song Start
;
#NOTES:
0000
0000
0000
0000
,
2020
0000
0000
3030
,
0202
0000
0000
0303
,
2002
0000
0000
3000
0003
0100
0110
0010
,
1000
0001
1000
0001
0100
0010
0100
0010
1000
0001
1000
0001
0010
0100
0010
0100
,
2000
0000
3002
0000
0103
0010
1000
0010
,
0100
0001
0100
0010
1010
0000
0101
0000
,
0002
0000
2003
0000
3100
0010
0001
0010
,
0100
1000
0100
0010
0011
0000
1100
0000
,
1000
0000
0010
0000
0100
0000
0001
0000
0011
0000
0000
1100
0000
0000
1001
0000
,
0001
0010
0100
1000
0010
0100
0001
1000
,
0001
0100
0010
0000
0100
0001
0010
0000
0011
0000
0000
1010
0000
0000
1001
0000
,
1000
0100
0010
0000
0100
1000
0010
0000
1010
0000
0000
0011
0000
0000
1001
0000
,
1001
0000
0000
0000
,
0000
0000
0000
0000
,
0000
0000
0000
M00M
,
0M00
00M0
000M
00M0
,
0M00
0000
0000
0000
0000
0000
0000
0000
0000
0000
0000
0000
000M
0000
0000
0000
00M0
0000
0000
0000
0M00
0000
0000
0000
M000
0000
0000
0000
000M
0000
0000
0000
00M0
0000
0000
0000
0M00
0000
0000
0000
0000
0000
0000
0000
0000
0M00
0000
0000
,
M000
0000
000M
0000
00MM
0000
0000
00M0
000M
0000
M000
0000
MM00
0000
0000
0M00
,
M000
0000
00M0
0000
0M00
000M
M000
0000
00M0
M000
000M
0000
0000
0000
0000
0000
,
0000
0000
0000
0000
,
0000
0000
0000
0000
,
0000
0000
0000
0000
,
0000
0000
0000
2001
,
0100
0010
0001
0010
,
0100
0000
0000
0000
0000
0000
0000
0000
0000
0000
0000
0000
3001
0000
0000
0000
0010
0000
0000
0000
0100
0000
0000
0000
1000
0000
0000
0000
0001
0000
0000
0000
0010
0000
0000
0000
0100
0000
0000
0000
0000
0000
0000
0000
0000
0100
0000
0000
,
1000
0000
0001
0000
0011
0000
0000
0010
0001
0000
1000
0000
1100
0000
0000
0100
,
1000
0000
0010
0000
0100
0001
1000
0000
0010
1000
0001
0000
1002
0000
0000
0000
,
0100
0010
1000
0010
,
0100
0000
0000
0000
0000
0000
0000
0000
0000
0000
0000
0000
1003
0000
0000
0000
0010
0000
0000
0000
0100
0000
0000
0000
0001
0000
0000
0000
1000
0000
0000
0000
0010
0000
0000
0000
0100
0000
0000
0000
0000
0000
0000
0000
0000
0100
0000
0000
,
0001
0000
1000
0000
1010
0000
0000
0010
1000
0000
0001
0000
0101
0000
0000
0100
,
0001
0000
0010
0000
0100
1000
0001
0000
0010
0001
1000
0000
2200
0000
3300
0000
,
0000
0000
1100
0000
1000
0010
0100
0000
0202
0000
0303
0000
0101
0000
0001
0010
,
0100
0010
0001
0000
1000
0010
0100
0000
0220
0000
0330
0000
0110
0000
0010
1000
,
0000
0010
0000
0100
0001
0000
0010
0001
0000
0010
0000
0100
1000
0000
1001
0000
,
0001
1000
0100
0000
1000
0001
0010
0000
0001
0000
0201
0000
0310
0000
1010
0000
,
1000
0100
0010
0002
0003
0000
0011
0000
0001
0100
0010
2000
3000
0000
1100
0000
,
1000
0010
0100
0000
1000
0100
0010
0000
0100
0001
1000
0000
2002
3003
0000
0000
,
0001
0000
0100
1000
0100
0000
0001
0010
0000
0100
0000
0010
0001
0100
0001
1000
,
0010
1000
0100
0010
0001
1000
0001
1000
0020
0000
0130
0000
0110
0000
0000
0100
,
0001
0010
1000
0001
0100
1000
2020
3030
,
0011
0000
0202
0000
0303
0000
0110
0000
0100
0000
0010
0000
0100
0001
0010
0000
,
1000
0000
0001
0000
0100
1000
0010
0000
0100
0000
0001
0000
0022
0000
0033
0000
,
1010
0000
2200
0000
3300
0000
1000
0000
0010
0000
0200
0000
0001
1000
0000
0000
,
1000
0001
0000
0000
0310
0000
0000
0000
0110
0000
0020
0000
1000
0001
0000
0000
,
0001
1000
0000
0000
0130
0000
0001
0000
1001
0000
0000
0000
1000
0010
0100
0000
,
1000
0100
0010
0000
1010
0000
0000
1100
0000
0000
1001
0000
0001
0010
0100
0000
,
0010
0001
0100
0000
0101
0000
0000
0011
0000
0000
1001
0000
1020
0000
0000
0001
,
0000
0000
0100
0000
0130
0000
0000
0101
0000
0000
0000
0000
0021
0000
0000
1000
,
0000
0000
0100
0000
0130
0000
0000
1100
0000
0000
0000
0000
2001
0000
0000
0010
,
0000
0000
0100
0000
3100
0000
0000
0110
0000
0000
0010
0000
0012
0000
0000
0000
,
0203
0000
0000
0000
2300
0000
0000
0000
3020
0000
0000
0000
0031
0000
0000
0101
,
0000
0000
1000
0000
0100
0000
0000
1100
0000
0000
1000
0000
0010
0000
0000
1010
,
0000
0000
0001
0000
0010
0000
0000
0011
0000
0000
0001
0000
1000
0001
0100
0000
,
0001
1000
0010
0000
0100
0010
1000
0000
0010
0100
0001
0000
1000
0010
1000
0001
,
0100
0001
0010
0100
1000
0010
0100
0001
1000
0100
0010
0001
2000
3000
0000
0000
,
0000
0000
0000
0000
,
0000
0000
0000
0000
,
0000
0000
0000
0000
,
0000
0000
0000
0000
,
0000
0000
0000
0000
,
0000
0000
0000
0000
,
0000
0000
0000
0000
,
0000
0000
0000
0000
,
0000
0000
0000
0000
,
0000
0000
0000
0000
,
0000
0000
M00M
00M0
,
0M00
M000
0M00
00M0
,
M000
0000
0000
0000
00M0
0000
0000
0000
0M00
0000
0000
0000
M000
0000
0000
0000
000M
0000
0000
0000
00M0
0000
0000
0000
0M00
0000
0000
0000
0000
0000
0000
0000
0000
0M00
0000
0000
000M
0000
0000
0000
0000
0000
00M0
0000
0000
0000
0000
0000
,
00MM
0000
0000
0M00
M000
0000
00M0
0000
M0M0
0000
0000
0M00
000M
0000
00M0
0000
,
000M
0M00
00M0
0000
000M
00M0
M000
0000
0000
0000
0000
0000
0000
0000
0000
0000
,
0000
0000
0000
0000
,
0000
0000
0000
0000
,
0000
0000
0000
0000
,
0000
1002
0010
0100
,
1000
0000
0000
0100
0000
0000
0010
0000
0000
1003
0010
0100
,
1000
0000
0000
0000
0001
0000
0000
0000
0010
0000
0000
0000
0100
0000
0000
0000
0000
0000
0000
0000
0000
0100
0000
0000
0001
0000
0000
0000
0000
0000
0010
0000
0000
0000
0000
0000
0011
0000
0000
0000
0000
0000
0000
0000
0000
0100
0000
0000
,
1000
0000
0010
0000
1010
0000
0000
0100
0001
0000
0010
0000
0001
0100
0010
0000
,
0001
0010
1000
0000
2001
0000
0000
0000
0010
0000
0000
0000
0100
0000
0000
0000
,
0001
0000
0000
0100
0000
0000
0010
0000
0000
3001
0010
0100
,
0001
0000
0000
0000
1000
0000
0000
0000
0010
0000
0000
0000
0100
0000
0000
0000
0000
0000
0000
0000
0000
0100
0000
0000
1000
0000
0000
0000
0000
0000
0010
0000
0000
0000
0000
0000
1010
0000
0000
0000
0000
0000
0000
0000
0000
0100
0000
0000
,
0001
0000
0010
0000
0011
0000
0000
0100
1000
0000
0010
0000
1000
0100
0010
0000
,
1000
0010
0001
0000
0201
0000
0310
0000
0102
0000
0013
0000
0201
0000
0310
0000
,
0120
0000
0031
0000
0000
0000
1010
0000
0000
0000
1100
0000
0100
1000
0010
0000
,
0001
0010
1000
0000
1200
0000
0310
0000
2100
0000
3010
0000
1200
0000
0310
0000
,
2100
0000
3010
0000
0010
0100
0001
1000
0100
0010
0001
1000
0001
0000
0000
0000
,
2002
0000
3003
0000
1000
0010
0100
0000
1000
0100
0010
0000
0100
0001
0010
0100
,
0010
0000
0011
0000
0000
0000
0101
0000
0000
0000
0100
0010
1000
0010
0100
0010
,
1000
0010
0100
0001
0010
0100
0001
0000
0100
0010
0001
0000
0010
0100
0001
0100
,
1000
0000
1010
0000
0001
0010
0100
2000
3000
0000
0000
0000
0000
0000
0110
0000
,
1001
1111
0000
0000
0000
0000
0000
0000
,
0000
0000
0000
0000
,
0000
0000
0000
0000
,
0000
0000
0000
0000
,
0000
0000
0000
0000
,
0000
0000
0000
0000
,
0000
0000
0000
0000
,
0000
0000
0000
0000
0000
0000
0000
0110
,
1001
MMMM
0000
0000
0000
0000
0000
0000
;

//---------------dance-double - ----------------
#NOTEDATA:;
#CHARTNAME:;
#STEPSTYPE:dance-double;
#DESCRIPTION:;
#CHARTSTYLE:;
#DIFFICULTY:Easy;
#METER:5;
#RADARVALUES:0.240759,0.268945,0.102659,0.034220,0.000000,197.000000,185.000000,12.000000,4.000000,0.000000,0.000000,0.000000,0.000000,0.000000,0.240759,0.268945,0.102659,0.034220,0.000000,197.000000,185.000000,12.000000,4.000000,0.000000,0.000000,0.000000,0.000000,0.000000;
#CREDIT:MILEN;
#NOTES:
00000000
00000000
00000000
00000000
,
00000000
00000000
00000000
00000000
,
00000000
00000000
00000000
00000000
,
00000000
00000000
00000000
00000000
,
00001000
00010000
00001000
00010000
,
00000010
00000000
00000010
00000000
,
00010000
00000000
00010000
00000000
,
00001000
00000000
00001000
00000000
,
01000000
00000000
01000000
00000000
,
00001000
00100000
00001000
00000000
,
00010000
00000100
00010000
00000000
,
00001000
00010000
00000010
00010000
,
00001000
01000000
00001000
00010000
,
00011000
00000000
00000000
00000000
,
00001000
00100000
00001000
00100000
,
00010000
01000000
00010000
01000000
,
00001000
00100000
00010000
01000000
,
00001000
00010000
00011000
00000000
,
00010000
00000010
00010000
00000010
,
00001000
00000100
00001000
00000100
,
00010000
00000010
00001000
00000100
,
00010000
00001000
00011000
00000000
,
00011000
00000000
00010000
00000100
,
00001000
00000001
00001000
00000100
,
00000010
00000001
00000010
00000100
,
00000010
00000001
00000100
00001000
,
00020000
00030000
00002000
00003000
,
00010000
00100000
10000000
01000000
,
00100000
00010000
00100000
00001000
,
00022000
00000000
00000000
00033000
,
00010000
00000000
00001000
00000000
,
00010000
00000000
00010010
00000000
,
00001000
00000000
00010000
00000000
,
00001000
00000000
00101000
00000000
,
00001000
00010000
00000100
00000000
,
00010000
00001000
01000000
00000000
,
00010000
00100000
01000000
00000000
,
00001000
00000100
00000010
00000000
,
00000001
00000000
00000100
00000000
,
00001000
00000000
00010000
00000000
,
00100000
00000000
10000000
00000000
,
01000000
00000000
00010000
00000000
,
00001000
00010000
00100000
00000000
,
00010000
00001000
00000010
00000000
,
00001000
00010000
01000000
00010000
,
00001000
00000100
00001000
00010000
,
00011000
00000000
00000000
00000000
,
00001000
01000000
00001000
01000000
,
00010000
00100000
00010000
00100000
,
00001000
00010000
00100000
01000000
,
00100000
00010000
00011000
00000000
,
00010000
00000100
00010000
00000100
,
00001000
00000010
00001000
00000010
,
00010000
00001000
00000010
00000100
,
00000010
00001000
00011000
00000000
,
00001000
00010000
01000000
01000000
,
00000000
10000000
00100000
00010000
,
00100000
00100000
10000000
01000000
,
00010000
00001000
00011000
00000000
,
00010000
00001000
00000100
00000100
,
00000000
00000001
00000010
00001000
,
00000010
00000001
00000100
00001000
,
00011000
00000000
00000000
00000000
00000000
00010000
00001000
00010000
;

//---------------dance-double - ----------------
#NOTEDATA:;
#CHARTNAME:;
#STEPSTYPE:dance-double;
#DESCRIPTION:;
#CHARTSTYLE:;
#DIFFICULTY:Medium;
#METER:9;
#RADARVALUES:0.373972,0.457206,0.222428,0.119769,0.000000,306.000000,280.000000,26.000000,14.000000,0.000000,0.000000,0.000000,0.000000,0.000000,0.373972,0.457206,0.222428,0.119769,0.000000,306.000000,280.000000,26.000000,14.000000,0.000000,0.000000,0.000000,0.000000,0.000000;
#CREDIT:MILEN;
#NOTES:
00000000
00000000
00000000
00000000
,
00000000
00000000
00000000
00000000
,
00000000
00000000
00000000
00000000
,
00000000
00000000
00000000
00000000
,
00001000
00010000
00001000
00010000
,
00000010
00001000
00000100
00000010
,
00000001
00000100
00001000
00011000
,
01000000
00010000
00100000
01000000
,
10000000
00100000
00010000
00011000
,
00001000
00100000
00002000
00013000
,
00010000
00000010
00020000
00031000
,
00001000
01000000
00001000
00000000
00010000
00000000
00001000
00000000
,
00010000
00000100
00010000
00000000
00001000
00000000
00010000
00000000
,
00022000
00000000
00033000
00000000
00001000
00010000
00001000
00000000
,
01001000
01000000
00010000
00100000
,
00110000
00010000
01000000
00100000
,
10000000
01000000
00010000
01000000
,
10000000
00000000
01000000
00000000
00010000
00001000
00010000
00000000
,
00010100
00000100
00001000
00000010
,
00001010
00001000
00000100
00000010
,
00000001
00000100
00001000
00000100
,
00000001
00000000
00000100
00000000
00001000
00010000
00001000
00000000
,
00011000
00000000
00000000
00000000
00010000
00000100
00001000
00000000
,
00000100
00000010
00000001
00000000
00001000
00000100
00000010
00000000
,
00000010
00000001
00000100
00000000
00000010
00001000
00000100
00000000
,
00000010
00001000
00010000
00001000
00010000
01000000
00100000
00100000
,
00000000
01000000
20000000
00000000
30100000
00000000
00100000
00010000
,
00001000
00000000
00010000
00001000
00000010
00000000
00001000
00000010
,
00000100
00000000
00000100
00001000
00000001
00000100
00000001
00000100
,
00000020
00000000
00000000
00000000
00000030
00000000
00001000
00000100
,
00001000
00000010
00000001
00000010
,
00001000
00000000
00000100
00000010
00000000
00000010
00001000
00000000
,
00010000
00100000
10000000
00100000
,
00010000
00000000
01000000
00100000
00000000
00100000
00010000
00000000
,
00001000
00000000
00101000
00000000
00010010
00000000
00000010
00001000
,
00000100
00000000
00000110
00000000
00000010
00000001
00000100
00000000
,
00001000
00010000
00100000
00000000
00010000
00000000
00001000
00000000
,
00010000
00001000
00000010
00000000
00001000
00000000
00010000
00000000
,
00100000
10000000
02000000
03100000
,
00100000
00001000
00020000
00030100
,
00000100
00000010
00000002
00000103
,
00000200
00001300
00002000
00013000
,
00010000
00010100
00001000
01001000
,
00010000
00010010
00001000
00101000
,
00110000
01001000
00010010
00001100
,
00000100
00000010
00000001
00000100
00001000
00010000
00001000
00000000
,
00022000
00000000
00033000
00000000
00010000
00001000
00010000
00000000
,
00010010
00000010
00001000
00000100
,
00001100
00001000
00000010
00000100
,
00000001
00000010
00001000
00000010
,
00000001
00000000
00000010
00000000
00001000
00010000
00001000
00000000
,
00101000
00100000
00010000
01000000
,
01010000
00010000
00100000
01000000
,
10000000
00100000
00010000
00100000
,
10000000
00000000
00100000
00000000
00010000
00001000
00010000
00000000
,
00001000
00010000
00000010
00000000
00001000
00000100
00010000
00000000
,
00001000
01000000
00010000
00000000
00100000
00001000
00010000
00000000
,
00100000
10000000
01000000
00000000
00100000
00010000
01000000
00000000
,
00100000
00010000
00001000
00000100
00000010
00000000
00000110
00000000
,
00000100
00000001
00000010
00000000
00000100
00001000
00000010
00000000
,
00010000
00001000
01000000
00000000
00010000
00100000
01000000
00000000
,
10000000
00100000
00010000
00001000
00010000
00001000
00000100
00000001
,
00000020
00000000
00000030
00000000
00000000
00001000
00010000
00011000
;

//---------------dance-double - ----------------
#NOTEDATA:;
#CHARTNAME:;
#STEPSTYPE:dance-double;
#DESCRIPTION:;
#CHARTSTYLE:;
#DIFFICULTY:Hard;
#METER:11;
#RADARVALUES:0.475408,0.484101,0.222428,0.222428,0.124046,389.000000,363.000000,26.000000,26.000000,0.000000,0.000000,0.000000,0.000000,0.000000,0.475408,0.484101,0.222428,0.222428,0.124046,389.000000,363.000000,26.000000,26.000000,0.000000,0.000000,0.000000,0.000000,0.000000;
#CREDIT:MILEN;
#NOTES:
00000000
00000000
00000000
00000000
,
00000000
00000000
00000000
00000000
,
00000000
00000000
00000000
00000000
,
00000000
00000000
00000000
00000000
,
00001000
00010000
00100000
01000000
00001000
00010000
00100000
01000000
,
00100000
00000000
10000000
00000000
01000000
00010000
00001000
00010000
,
00001000
00000100
00000001
00001000
00000100
00000000
00000110
00000000
,
00000010
00000000
00000001
00000000
00000100
00001000
00010000
00001000
,
00010000
01000000
10000000
00010000
01000000
00000000
01100000
00000000
,
00100000
00000000
10000000
00000000
01000000
00000000
00100000
00000000
00010000
00000000
00000000
00010000
00000000
00000000
00010000
00000000
,
01000000
00100000
00010000
00001000
00010000
00000100
00001000
00001000
,
00000001
00000000
00000100
00000000
00000010
00000000
00001000
00000000
00000100
00000000
00000000
00000100
00000000
00000000
00000100
00000000
,
00000010
00000000
00001000
00000000
00010000
00000000
01000000
00000000
00100000
00000000
00000000
00100000
00000000
00000000
00100000
00000000
,
00022000
00033000
00000000
00000000
00011000
00000000
00000000
00000000
00010000
00000000
00001000
00000000
01000000
00000000
00010000
00000000
,
00200000
01000000
10000000
00010000
,
00302000
00000010
00010000
01003000
,
01000000
00000000
00000000
00010000
00000000
00000000
00100000
00000000
01000000
00000000
00000000
00010000
00000000
00000000
00001000
00000000
,
00000010
00000000
00000000
00000100
00000000
00000000
00001000
00000000
00000010
00000000
00010000
00000000
00000100
00000000
00001000
00000000
,
00000020
00000001
00000100
00001000
,
00020030
00000100
01000000
00031000
,
00001000
00000000
00000000
00000100
00000000
00000000
00000010
00000000
00001000
00000000
00000000
00000100
00000000
00000000
00010000
00000000
,
00001000
00000000
00000000
00100000
00000000
00000000
01000000
00000000
10000000
00000000
00010000
00000000
00100000
00000000
01000000
00000000
,
20000000
00000000
30000000
00000000
00000000
00000000
00100000
00000000
00010000
00001000
00010000
00000000
00000020
00000000
00000030
00000000
,
00001000
00000000
00000100
00000010
00000100
00000000
00000010
00000000
00000001
00000000
00000100
00000000
00002000
00000000
00003000
00000000
,
00010000
00000000
00001000
00010000
00000000
00000000
00000010
00000000
00010000
00000000
00001000
00010000
00000000
00000000
00000100
00000000
,
00010000
00000000
00001000
00010000
00001000
00000000
00100000
00000000
00010000
00000000
10000000
00000000
00100000
00000000
01100000
00000000
,
00000000
01000000
00010000
00200000
00000000
01300000
00010000
00002000
,
00000000
00003010
00000001
00000100
00000010
00001000
00000100
00000010
,
00000011
00000000
00000001
00000100
00001000
00010000
00100000
10000000
,
01000000
00100000
00010000
01000000
00100000
00010000
00002000
00013000
,
00011000
00000000
00010000
00001000
00000010
00000001
00000010
00002000
,
00010000
00003000
00002000
01000000
00003000
00100000
00010000
00100000
,
01000000
00010000
00001000
00010000
00100000
10000000
00100000
00020000
,
00001000
00030000
00020000
00000100
00030000
00000010
00001000
00000010
,
00000100
00000001
00000000
00000000
00000011
00000000
00000000
00000000
00001100
00000000
00000000
00000000
00000100
00000000
00010000
00000000
,
00001000
01000000
00000000
00000000
01010000
00000000
00000000
00000000
10100000
00000000
10000000
00000000
02000000
00000000
00000000
00000000
,
03100000
00000000
00010000
00000000
00100000
00000000
01000000
00000000
00010000
00000000
00000000
00001000
00000000
00000000
00010000
00000000
,
00000010
00000000
00001000
00000000
00000010
00000000
00000100
00000000
00001000
00000000
00000000
00010000
00000000
00000000
00001000
00000000
,
01000000
00010000
00100000
01000000
,
00010000
00001000
00000010
00000100
,
00001000
00000010
00010000
00001000
,
00021000
00030010
00012000
01003000
,
00011000
00000000
00000000
00001000
00000000
00000000
00100000
00000000
00100000
00000000
00000000
00000000
01010000
00000000
00000000
00000000
,
00011000
00000000
00000000
00010000
00000000
00000000
00000010
00000000
00000010
00000000
00000000
00000000
00001100
00000000
00000000
00000000
,
00010010
00101000
00010100
01001000
,
00001000
00000000
00100000
00000000
01000000
00000000
00010000
00000000
00001000
00000000
00000000
00000010
00000000
00000000
00000100
00000000
,
00022000
00033000
00000000
00000000
00011000
00000000
00000000
00000000
00001000
00000000
00010000
00000000
00000100
00000000
00001000
00000000
,
00000020
00000100
00000001
00001000
,
00020030
00100000
00001000
00030100
,
00000100
00000000
00000000
00001000
00000000
00000000
00000010
00000000
00000100
00000000
00000000
00001000
00000000
00000000
00010000
00000000
,
00100000
00000000
00000000
01000000
00000000
00000000
00010000
00000000
00100000
00000000
00001000
00000000
01000000
00000000
00010000
00000000
,
00200000
10000000
01000000
00010000
,
00302000
01000000
00000100
00013000
,
00010000
00000000
00000000
01000000
00000000
00000000
00100000
00000000
00010000
00000000
00000000
01000000
00000000
00000000
00001000
00000000
,
00010000
00000000
00000000
00000010
00000000
00000000
00000100
00000000
00000001
00000000
00000010
00000000
00001000
00000000
00010000
00000000
,
01000000
10000000
01000000
00010000
01000000
10000000
00100000
00010000
,
00000000
00011000
00000000
00001000
00010000
00000010
00000100
00001000
,
00000100
00000001
00000100
00001000
00000100
00000001
00000010
00001000
,
00000010
00000001
00000100
00000010
00001000
00000000
00011000
00000000
,
00010000
00100000
10000000
01000000
00010000
01000000
10000000
00100000
,
00000000
00011000
00000000
00001000
00000100
00000001
00000010
00000100
,
00001000
00000010
00000001
00000010
00001000
00000100
00000010
00000001
,
00000100
00001000
00000100
00002000
00000000
00000000
00000000
00000000
00000000
00000000
00010000
00000000
00010000
00000000
00013000
00000000
;

//---------------dance-single - CSP15 no gimmick version----------------
#NOTEDATA:;
#CHARTNAME:;
#STEPSTYPE:dance-single;
#DESCRIPTION:CSP15 no gimmick version;
#CHARTSTYLE:;
#DIFFICULTY:Edit;
#METER:15;
#RADARVALUES:0.690503,0.781491,0.735722,0.461965,0.581734,565.000000,479.000000,86.000000,54.000000,4.000000,0.000000,0.000000,0.000000,0.000000,0.690503,0.781491,0.735722,0.461965,0.581734,565.000000,479.000000,86.000000,54.000000,4.000000,0.000000,0.000000,0.000000,0.000000;
#CREDIT:MILEN;
#NOTES:
0000
0000
0000
0000
,
2020
0000
0000
3030
,
0202
0000
0000
0303
,
2002
0000
0000
3000
0003
0100
0110
0010
,
1000
0001
1000
0001
0100
0010
0100
0010
1000
0001
1000
0001
0010
0100
0010
0100
,
2000
0000
3002
0000
0103
0010
1000
0010
,
0100
0001
0100
0010
1010
0000
0101
0000
,
0002
0000
2003
0000
3100
0010
0001
0010
,
0100
1000
0100
0010
0011
0000
1100
0000
,
1000
0000
0010
0000
0100
0000
0001
0000
0011
0000
0000
1100
0000
0000
1001
0000
,
0001
0010
0100
1000
0010
0100
0001
1000
,
0001
0100
0010
0000
0100
0001
0010
0000
0011
0000
0000
1010
0000
0000
1001
0000
,
1000
0100
0010
0000
0100
1000
0010
0000
1010
0000
0000
0011
0000
0000
1001
0000
,
0110
0000
0000
0000
,
2001
0100
0010
0001
,
0010
0000
0000
0100
0000
0000
3001
0010
0100
1000
0001
0010
,
0100
0000
0000
0100
1000
0000
0001
0000
0011
0000
0000
0010
0001
0000
1000
0000
,
1100
0000
0000
0100
1000
0000
0010
0000
0100
0001
1000
0000
0010
1000
0001
0000
,
1002
0100
0010
1000
,
0010
0000
0000
0100
0000
0000
1003
0010
0100
0001
1000
0010
,
0100
0000
0000
0100
0001
0000
1000
0000
1010
0000
0000
0010
1000
0000
0001
0000
,
0101
0000
0000
0100
0001
0000
0010
0000
0100
1000
0001
0000
0010
0001
1000
0000
,
2200
0000
3300
0000
0000
0000
1100
0000
1000
0010
0100
0000
0202
0000
0303
0000
,
0101
0000
0001
0010
0100
0010
0001
0000
1000
0010
0100
0000
0220
0000
0330
0000
,
0110
0000
0010
1000
0000
0010
0000
0100
0001
0000
0010
0001
0000
0010
0000
0100
,
1000
0000
1001
0000
0001
1000
0100
0000
1000
0001
0010
0000
0001
0000
0201
0000
,
0310
0000
1010
0000
1000
0100
0010
0002
0003
0000
0011
0000
0001
0100
0010
2000
,
3000
0000
1100
0000
1000
0010
0100
0000
1000
0100
0010
0000
0100
0001
1000
0000
,
2002
3003
0000
0000
0001
0000
0100
1000
0100
0000
0001
0010
0000
0100
0000
0010
,
0001
0100
0001
1000
0010
1000
0100
0010
0001
1000
0001
1000
0020
0000
0130
0000
,
0110
0000
0000
0100
0001
0000
0010
0000
1000
0000
0001
0000
0100
0000
1000
0000
,
2020
3030
0011
0202
0303
0110
0100
0010
,
0100
0001
0010
0000
1000
0000
0001
0000
0100
1000
0010
0000
0100
0000
0001
0000
,
0022
0033
1010
2200
3300
1000
0010
0200
,
0001
1000
0000
0000
1000
0001
0000
0000
0310
0000
0000
0000
0110
0000
0020
0000
,
1000
0001
0000
0000
0001
1000
0000
0000
0130
0000
0001
0000
1001
0000
0000
0000
,
1000
0010
0100
0000
1000
0100
0010
0000
1010
0000
0000
1100
0000
0000
1001
0000
,
0001
0010
0100
0000
0010
0001
0100
0000
0101
0000
0000
0011
0000
0000
1001
0000
,
1020
0000
0000
0001
0000
0000
0100
0000
0130
0000
0000
0101
0000
0000
0000
0000
,
0021
0000
0000
1000
0000
0000
0100
0000
0130
0000
0000
1100
0000
0000
0000
0000
,
2001
0000
0000
0010
0000
0000
0100
0000
3100
0000
0000
0110
0000
0000
0010
0000
,
0012
0203
2300
3020
,
0031
0000
0000
0101
0000
0000
1000
0000
0100
0000
0000
1100
0000
0000
1000
0000
,
0010
0000
0000
1010
0000
0000
0001
0000
0010
0000
0000
0011
0000
0000
0001
0000
,
0100
0010
1000
0000
0010
0100
0001
0000
0010
0100
1000
0000
0001
0010
0100
0000
,
1000
0010
1000
0001
0100
0001
0010
0100
1000
0010
0100
0001
1000
0100
0010
0001
,
1000
0000
0000
0000
,
1002
0010
0100
1000
,
0100
0000
0000
0010
0000
0000
1003
0010
0100
1000
0001
0010
,
0100
0000
0000
0100
0001
0000
0010
0000
0011
0000
0000
0100
1000
0000
0010
0000
,
1010
0000
0000
0100
0001
0000
0010
0000
0001
0100
0010
0000
0001
0010
1000
0000
,
2001
0010
0100
0001
,
0100
0000
0000
0010
0000
0000
3001
0010
0100
0001
1000
0010
,
0100
0000
0000
0100
1000
0000
0010
0000
1010
0000
0000
0100
0001
0000
0010
0000
,
0011
0000
0000
0100
1000
0000
0010
0000
1000
0100
0010
0000
1000
0010
0001
0000
,
0201
0310
0102
0013
0201
0310
0120
0031
,
0000
0000
1010
0000
0000
0000
1100
0000
0100
1000
0010
0000
0001
0010
1000
0000
,
1200
0310
2100
3010
1200
0310
2100
3010
,
0010
0100
0001
1000
0100
0010
0001
1000
0001
0000
0000
0000
2002
0000
3003
0000
,
1000
0010
0100
0000
1000
0100
0010
0000
0100
0001
0010
0100
0010
0000
0011
0000
,
0000
0000
0101
0000
0000
0000
0100
0010
1000
0010
0100
0010
1000
0010
0100
0001
,
0010
0100
0001
0000
0100
0010
0001
0000
0010
0100
0001
0100
1000
0000
1010
0000
,
0001
0010
0100
2000
3000
0000
0000
0000
0000
0000
0110
0000
0110
0000
1001
0000
,
MMMM
0000
0000
0000
;

//---------------dance-double - ----------------
#NOTEDATA:;
#CHARTNAME:;
#STEPSTYPE:dance-double;
#DESCRIPTION:;
#CHARTSTYLE:;
#DIFFICULTY:Challenge;
#METER:15;
#RADARVALUES:0.689281,1.217203,0.710057,0.453410,0.658728,564.000000,481.000000,83.000000,53.000000,4.000000,0.000000,0.000000,0.000000,96.000000,0.689281,1.217203,0.710057,0.453410,0.658728,564.000000,481.000000,83.000000,53.000000,4.000000,0.000000,0.000000,0.000000,96.000000;
#CREDIT:MILEN;
#OFFSET:-0.043000;
#BPMS:0.000000=136.000000
,57.000000=100000000.000000
,58.000000=136.000000
,59.000000=100000000.000000
,60.000000=136.000000
,61.000000=100000000.000000
,62.000000=136.000000
,260.000000=100000000.000000
,261.000000=136.000000
,262.000000=100000000.000000
,263.000000=136.000000
,264.000000=100000000.000000
,265.000000=136.000000
;
#STOPS:;
#DELAYS:;
#WARPS:62.000000=32.000000
,224.000000=32.000000
,264.000000=32.000000
,359.000000=32.000000
;
#TIMESIGNATURES:0.000000=4=4
;
#TICKCOUNTS:0.000000=4
;
#COMBOS:0.000000=1
;
#SPEEDS:0.000000=1.000000=0.000000=0
,1.000000=1.300000=3.000000=0
,4.000000=0.500000=0.250000=0
,4.250000=1.000000=3.750000=0
,8.000000=0.500000=0.250000=0
,8.250000=1.000000=3.750000=0
,12.000000=0.500000=0.250000=0
,12.250000=1.000000=2.250000=0
,95.000000=1.300000=0.125000=0
,95.125000=1.000000=0.875000=0
,99.000000=1.300000=0.125000=0
,99.125000=1.000000=0.875000=0
,111.000000=1.300000=0.125000=0
,111.125000=1.000000=0.875000=0
,115.000000=1.300000=0.125000=0
,115.125000=1.000000=0.875000=0
,142.500000=1.300000=0.125000=0
,142.625000=1.000000=0.125000=0
,159.000000=1.300000=0.125000=0
,159.125000=1.000000=0.875000=0
,256.000000=999.000000=0.000000=0
,259.000000=1.000000=0.000000=0
,297.000000=1.300000=0.125000=0
,297.125000=1.000000=0.875000=0
,301.000000=1.300000=0.125000=0
,301.125000=1.000000=0.875000=0
,313.000000=1.300000=0.125000=0
,313.125000=1.000000=0.875000=0
,317.000000=1.300000=0.125000=0
,317.125000=1.000000=0.875000=0
;
#SCROLLS:0.000000=0.250000
,4.000000=1.000000
,52.000000=0.000000
,57.000000=0.350000
,58.000000=0.000000
,59.000000=0.350000
,60.000000=0.000000
,61.000000=0.350000
,62.000000=0.000000
,63.000000=1.000000
,94.000000=0.000000
,95.000000=1.000000
,223.000000=4.000000
,224.000000=1.000000
,256.000000=0.000000
,260.000000=0.350000
,261.000000=0.000000
,262.000000=0.350000
,263.000000=0.000000
,264.000000=0.350000
,265.000000=0.000000
,266.000000=1.000000
,296.000000=0.000000
,297.000000=1.000000
,357.750000=4.000000
,358.250000=0.000000
,359.000000=1.000000
,390.500000=0.000000
,391.000000=1.000000
;
#FAKES:359.000000=2.000000
;
#LABELS:0.000000=Song Start
;
#NOTES:
// measure 0
00000000
00000000
00000000
00000000
,  // measure 1
02002000
00000000
00000000
03003000
,  // measure 2
00020200
00000000
00000000
00030300
,  // measure 3
00202000
00000000
00000000
00300000
00000000
00013000
00010010
00000010
,  // measure 4
00001000
00000100
00001000
00000100
00000010
00000001
00000010
00000001
00001000
00000010
00001000
00000010
00010000
00001000
00010000
00001000
,  // measure 5
02000000
00000000
03020000
00000000
00130000
01000000
10000000
00100000
,  // measure 6
00010000
00001000
00000100
00000001
00000011
00000000
00001100
00000000
,  // measure 7
00000200
00000000
00002300
00000000
00003010
00000100
00000001
00000010
,  // measure 8
00001000
00010000
01000000
10000000
10100000
00000000
01010000
00000000
,  // measure 9
00010000
00000000
00100000
00000000
01000000
00000000
00010000
00000000
00011000
00000000
00000000
01001000
00000000
00000000
00010100
00000000
,  // measure 10
00000100
00000010
00000001
00000100
00001000
00010000
00100000
10000000
,  // measure 11
01000000
00100000
00010000
00000000
00100000
00001000
00010000
00000000
00010010
00000000
00000000
00101000
00000000
00000000
00011000
00000000
,  // measure 12
00001000
00010000
00000010
00000000
00001000
00000100
00000010
00000000
00001010
00000000
00000000
00011000
00000000
00000000
00110000
00000000
,  // measure 13
00011000
00000000
00000000
00000000
,  // measure 14
00000000
00000000
00000000
00000000
,  // measure 15
00000000
00000000
00000000
000MM000
,  // measure 16
0M000000
00M00000
000000M0
00000M00
,  // measure 17
0M000000
00000000
00000000
00000000
00000000
00000000
00000000
00000000
00000000
00000000
00000000
00000000
00M00000
00000000
00000000
00000000
000M0000
00000000
00000000
00000000
0M000000
00000000
00000000
00000000
0000M000
00000000
00000000
00000000
00M00000
00000000
00000000
00000000
000M0000
00000000
00000000
00000000
0M000000
00000000
00000000
00000000
00000000
00000000
00000000
00000000
00000000
0M000000
00000000
00000000
,  // measure 18
M0000000
00000000
0M000000
00000000
0M0M0000
00000000
00000000
000M0000
00M00000
00000000
M0000000
00000000
M0M00000
00000000
00000000
00M00000
,  // measure 19
000M0000
00000000
0M000000
00000000
M0000000
0M000000
00M00000
00000000
0M000000
00M00000
000M0000
00000000
00000000
00000000
00000000
00000000
,  // measure 20
00000000
00000000
00000000
00000000
,  // measure 21
00000000
00000000
00000000
00000000
,  // measure 22
00000000
00000000
00000000
00000000
,  // measure 23
00000000
00000000
00000000
00012000
,  // measure 24
01000000
00100000
00000010
00000100
,  // measure 25
01000000
00000000
00000000
00000000
00000000
00000000
00000000
00000000
00000000
00000000
00000000
00000000
00103000
00000000
00000000
00000000
00010000
00000000
00000000
00000000
01000000
00000000
00000000
00000000
00001000
00000000
00000000
00000000
00100000
00000000
00000000
00000000
00010000
00000000
00000000
00000000
01000000
00000000
00000000
00000000
00000000
00000000
00000000
00000000
00000000
01000000
00000000
00000000
,  // measure 26
10000000
00000000
01000000
00000000
01010000
00000000
00000000
00010000
00100000
00000000
10000000
00000000
10100000
00000000
00000000
00100000
,  // measure 27
00010000
00000000
01000000
00000000
10000000
01000000
00100000
00000000
01000000
00100000
00010000
00000000
00021000
00000000
00000000
00000000
,  // measure 28
00000100
00000010
00100000
01000000
,  // measure 29
00000100
00000000
00000000
00000000
00000000
00000000
00000000
00000000
00000000
00000000
00000000
00000000
00030010
00000000
00000000
00000000
00001000
00000000
00000000
00000000
00000100
00000000
00000000
00000000
00010000
00000000
00000000
00000000
00000010
00000000
00000000
00000000
00001000
00000000
00000000
00000000
00000100
00000000
00000000
00000000
00000000
00000000
00000000
00000000
00000000
00000100
00000000
00000000
,  // measure 30
00000001
00000000
00000100
00000000
00001100
00000000
00000000
00001000
00000010
00000000
00000001
00000000
00000011
00000000
00000000
00000010
,  // measure 31
00001000
00000000
00000100
00000000
00000001
00000100
00000010
00000000
00000100
00000010
00001000
00000000
00022000
00000000
00033000
00000000
,  // measure 32
00000000
00000000
00011000
00000000
00001000
00100000
00010000
00000000
02020000
00000000
03030000
00000000
01010000
00000000
00010000
10000000
,  // measure 33
01000000
10000000
00010000
00000000
00100000
00001000
00010000
00000000
00022000
00000000
00033000
00000000
00011000
00000000
00001000
00010000
,  // measure 34
00000000
00000010
00000000
00010000
00001000
00000000
00000100
00001000
00000000
00010000
00000000
00001000
00000010
00000000
00000011
00000000
,  // measure 35
00000001
00001000
00000100
00000000
00001000
00000001
00000010
00000000
00001000
00000000
00022000
00000000
00033000
00000000
00011000
00000000
,  // measure 36
00100000
00010000
01000000
00002000
00003000
00000000
00011000
00000000
00000010
00001000
00000100
00020000
00030000
00000000
00011000
00000000
,  // measure 37
01000000
00010000
00100000
00000000
01000000
10000000
00100000
00000000
00010000
00001000
00000010
00000000
00000220
00000330
00000000
00000000
,  // measure 38
00000001
00000000
00000100
00001000
00000100
00000000
00000001
00000010
00000000
00001000
00000000
00010000
00001000
00100000
00001000
00100000
,  // measure 39
00010000
01000000
00010000
01000000
00100000
10000000
01000000
00100000
00020000
00000000
01030000
00000000
01100000
00000000
00000000
00100000
,  // measure 40
10000000
01000000
00010000
00001000
00000010
00000012
00000100
00000003
,  // measure 41
00000102
00000000
00001000
00000000
00000003
00000000
00001001
00000000
00001000
00000000
00000001
00000000
00000100
00000010
00001000
00000000
,  // measure 42
00010000
00000000
01000000
00000000
00100000
01000000
00010000
00000000
10000000
00000000
20100000
00000000
00010000
00000000
30000000
00000000
,  // measure 43
21000000
00000000
00010000
00000000
30000000
00000000
10010000
00000000
00010000
00000000
00100000
00000000
01000000
00010000
00001000
00000000
,  // measure 44
00010000
00001000
00000100
00000000
00000110
00000000
00000000
00000000
00001001
00000000
00000001
00000000
00000010
00001000
00010000
00000000
,  // measure 45
00001000
00010000
00100000
00000000
10000000
00000000
01000000
00000000
01100000
00000000
00000000
00000000
00100000
00001000
00010000
00000000
,  // measure 46
00100000
00010000
00001000
00000000
00101000
00000000
00000000
00010010
00000000
00000000
00011000
00000000
00001000
00010000
00000100
00000000
,  // measure 47
00010000
00001000
00000100
00000000
00000101
00000000
00000000
00000011
00000000
00000000
00001100
00000000
00020100
00000000
00000000
00032000
,  // measure 48
00000000
00000000
01000000
00000000
01003000
00000000
00000000
01010000
00000000
00000000
00000000
00000000
01002000
00000000
00000000
00023000
,  // measure 49
00000000
00000000
00000100
00000000
00030100
00000000
00000000
00001100
00000000
00000000
00000000
00000000
00020100
00000000
00000000
00032000
,  // measure 50
00000000
00000000
00100000
00000000
00103000
00000000
00000000
01100000
00000000
00000000
01000000
00000000
21000000
00000000
00000000
00000000
,  // measure 51
30020000
00000000
00000000
00000000
00032000
00000000
00000000
00000000
00003002
00000000
00000000
00000000
00000103
00000000
00000000
00000110
,  // measure 52
00000000
00000000
00000010
00000000
00001000
00000000
00000000
00011000
00000000
00000000
00010000
00000000
01000000
00000000
00000000
01100000
,  // measure 53
00000000
00000000
00100000
00000000
00010000
00000000
00000000
00011000
00000000
00000000
00001000
00000000
00000100
00000001
00000010
00000000
,  // measure 54
00000010
00001000
00010000
00000000
00001000
00010000
00100000
00000000
00100000
10000000
01000000
00000000
01000000
00100000
00010000
00100000
,  // measure 55
00010000
01000000
00001000
01000000
00001000
00010000
00000010
00010000
00000010
00000100
00001000
00000100
00002000
00003000
00000000
00000000
,  // measure 56
00000000
00000000
00000000
00000000
,  // measure 57
00000000
00000000
00000000
00000000
,  // measure 58
00000000
00000000
00000000
00000000
,  // measure 59
00000000
00000000
00000000
00000000
,  // measure 60
00000000
00000000
00000000
00000000
,  // measure 61
00000000
00000000
00000000
00000000
,  // measure 62
00000000
00000000
00000000
00000000
,  // measure 63
00000000
00000000
00000000
00000000
,  // measure 64
00000000
00000000
00000000
00000000
,  // measure 65
00000000
00000000
00000000
00000000
,  // measure 66
00000000
00000000
000MM000
0M000000
,  // measure 67
00M00000
000000M0
0000000M
00000M00
,  // measure 68
0M000000
00000000
00000000
00000000
000M0000
00000000
00000000
00000000
00M00000
00000000
00000000
00000000
0M000000
00000000
00000000
00000000
000M0000
00000000
00000000
00000000
0000M000
00000000
00000000
00000000
000000M0
00000000
00000000
00000000
00000000
00000000
00000000
00000000
00000000
0000M000
00000000
00000000
000M0000
00000000
00000000
00000000
00000000
00000000
00M00000
00000000
00000000
00000000
00000000
00000000
,  // measure 69
M0M00000
00000000
00000000
M0000000
0M000000
00000000
000M0000
00000000
000MM000
00000000
00000000
0000M000
000000M0
00000000
0000000M
00000000
,  // measure 70
00000M00
0000M000
000M0000
00000000
0M000000
000M0000
0000M000
00000000
00000000
00000000
00000000
00000000
00000000
00000000
00000000
00000000
,  // measure 71
00000000
00000000
00000000
00000000
,  // measure 72
00000000
00000000
00000000
00000000
,  // measure 73
00000000
00000000
00000000
00000000
,  // measure 74
00000000
00012000
01000000
00100000
,  // measure 75
00000010
00000000
00000000
00000001
00000000
00000000
00000100
00000000
00000000
01003000
00010000
00100000
,  // measure 76
01000000
00000000
00000000
00000000
00010000
00000000
00000000
00000000
00001000
00000000
00000000
00000000
00000010
00000000
00000000
00000000
00000000
00000000
00000000
00000000
00000000
00001000
00000000
00000000
00010000
00000000
00000000
00000000
00000000
00000000
00100000
00000000
00000000
00000000
00000000
00000000
10100000
00000000
00000000
00000000
00000000
00000000
00000000
00000000
00000000
10000000
00000000
00000000
,  // measure 77
01000000
00000000
00010000
00000000
00011000
00000000
00000000
00001000
00000010
00000000
00000001
00000000
00000100
00001000
00010000
00000000
,  // measure 78
01000000
00010000
00001000
00000000
00021000
00000000
00000000
00000000
00000100
00000000
00000000
00000000
00000010
00000000
00000000
00000000
,  // measure 79
00100000
00000000
00000000
10000000
00000000
00000000
01000000
00000000
00000000
00030100
00001000
00000010
,  // measure 80
00000100
00000000
00000000
00000000
00001000
00000000
00000000
00000000
00010000
00000000
00000000
00000000
00100000
00000000
00000000
00000000
00000000
00000000
00000000
00000000
00000000
00010000
00000000
00000000
00001000
00000000
00000000
00000000
00000000
00000000
00000010
00000000
00000000
00000000
00000000
00000000
00000011
00000000
00000000
00000000
00000000
00000000
00000000
00000000
00000000
00000001
00000000
00000000
,  // measure 81
00000100
00000000
00001000
00000000
00011000
00000000
00000000
00010000
00100000
00000000
10000000
00000000
01000000
00010000
00001000
00000000
,  // measure 82
00000100
00001000
00010000
00000000
00012000
00000000
00103000
00000000
00210000
00000000
00301000
00000000
00012000
00000000
01003000
00000000
,  // measure 83
01020000
00000000
00130000
00000000
00000000
00000000
01100000
00000000
00000000
00000000
11000000
00000000
10000000
00100000
00010000
00000000
,  // measure 84
00100000
00010000
00001000
00000000
00021000
00000000
00030010
00000000
00001020
00000000
00010030
00000000
00021000
00000000
00030100
00000000
,  // measure 85
00002100
00000000
00003010
00000000
00000010
00000100
00000001
00001000
00000100
00000010
00000001
00001000
00000001
00000000
00000000
00000000
,  // measure 86
00002002
00000000
00003003
00000000
00001000
00000010
00000100
00000000
00001000
00000100
00000010
00000000
00001000
00000100
00000010
00000001
,  // measure 87
00000010
00000000
00000011
00000000
00000000
00000000
00001100
00000000
00000000
00000000
00001000
00000010
00010000
00000010
00001000
00000010
,  // measure 88
00010000
00001000
01000000
00010000
00100000
01000000
00010000
00000000
01000000
00100000
00010000
00000000
00100000
01000000
00010000
00001000
,  // measure 89
00000010
00000000
00000110
00000000
00000001
00000100
00001000
00020000
00030000
00000000
00000000
00000000
00000000
00000000
0001MMMM
00000000
,  // measure 90
MMMM1000
11111111
00000000
00000000
00000000
00000000
00000000
00000000
,  // measure 91
00000000
00000000
00000000
00000000
,  // measure 92
00000000
00000000
00000000
00000000
,  // measure 93
00000000
00000000
00000000
00000000
,  // measure 94
00000000
00000000
00000000
00000000
,  // measure 95
00000000
00000000
00000000
00000000
,  // measure 96
00000000
00000000
00000000
00000000
,  // measure 97
00000000
00000000
00000000
00000000
00000000
00000000
00000000
0001FFFF
,  // measure 98
FFFF1000
MMMMFFFF
00000000
00000000
00000000
00000000
00000000
00000000
;

//---------------dance-double - CDP15 no gimmick version----------------
#NOTEDATA:;
#CHARTNAME:;
#STEPSTYPE:dance-double;
#DESCRIPTION:CDP15 no gimmick version;
#CHARTSTYLE:;
#DIFFICULTY:Edit;
#METER:15;
#RADARVALUES:0.691725,0.877626,0.710057,0.453410,0.581734,566.000000,483.000000,83.000000,53.000000,16.000000,0.000000,0.000000,0.000000,8.000000,0.691725,0.877626,0.710057,0.453410,0.581734,566.000000,483.000000,83.000000,53.000000,16.000000,0.000000,0.000000,0.000000,8.000000;
#CREDIT:MILEN;
#NOTES:
00000000
00000000
00000000
00000000
,
02002000
00000000
00000000
03003000
,
00020200
00000000
00000000
00030300
,
00202000
00000000
00000000
00300000
00000000
00013000
00010010
00000010
,
00001000
00000100
00001000
00000100
00000010
00000001
00000010
00000001
00001000
00000010
00001000
00000010
00010000
00001000
00010000
00001000
,
02000000
00000000
03020000
00000000
00130000
01000000
10000000
00100000
,
00010000
00001000
00000100
00000001
00000011
00000000
00001100
00000000
,
00000200
00000000
00002300
00000000
00003010
00000100
00000001
00000010
,
00001000
00010000
01000000
10000000
10100000
00000000
01010000
00000000
,
00010000
00000000
00100000
00000000
01000000
00000000
00010000
00000000
00011000
00000000
00000000
01001000
00000000
00000000
00010100
00000000
,
00000100
00000010
00000001
00000100
00001000
00010000
00100000
10000000
,
01000000
00100000
00010000
00000000
00100000
00001000
00010000
00000000
00010010
00000000
00000000
00101000
00000000
00000000
00011000
00000000
,
00001000
00010000
00000010
00000000
00001000
00000100
00000010
00000000
00001010
00000000
00000000
00011000
00000000
00000000
00110000
00000000
,
00011000
00000000
00000000
00000000
,
00012000
01000000
00100000
00000010
,
00000100
00000000
00000000
01000000
00000000
00000000
00103000
00010000
01000000
00001000
00100000
00010000
,
01000000
00000000
00000000
01000000
10000000
00000000
01000000
00000000
01010000
00000000
00000000
00010000
00100000
00000000
10000000
00000000
,
10100000
00000000
00000000
00100000
00010000
00000000
01000000
00000000
10000000
01000000
00100000
00000000
01000000
00100000
00010000
00000000
,
00021000
00000100
00000010
00100000
,
01000000
00000000
00000000
00000100
00000000
00000000
00030010
00001000
00000100
00010000
00000010
00001000
,
00000100
00000000
00000000
00000100
00000001
00000000
00000100
00000000
00001100
00000000
00000000
00001000
00000010
00000000
00000001
00000000
,
00000011
00000000
00000000
00000010
00001000
00000000
00000100
00000000
00000001
00000100
00000010
00000000
00000100
00000010
00001000
00000000
,
00022000
00000000
00033000
00000000
00000000
00000000
00011000
00000000
00001000
00100000
00010000
00000000
02020000
00000000
03030000
00000000
,
01010000
00000000
00010000
10000000
01000000
10000000
00010000
00000000
00100000
00001000
00010000
00000000
00022000
00000000
00033000
00000000
,
00011000
00000000
00001000
00010000
00000000
00000010
00000000
00010000
00001000
00000000
00000100
00001000
00000000
00010000
00000000
00001000
,
00000010
00000000
00000011
00000000
00000001
00001000
00000100
00000000
00001000
00000001
00000010
00000000
00001000
00000000
00022000
00000000
,
00033000
00000000
00011000
00000000
00100000
00010000
01000000
00002000
00003000
00000000
00011000
00000000
00000010
00001000
00000100
00020000
,
00030000
00000000
00011000
00000000
01000000
00010000
00100000
00000000
01000000
10000000
00100000
00000000
00010000
00001000
00000010
00000000
,
00000220
00000330
00000000
00000000
00000001
00000000
00000100
00001000
00000100
00000000
00000001
00000010
00000000
00001000
00000000
00010000
,
00001000
00100000
00001000
00100000
00010000
01000000
00010000
01000000
00100000
10000000
01000000
00100000
00020000
00000000
01030000
00000000
,
01100000
00000000
00000000
00100000
10000000
00000000
01000000
00000000
00010000
00000000
00001000
00000000
00000010
00000000
00000012
00000000
,
00000100
00000003
00000102
00001000
00000003
00001001
00001000
00000001
,
00000100
00000010
00001000
00000000
00010000
00000000
01000000
00000000
00100000
01000000
00010000
00000000
10000000
00000000
20100000
00000000
,
00010000
30000000
21000000
00010000
30000000
10010000
00010000
00100000
,
01000000
00010000
00001000
00000000
00010000
00001000
00000100
00000000
00000110
00000000
00000000
00000000
00001001
00000000
00000001
00000000
,
00000010
00001000
00010000
00000000
00001000
00010000
00100000
00000000
10000000
00000000
01000000
00000000
01100000
00000000
00000000
00000000
,
00100000
00001000
00010000
00000000
00100000
00010000
00001000
00000000
00101000
00000000
00000000
00010010
00000000
00000000
00011000
00000000
,
00001000
00010000
00000100
00000000
00010000
00001000
00000100
00000000
00000101
00000000
00000000
00000011
00000000
00000000
00001100
00000000
,
00020100
00000000
00000000
00032000
00000000
00000000
01000000
00000000
01003000
00000000
00000000
01010000
00000000
00000000
00000000
00000000
,
01002000
00000000
00000000
00023000
00000000
00000000
00000100
00000000
00030100
00000000
00000000
00001100
00000000
00000000
00000000
00000000
,
00020100
00000000
00000000
00032000
00000000
00000000
00100000
00000000
00103000
00000000
00000000
01100000
00000000
00000000
01000000
00000000
,
21000000
30020000
00032000
00003002
,
00000103
00000000
00000000
00000110
00000000
00000000
00000010
00000000
00001000
00000000
00000000
00011000
00000000
00000000
00010000
00000000
,
01000000
00000000
00000000
01100000
00000000
00000000
00100000
00000000
00010000
00000000
00000000
00011000
00000000
00000000
00001000
00000000
,
00000100
00000001
00000010
00000000
00000010
00001000
00010000
00000000
00001000
00010000
00100000
00000000
00100000
10000000
01000000
00000000
,
01000000
00100000
00010000
00100000
00010000
01000000
00001000
01000000
00001000
00010000
00000010
00010000
00000010
00000100
00001000
00000100
,
00002000
00003000
00000000
00000000
00000000
00000000
00000000
00000000
00000000
00000000
00000000
00000000
00000000
00000000
00000000
00000000
,
00012000
01000000
00100000
00000010
,
00000001
00000000
00000000
00000100
00000000
00000000
01003000
00010000
00100000
01000000
00010000
00001000
,
00000010
00000000
00000000
00001000
00010000
00000000
00100000
00000000
10100000
00000000
00000000
10000000
01000000
00000000
00010000
00000000
,
00011000
00000000
00000000
00001000
00000010
00000000
00000001
00000000
00000100
00001000
00010000
00000000
01000000
00010000
00001000
00000000
,
00021000
00000100
00000010
00100000
,
10000000
00000000
00000000
01000000
00000000
00000000
00030100
00001000
00000010
00000100
00001000
00010000
,
00100000
00000000
00000000
00010000
00001000
00000000
00000010
00000000
00000011
00000000
00000000
00000001
00000100
00000000
00001000
00000000
,
00011000
00000000
00000000
00010000
00100000
00000000
10000000
00000000
01000000
00010000
00001000
00000000
00000100
00001000
00010000
00000000
,
00012000
00103000
00210000
00301000
00012000
01003000
01020000
00130000
,
00000000
00000000
01100000
00000000
00000000
00000000
11000000
00000000
10000000
00100000
00010000
00000000
00100000
00010000
00001000
00000000
,
00021000
00030010
00001020
00010030
00021000
00030100
00002100
00003010
,
00000010
00000100
00000001
00001000
00000100
00000010
00000001
00001000
00000001
00000000
00000000
00000000
00002002
00000000
00003003
00000000
,
00001000
00000010
00000100
00000000
00001000
00000100
00000010
00000000
00001000
00000100
00000010
00000001
00000010
00000000
00000011
00000000
,
00000000
00000000
00001100
00000000
00000000
00000000
00001000
00000010
00010000
00000010
00001000
00000010
00010000
00001000
01000000
00010000
,
00100000
01000000
00010000
00000000
01000000
00100000
00010000
00000000
00100000
01000000
00010000
00001000
00000010
00000000
00000110
00000000
,
00000001
00000100
00001000
00020000
00030000
00000000
00000000
00000000
00000000
00000000
0001MMMM
00000000
MMMM1000
00000000
MMMMMMMM
00000000
,
00000000
00000000
00000000
00000000
,
00000000
00000000
00000000
00000000
,
00000000
00000000
00000000
00000000
,
00000000
00000000
00000000
00000000
,
00000000
00000000
00000000
00000000
,
00000000
00000000
00000000
00000000
,
00000000
00000000
00000000
00000000
,
00000000
00000000
00000000
00000000
00000000
0001FFFF
FFFF1000
00000000
;
