#VERSION:0.83;
#TITLE:Verse IV;
#SUBTITLE:;
#ARTIST:ZOGRAPHOS (Yu_Asahina+Yamajet);
#TITLETRANSLIT:;
#SUBTITLETRANSLIT:;
#ARTISTTRANSLIT:;
#GENRE:;
#ORIGIN:SOUND VOLTEX II -infinite infection-;
#TAGS:;
#CREDIT:;
#BANNER:Verse IV.png;
#BACKGROUND:Verse IV-bg.png;
#PREVIEWVID:;
#JACKET:Verse IV-jacket.png;
#CDIMAGE:;
#DISCIMAGE:;
#LYRICSPATH:;
#CDTITLE:cdtitle.png;
#MUSIC:Verse IV.ogg;
#OFFSET:-1.750000;
#SAMPLESTART:86.938004;
#SAMPLELENGTH:15.283000;
#SELECTABLE:YES;
#BPMS:0.000000=212.000000
;
#STOPS:;
#DELAYS:;
#WARPS:;
#TIMESIGNATURES:0.000000=6=4
,42.000000=2=4
,44.000000=6=4
,176.000000=2=4
,178.000000=4=4
,194.000000=3=4
,197.000000=4=4
,213.000000=3=4
,216.000000=6=4
,234.000000=4=4
,238.000000=6=4
,244.000000=5=4
,249.000000=6=4
,261.000000=2=11
,283.000000=6=4
,295.000000=7=4
,302.000000=6=4
,308.000000=8=4
,316.000000=6=4
,322.000000=8=4
,330.000000=13=4
,343.000000=7=4
,350.000000=6=4
,356.000000=7=4
,384.000000=6=4
,390.000000=2=11
,395.500000=4=4
;
#TICKCOUNTS:0.000000=4
;
#COMBOS:0.000000=1
;
#SPEEDS:0.000000=1.000000=0.000000=0
,283.000000=0.500000=0.500000=0
,289.000000=4.000000=8.000000=0
,297.000000=1.000000=2.000000=0
;
#SCROLLS:0.000000=1.000000
;
#FAKES:;
#LABELS:0.000000=Song Start
;
#BGCHANGES:;
#KEYSOUNDS:;
#ATTACKS:
;

//---------------dance-single - ----------------
#NOTEDATA:;
#CHARTNAME:;
#CHARTHASH:1945289218;
#STEPSTYPE:dance-single;
#BANNER:;
#DESCRIPTION:;
#CHARTSTYLE:;
#DIFFICULTY:Easy;
#METER:12;
#METERF:0.000000;
#LASTSECONDHINT:121.183960;
#RADARVALUES:0.511763,0.745929,0.746321,0.298529,0.019640,456.000000,361.000000,95.000000,38.000000,0.000000,0.000000,0.000000,0.000000,0.000000,0.511763,0.745929,0.746321,0.298529,0.019640,456.000000,361.000000,95.000000,38.000000,0.000000,0.000000,0.000000,0.000000,0.000000;
#CREDIT:ヨセフ;
#NOTES:
// measure 0
0000
0000
0000
0000
,  // measure 1
0000
0000
0000
0000
,  // measure 2
0000
0000
0000
0000
,  // measure 3
0000
0000
0000
0000
,  // measure 4
0000
0000
0000
0000
,  // measure 5
0000
0000
0000
0000
0000
0000
0000
0000
0000
0000
0000
0000
0000
0000
0000
1001
,  // measure 6
0000
0000
1000
0001
1000
0000
0000
0000
,  // measure 7
0110
1001
0011
0110
,  // measure 8
1100
1010
0101
0011
,  // measure 9
2200
0000
0000
0000
,  // measure 10
0000
0000
0300
3000
0000
0000
0000
0000
,  // measure 11
0002
0100
1000
0100
,  // measure 12
0010
2003
0100
0010
,  // measure 13
0100
0000
0001
0000
3100
0000
0010
0001
,  // measure 14
0020
0100
0001
0100
,  // measure 15
0031
0200
0010
0001
,  // measure 16
0310
1000
0010
0000
0110
0000
0101
0000
,  // measure 17
2001
0100
0010
0100
,  // measure 18
3001
1000
0002
0000
0010
0000
0100
0000
,  // measure 19
0010
0000
1000
0000
0103
0001
0200
0000
,  // measure 20
0010
0000
0001
0000
0010
0000
0301
1000
,  // measure 21
0002
1000
0100
0010
,  // measure 22
0103
0001
0000
0100
0001
0000
1000
0000
,  // measure 23
0002
0010
0100
1000
,  // measure 24
0100
0023
0230
2300
,  // measure 25
3010
0200
0000
0301
,  // measure 26
2000
0100
0010
3002
,  // measure 27
0010
0000
0100
0000
0003
1001
0000
0000
,  // measure 28
0110
0000
0000
1001
0000
0000
0101
0000
,  // measure 29
2001
0000
0100
0000
0010
0000
3001
0100
,  // measure 30
0001
2000
0100
0010
,  // measure 31
3000
0001
0000
1000
0000
0001
0000
0000
0000
0000
0100
0000
0010
0000
0000
0000
,  // measure 32
1001
0000
0000
1000
0001
0000
0000
0100
,  // measure 33
0001
0000
1000
0001
0000
0000
0110
0000
,  // measure 34
0000
1001
0000
0000
0000
0011
0000
0000
,  // measure 35
2200
0300
0000
0000
3010
0000
1000
0001
,  // measure 36
0000
0000
0000
0000
0202
0303
0000
0000
0000
0000
0000
0000
0100
0000
0000
0000
0000
0000
0000
0000
2002
0000
0000
0000
0000
0000
0000
0000
3003
0000
0000
0000
,  // measure 37
1001
0000
1000
0000
0100
0000
0010
0001
,  // measure 38
0010
0100
1000
0010
,  // measure 39
0101
1010
1001
0011
,  // measure 40
0010
0200
0000
0000
1300
0000
0001
0100
,  // measure 41
0000
0010
1000
0001
,  // measure 42
0110
0000
2200
3300
0000
1010
0000
1000
,  // measure 43
0001
0010
0100
1000
,  // measure 44
2002
3003
1010
1000
,  // measure 45
0001
0010
0110
0100
,  // measure 46
1000
0001
0101
0100
,  // measure 47
0010
1000
1001
0001
,  // measure 48
0010
0100
1100
1000
,  // measure 49
0000
0001
0100
0000
0001
0000
1000
0000
,  // measure 50
0100
0011
0001
1000
,  // measure 51
0010
0101
1000
0001
,  // measure 52
1000
0101
0010
0100
,  // measure 53
0010
1001
0011
1100
,  // measure 54
2001
0000
0000
0010
0000
0000
0010
0000
,  // measure 55
0001
0000
0001
0000
3200
0000
0000
0010
,  // measure 56
0000
0010
1000
1000
,  // measure 57
0310
0000
0000
0010
0000
0000
0001
0000
,  // measure 58
0000
0001
0000
0000
1001
0000
1001
0000
,  // measure 59
1010
0101
1001
1000
,  // measure 60
0001
0100
0001
1000
,  // measure 61
0100
0000
0000
0010
0000
0000
0011
0000
,  // measure 62
1001
0000
1010
0000
1010
0000
0000
1000
,  // measure 63
0000
1001
0000
0001
1000
0000
1100
0000
,  // measure 64
0000
1001
0000
0000
0101
0000
0100
0000
,  // measure 65
0010
1000
0010
0101
,  // measure 66
1000
0000
0010
0000
0000
1000
0000
0100
,  // measure 67
0000
0011
0000
1000
0000
0100
0000
0000
,  // measure 68
0010
0001
1010
1000
,  // measure 69
0001
0000
0000
0010
0000
0100
0000
1001
,  // measure 70
0000
0010
0000
0100
0000
0000
1001
0000
,  // measure 71
0000
0000
0000
0000
,  // measure 72
0000
0020
0000
0000
,  // measure 73
0000
0000
0000
0000
,  // measure 74
0000
0000
0000
0130
,  // measure 75
0000
0000
0000
0000
1001
0000
0000
1001
,  // measure 76
0000
0000
0101
0000
0000
1001
0000
0000
,  // measure 77
1100
0000
0100
0000
0000
0110
0000
0000
,  // measure 78
0011
0000
0000
1001
0000
0000
1010
0000
,  // measure 79
0010
0100
1000
0100
,  // measure 80
0001
0010
1100
1001
,  // measure 81
0101
1010
1001
0011
,  // measure 82
1100
1010
2001
0010
,  // measure 83
0100
0000
0010
0000
3001
0000
0100
0001
,  // measure 84
0000
0000
0100
0001
0000
0000
1000
0000
,  // measure 85
0100
0000
0010
0000
0001
1000
0001
0000
,  // measure 86
0100
1000
0100
0010
,  // measure 87
0100
0000
0001
0000
1000
0000
0001
0100
,  // measure 88
0000
0101
0101
0002
,  // measure 89
1003
0100
0001
0100
,  // measure 90
1000
0000
0001
0000
0100
0010
0100
0000
,  // measure 91
0001
1000
0010
0100
,  // measure 92
0001
0000
1000
0001
1000
0000
0010
0000
,  // measure 93
0100
0001
0010
0100
,  // measure 94
1000
0001
1000
0000
0001
0000
0100
0000
,  // measure 95
0010
1000
0001
0010
,  // measure 96
1100
0000
0000
1001
0000
0000
1010
0000
,  // measure 97
0000
1001
0000
0000
0011
0000
0000
1001
,  // measure 98
0000
0000
0101
0000
0000
1001
0000
0110
,  // measure 99
0000
0001
0000
1000
0000
0100
0010
0000
,  // measure 100
0001
0001
0000
1000
0000
0010
0000
0100
,  // measure 101
0100
0001
0000
1000
0000
0100
0000
0010
,  // measure 102
0010
0001
0000
1000
0000
0010
0000
0101
,  // measure 103
0000
0020
0000
0000
0000
0000
0000
0000
,  // measure 104
0000
0000
0030
0000
0000
2002
0000
0000
,  // measure 105
0000
0000
3003
0000
;

//---------------dance-single - ----------------
#NOTEDATA:;
#CHARTNAME:;
#CHARTHASH:3917072144;
#STEPSTYPE:dance-single;
#BANNER:;
#DESCRIPTION:;
#CHARTSTYLE:;
#DIFFICULTY:Medium;
#METER:14;
#METERF:0.000000;
#LASTSECONDHINT:121.183960;
#RADARVALUES:0.708164,0.745929,0.290673,0.235680,0.141408,631.000000,594.000000,37.000000,30.000000,0.000000,0.000000,0.000000,0.000000,0.000000,0.708164,0.745929,0.290673,0.235680,0.141408,631.000000,594.000000,37.000000,30.000000,0.000000,0.000000,0.000000,0.000000,0.000000;
#CREDIT:ヨセフ;
#NOTES:
// measure 0
0000
0000
0000
0000
,  // measure 1
0000
0000
0000
0000
,  // measure 2
0000
0000
0000
0000
,  // measure 3
0000
0000
0000
0000
,  // measure 4
0000
0000
0000
0000
,  // measure 5
0000
0000
0000
0000
0000
0000
0000
0000
0000
0000
0000
0000
0000
0000
0000
1001
,  // measure 6
0000
0000
1000
0001
0010
0000
0000
0100
,  // measure 7
0010
0000
0000
1000
0000
0000
0010
0000
0000
0001
0000
0000
1000
0000
0000
0000
1000
0000
0010
0000
0000
0000
0010
0000
,  // measure 8
0100
0000
0100
0001
0000
0001
0010
0000
0010
0100
1000
0001
,  // measure 9
0200
0000
0000
0000
,  // measure 10
0000
0000
0000
0002
0303
0000
0000
0000
,  // measure 11
1010
0000
0000
0000
0010
0000
0000
0100
0000
0000
0001
0000
1000
0000
0100
0000
,  // measure 12
0010
0000
0001
0000
0000
1000
0000
0000
0010
0000
0000
0100
0000
0000
0001
0000
,  // measure 13
1000
0000
0100
0000
1000
0000
0010
0000
0100
0000
0001
0000
0000
1000
0000
0000
,  // measure 14
0010
0000
0000
1000
0000
0000
0001
0000
0010
0000
0100
0000
0010
0000
0001
0000
,  // measure 15
0100
0000
0010
0000
0000
1000
0000
0000
0001
0000
0000
0010
0000
0000
0001
0000
,  // measure 16
0000
0100
1000
0100
0001
0010
0100
1000
,  // measure 17
0010
0000
0000
0000
0100
0000
0000
0001
0000
0000
1000
0000
0010
0000
0100
0000
,  // measure 18
0010
0000
1000
0000
0000
0001
0000
0000
0010
0000
0000
0100
0000
0000
1000
0000
,  // measure 19
0001
0000
0010
0000
0001
0000
0100
0000
0010
0000
1000
0000
0000
0001
0000
0000
,  // measure 20
0010
0000
0000
0100
0000
0000
0010
0000
0001
0000
1000
0000
0010
0000
1000
0000
,  // measure 21
0100
0000
0001
0000
0000
0100
0000
0000
1000
0000
0000
0001
0000
0000
0100
0000
,  // measure 22
0000
1000
0100
0001
0010
0100
1000
0010
,  // measure 23
0200
0001
0010
1000
,  // measure 24
0010
0302
0023
0230
,  // measure 25
0320
0000
2030
0000
3010
0010
0001
1000
,  // measure 26
0020
0100
1000
0230
,  // measure 27
1000
0000
0010
0000
0301
0100
0000
0000
,  // measure 28
1001
0000
0000
1100
0000
0000
0110
0000
,  // measure 29
0010
0000
0000
0000
0001
0000
0000
1000
0000
0000
0010
0000
0100
0000
0001
0000
,  // measure 30
1000
0000
0100
0000
0000
1000
0000
0000
0010
0000
0000
0100
0000
0000
1000
0000
,  // measure 31
0000
0100
0000
0001
0000
1000
0100
0000
0001
0000
0100
0000
1000
0000
0010
0000
,  // measure 32
0100
0001
0010
0001
0100
0010
1000
0100
,  // measure 33
1000
0000
0001
0000
0100
0000
0010
0000
0000
1000
0010
0000
0100
0000
0000
0001
,  // measure 34
0010
0000
0000
0100
0000
0000
1000
0000
0010
0000
0200
0000
0000
0000
0300
0000
,  // measure 35
0001
0020
0000
0000
0130
0010
0001
0100
,  // measure 36
0000
0000
0000
0000
2020
3030
0000
0000
0000
0000
0000
0000
1000
0000
0000
0000
0100
0000
0000
0000
0020
0000
0000
0000
0000
0000
0000
0000
0130
0000
0000
0000
,  // measure 37
1000
0001
0100
0001
0000
1000
0100
1000
,  // measure 38
0010
0100
0010
0002
0000
0013
1000
0001
,  // measure 39
0010
0100
0110
0000
1001
0000
1100
1000
,  // measure 40
0010
0200
0001
0000
0310
1000
0100
0020
,  // measure 41
0100
0000
0031
1000
0001
0100
0010
1000
,  // measure 42
0100
0000
0022
0033
0000
1010
0000
1000
,  // measure 43
0100
0010
0100
1000
0001
0100
0020
0000
,  // measure 44
2000
0000
3030
0000
1000
0100
0010
0100
,  // measure 45
1000
0001
0100
0001
1000
0100
0010
0001
,  // measure 46
0100
0010
1000
0001
0010
1000
0010
0001
,  // measure 47
0100
1000
0100
0010
1000
0100
0010
0001
,  // measure 48
0100
0000
0010
0000
1000
0000
0001
0000
0010
0000
0100
0000
1000
0000
0000
0001
,  // measure 49
0000
0100
0010
1000
0100
1000
0010
0100
,  // measure 50
0001
0010
0001
0100
0010
1000
0100
1000
,  // measure 51
0010
0100
0001
0010
0001
1000
0100
0001
,  // measure 52
0100
1000
0010
0100
0001
0010
1000
0010
,  // measure 53
0001
0100
0010
1000
0001
0010
0100
1000
,  // measure 54
0010
0000
0100
0000
0001
1000
0000
0001
,  // measure 55
0010
0000
0100
1000
0001
0000
0100
0000
,  // measure 56
0010
1000
0100
0000
0020
0000
0032
0000
,  // measure 57
0103
0000
0000
0100
0000
0000
0001
0000
,  // measure 58
0000
0001
0000
0000
1000
0000
0100
0000
,  // measure 59
0010
0001
1001
1000
,  // measure 60
0010
0100
0001
0000
1000
0000
0100
0010
,  // measure 61
0001
0010
0000
0001
1000
0000
1001
0000
,  // measure 62
0110
0000
1001
0000
1001
0000
1000
0100
,  // measure 63
0010
0000
0001
0000
0000
0000
0001
0000
0100
0000
0000
0000
0110
0000
0000
0110
,  // measure 64
0000
0000
0000
1010
0000
0000
0000
0000
0000
0000
0000
0000
1001
0000
0000
0000
0000
0000
0001
0000
0000
0000
0010
0000
,  // measure 65
0000
0000
0100
0000
0000
0000
1000
0000
0000
0010
0000
0000
1000
0000
0000
0100
0000
0000
1000
0000
0000
0010
0000
0000
,  // measure 66
1000
0100
0010
0000
0001
0100
0001
0010
,  // measure 67
0001
0100
0001
0010
0100
1000
0010
0100
,  // measure 68
0001
0010
0001
0100
0001
0010
0001
0100
,  // measure 69
0010
1000
0100
0001
0100
1000
0100
0001
,  // measure 70
0100
1000
0010
0001
0010
1000
0001
0000
,  // measure 71
0000
0000
0000
0000
,  // measure 72
0000
0000
1000
0001
1000
0001
1000
0001
,  // measure 73
1000
0001
1000
0001
1000
0001
1000
0001
,  // measure 74
1000
0001
1000
0001
1000
0001
1000
0000
,  // measure 75
0000
0000
0000
0000
1001
0000
1000
0010
,  // measure 76
0000
1000
0010
0000
0100
0001
0000
0100
,  // measure 77
0001
1000
0001
0000
1000
0100
0000
1000
,  // measure 78
0100
0000
0010
0001
0000
0010
0001
0100
,  // measure 79
0010
0000
0001
0010
0100
0001
1000
0100
,  // measure 80
0010
0001
0100
0010
1000
0000
1001
0000
,  // measure 81
0011
0110
1100
1001
,  // measure 82
0001
0100
1000
0100
0020
0000
0001
0000
,  // measure 83
0100
0000
1000
0000
0130
0000
0010
0002
,  // measure 84
0000
0000
0013
0100
0000
0000
0001
0010
,  // measure 85
0100
1000
0010
0100
0001
0010
2000
0000
,  // measure 86
3010
0001
0100
0010
1000
0001
0010
0100
,  // measure 87
0010
0001
1000
0010
0100
0000
0001
0100
,  // measure 88
0000
0001
1000
0000
1001
0000
0001
0010
,  // measure 89
0100
1000
0001
1000
0100
0010
0001
1000
,  // measure 90
0001
0100
0010
1000
0100
0010
0001
0100
,  // measure 91
0010
0100
0001
1000
0100
1000
0001
0100
,  // measure 92
0010
1000
0100
0010
1000
0010
0100
1000
,  // measure 93
0001
0100
1000
0100
0001
0010
0100
1000
,  // measure 94
0010
0100
0010
1000
0001
0010
0100
0010
,  // measure 95
0001
1000
0010
0100
0001
0010
0100
1000
,  // measure 96
1001
0000
0000
1100
0000
0000
0011
0000
,  // measure 97
0000
1001
0000
0000
1010
0000
0000
0101
,  // measure 98
0000
0000
0011
0000
0000
1100
0000
1000
,  // measure 99
1000
0001
0100
0010
1000
0001
0010
0000
,  // measure 100
0100
1000
1000
0010
0010
0100
0100
0001
,  // measure 101
0001
0010
0010
0001
0001
0100
0100
1000
,  // measure 102
1000
0100
0100
0001
0001
0010
0010
0110
,  // measure 103
0000
0020
0000
0000
0000
0000
0000
0000
,  // measure 104
0000
0000
0030
0000
0000
2200
0000
0000
,  // measure 105
0000
0000
3300
0000
;

//---------------dance-single - ----------------
#NOTEDATA:;
#CHARTNAME:;
#CHARTHASH:4137438789;
#STEPSTYPE:dance-single;
#BANNER:;
#DESCRIPTION:;
#CHARTSTYLE:;
#DIFFICULTY:Hard;
#METER:18;
#METERF:0.000000;
#LASTSECONDHINT:121.183960;
#RADARVALUES:0.938233,1.367536,0.204256,0.219968,0.923082,836.000000,810.000000,26.000000,28.000000,0.000000,0.000000,0.000000,0.000000,0.000000,0.938233,1.367536,0.204256,0.219968,0.923082,836.000000,810.000000,26.000000,28.000000,0.000000,0.000000,0.000000,0.000000,0.000000;
#CREDIT:ヨセフ;
#NOTES:
// measure 0
0000
0000
0000
0000
,  // measure 1
0000
0000
0000
0000
,  // measure 2
0000
0000
0000
0000
,  // measure 3
0000
0000
0000
0000
,  // measure 4
0000
0000
0000
0000
,  // measure 5
0000
0000
0000
0000
0000
0000
0000
0000
0000
0000
0000
0000
0000
0000
0000
1000
,  // measure 6
0000
0000
0000
0000
0001
0000
0001
0000
0011
0000
0000
0000
0000
0000
0010
0100
,  // measure 7
1000
0000
0000
0000
0000
0000
0010
0000
0000
0000
0000
0000
0100
0000
0000
0001
0000
0000
0100
0000
0000
0001
0000
0000
1000
0000
0000
0000
0100
0000
0000
0000
1000
0000
0000
0000
0001
0000
0000
0000
0100
0000
0000
0000
0001
0000
0000
0000
,  // measure 8
1000
0010
1000
0001
0010
0001
1000
0010
1000
0100
0010
0001
,  // measure 9
0200
0000
0000
0000
,  // measure 10
0000
0000
0310
2020
3030
0000
0000
0000
,  // measure 11
1000
0010
0000
1000
0010
0000
0100
0001
0000
0100
0001
0000
1000
0000
0100
0000
,  // measure 12
0010
0000
0100
0000
1000
0001
0000
1000
0001
0000
0100
0001
0000
0100
0001
0000
,  // measure 13
1000
0000
0100
0000
0010
0000
0001
0000
0100
0000
0010
0000
1000
0001
0000
1000
,  // measure 14
0001
0000
0010
0001
0000
0010
0001
0000
1000
0000
0010
0000
0100
0000
0010
0000
,  // measure 15
1000
0000
0100
0000
0010
0001
0000
0010
0001
0000
1000
0010
0000
1000
0010
0100
,  // measure 16
0000
0000
0001
0010
0100
0000
0001
0000
0100
0000
1000
0001
0100
0000
0010
0000
,  // measure 17
1000
0010
0000
0100
0001
0000
1000
0010
0000
0100
0001
0000
1000
0000
0100
0000
,  // measure 18
0010
0000
0100
0000
1000
0001
0000
0100
0001
0000
1000
0001
0000
0100
0001
0000
,  // measure 19
0010
0000
0100
0000
0010
0000
0001
0000
0100
0000
0010
0000
1000
0100
0000
0010
,  // measure 20
0001
0000
1000
0100
0000
0010
0001
0000
1000
0000
0010
0000
0100
0000
0010
0000
,  // measure 21
1000
0000
0100
0000
0010
0001
0000
1000
0010
0000
0100
0001
0000
0010
0001
1000
,  // measure 22
0000
0000
0010
0100
1000
0000
0100
0000
0010
0000
1000
0000
0001
0000
0010
0000
,  // measure 23
0200
1000
0010
0001
,  // measure 24
1000
0000
0000
0000
0310
0000
0001
1000
0002
0000
0000
0000
0203
0000
0000
0000
,  // measure 25
2300
0000
0000
0000
3200
0000
0000
0000
0301
0000
0001
0000
0010
0000
0100
1000
,  // measure 26
0200
0010
1000
0320
,  // measure 27
0100
0000
0001
0000
0030
0011
0000
0000
,  // measure 28
1001
0000
0000
1010
0000
0000
1000
0100
,  // measure 29
0010
0001
0000
1000
0001
0000
1000
0010
0000
0100
0001
0000
1000
0000
0100
0000
,  // measure 30
0010
0000
0100
0000
1000
0001
0000
1000
0010
0000
1000
0100
0000
0010
0001
0000
,  // measure 31
1000
0010
0000
0001
0000
0010
0100
0001
0100
0000
0001
0000
0010
0000
0100
0000
,  // measure 32
1000
0000
0001
0100
0010
0000
1000
0000
0001
0010
0100
0000
1000
0000
0010
0100
,  // measure 33
0001
0000
1000
0000
0100
0010
0001
0000
0000
1000
0010
0000
0100
0000
0000
0001
,  // measure 34
0010
0000
0100
1000
0000
0000
0010
0000
0100
0000
0002
0000
0000
0000
0003
0000
,  // measure 35
1000
0000
0002
0000
0000
0000
0000
0000
0013
0000
0100
1000
0100
0000
0010
0000
,  // measure 36
0000
0000
0000
0000
0022
0033
0000
0000
0000
0000
0000
0000
0001
0000
0000
0000
0100
0000
0000
0000
0020
0000
0000
0000
0000
0000
0000
0000
1030
0000
0000
0000
,  // measure 37
0001
0000
1000
0000
0100
0000
0010
0000
0000
0000
0001
0000
0100
0000
0010
1000
,  // measure 38
0001
0010
0100
0002
0000
0103
0010
0001
,  // measure 39
1000
0000
0010
0000
0100
0000
0001
1000
0200
0000
0000
0000
0310
0000
0001
0000
,  // measure 40
1000
0000
0020
0000
0100
0000
0000
0000
1030
0000
0001
0010
0100
0000
2000
0000
,  // measure 41
0010
0000
3001
0100
0001
0010
0100
0010
,  // measure 42
0001
0000
0000
0000
2002
0000
3003
0000
0000
0000
1010
0000
0000
0000
1000
0001
,  // measure 43
0010
0000
0100
0000
1000
0001
0100
0000
0010
0000
0001
0000
0010
0000
0100
0001
,  // measure 44
2000
0000
0000
0000
3000
0000
0000
0000
1001
0000
0000
1000
0010
0000
0000
0010
,  // measure 45
0100
0000
0000
0100
0001
0000
0000
0001
0010
0000
0000
0010
0100
0000
0000
0100
,  // measure 46
1000
0000
0000
1000
0010
0000
0000
0010
0100
0000
0000
0100
1000
0000
0000
1000
,  // measure 47
0100
0000
0000
0100
0001
0000
0000
0001
0010
0000
0000
0010
1000
0000
0000
1000
,  // measure 48
0010
0000
0000
0010
0001
0000
0000
0001
0100
0000
0000
0100
0010
0000
0000
1000
,  // measure 49
0000
0000
0001
0010
0100
0000
1000
0100
0000
0000
0100
0010
0000
0000
0010
0001
,  // measure 50
0000
0000
0001
0100
0000
0000
0100
0010
0000
0000
0010
1000
0000
0000
1000
0100
,  // measure 51
0000
0000
0100
0010
0000
0000
0010
0001
0000
0000
0001
0100
0000
0000
0100
1000
,  // measure 52
0000
0000
1000
0100
0000
0000
0100
0001
0000
0000
0001
0010
0000
0000
0010
0000
,  // measure 53
1000
0001
0100
1000
0010
0100
0001
1000
,  // measure 54
0100
0000
0010
0010
0001
1000
0000
0010
,  // measure 55
0100
0100
0010
1000
0100
0000
0010
0001
,  // measure 56
1000
0000
0000
0010
0000
0000
0001
0000
0000
0010
0000
0000
0100
0000
0000
0000
0100
0000
0001
0000
1000
0000
0010
0000
,  // measure 57
0100
0000
0000
0001
0000
0000
1000
0000
,  // measure 58
0000
0001
0000
0000
0010
0000
0110
0000
,  // measure 59
1100
0000
1001
0000
0001
0100
0010
0100
,  // measure 60
0001
1000
0100
0010
0001
0100
0010
0010
,  // measure 61
1000
0001
0000
0010
0001
0100
0010
1000
,  // measure 62
0100
0000
0010
0000
0001
0010
0001
0000
1000
0001
1000
0000
0001
0000
0100
0010
,  // measure 63
1000
0010
0100
0000
0000
0000
0001
0000
1001
0000
0000
0000
1010
0000
0000
1001
,  // measure 64
0000
0000
0000
0000
0000
0000
0011
0000
0000
0000
0000
0000
0001
0000
0000
0010
0000
0000
0001
0000
0000
0010
0000
0000
0001
0000
0000
0000
0000
0000
0000
0000
0000
0000
0000
0000
1000
0000
0000
0000
0010
0000
0000
0000
0100
0000
0000
0000
,  // measure 65
0001
0000
0000
0000
0010
0000
0000
0000
0100
0000
0000
0000
1000
0000
0000
0100
0000
0000
1000
0000
0000
0000
0000
0000
0001
0000
0000
0100
0000
0000
0001
0000
0000
0000
0000
0000
1000
0000
0000
0010
0000
0000
1000
0000
0000
0000
0000
0000
,  // measure 66
0001
0010
0001
0000
1000
0100
1000
0000
0010
0100
0001
0100
0001
0000
1000
0100
,  // measure 67
1000
0000
0001
0010
0001
0000
1000
0010
1000
0000
0001
0000
1000
0100
1000
0100
,  // measure 68
0010
0001
0010
0000
0100
1000
0100
0000
1000
0010
1000
0000
0001
0100
0001
0000
,  // measure 69
0010
0100
1000
0100
1000
0001
0100
0010
1000
0000
0001
0010
0100
0000
1000
0001
,  // measure 70
0100
0001
0010
0100
1000
0000
0001
0100
0001
0010
0100
1000
0010
0000
0000
0000
,  // measure 71
0000
0000
0000
0000
,  // measure 72
0000
0000
0000
0000
1000
0001
1000
0001
1000
0001
1000
0001
1000
0001
1000
0001
,  // measure 73
1000
0001
1000
0001
1000
0001
1000
0001
1000
0001
1000
0001
1000
0001
1000
0001
,  // measure 74
1000
0001
1000
0001
1000
0001
1000
0001
1000
0001
1000
0001
1000
0000
0000
0000
,  // measure 75
0000
0000
0000
0000
1001
0000
1000
0001
,  // measure 76
0000
0100
0001
0000
1000
0001
0000
0010
,  // measure 77
0001
0000
1000
0001
1000
0000
0000
0000
0010
0000
1000
0000
0000
0000
0001
0000
,  // measure 78
1000
0000
0000
0000
0001
0000
0010
0000
0000
0000
0001
0000
0100
0000
0010
1000
,  // measure 79
0010
0000
0000
0000
0100
0001
0100
0000
0001
1000
0001
0000
1000
0100
1000
0000
,  // measure 80
0001
0100
0001
0000
1000
0000
0100
0000
0010
0000
0001
1000
0001
0000
0000
0000
,  // measure 81
1001
0000
0000
0000
1000
0010
0100
0000
0001
1000
0100
0000
0010
0001
1000
0000
,  // measure 82
0001
0100
0010
0100
0002
0000
0100
0000
,  // measure 83
1000
0000
0010
0000
0103
0000
0010
0001
,  // measure 84
0010
0000
0100
0000
0001
0000
2000
0000
0000
0000
0000
0000
3100
0010
0001
0000
,  // measure 85
1000
0010
0100
0000
0001
0010
0100
0000
1000
0100
0010
0100
2000
0000
0000
0000
,  // measure 86
3001
0100
0010
0000
1000
0001
0010
0000
0100
1000
0010
0000
0100
0001
1000
0000
,  // measure 87
0001
0000
0000
0010
0000
0000
0100
0000
0000
0010
0000
0000
0001
0000
0000
0000
1000
0000
0000
0000
0010
0000
0000
0000
0100
0000
0000
0000
0000
0000
0001
0000
0000
1000
0000
0000
0001
0000
0000
0000
0000
0000
1000
0000
0000
0000
0000
0000
,  // measure 88
0000
0000
0001
0000
0100
0000
0000
0000
0010
0000
1000
0000
0001
0010
0100
1000
,  // measure 89
0001
0000
0100
0000
0010
0000
0100
0000
0001
0000
1000
0000
0100
0000
0010
0001
,  // measure 90
1000
0000
0010
0000
0100
0001
1000
0000
0100
0010
0100
0010
0001
0000
1000
0000
,  // measure 91
0010
0000
1000
0000
0001
0000
0010
0000
0100
1000
0001
0000
0100
0010
1000
0000
,  // measure 92
0001
0010
0100
0000
1000
0010
1000
0010
0100
0000
0001
0000
0010
0100
1000
0000
,  // measure 93
0010
0100
0001
0000
0010
0100
1000
0000
0001
0000
0100
0000
0010
0000
1000
0000
,  // measure 94
0100
0000
0010
0000
0001
1000
0010
0000
0100
0001
1000
0000
0100
0010
0001
0000
,  // measure 95
1000
0000
0010
0000
0100
0001
0100
0001
1000
0001
1000
0001
1000
0100
1000
0100
,  // measure 96
0010
0000
0000
0101
0000
0000
1001
0000
,  // measure 97
0000
1100
0000
0000
0011
0000
0000
0101
,  // measure 98
0000
0000
1010
0000
0000
1100
0000
1000
,  // measure 99
1000
0000
0001
0000
1000
0000
0010
0100
0010
0100
0001
0100
0001
1000
0001
0000
,  // measure 100
0010
0100
0100
1000
1000
0001
0001
0100
,  // measure 101
0100
0000
1000
0000
1000
0000
0100
0000
0100
0000
0001
0000
0001
0000
1000
0010
,  // measure 102
1000
0010
0100
0001
0100
0001
1000
0100
1000
0100
0010
0001
0010
0001
1000
0000
,  // measure 103
0000
0020
0000
0000
0000
0000
0000
0000
,  // measure 104
0000
0000
0030
0000
0000
0202
0000
0000
,  // measure 105
0000
0000
0303
0000
;

//---------------dance-single - ----------------
#NOTEDATA:;
#CHARTNAME:;
#CHARTHASH:1946491914;
#STEPSTYPE:dance-single;
#BANNER:;
#DESCRIPTION:;
#CHARTSTYLE:;
#DIFFICULTY:Edit;
#METER:19;
#METERF:0.000000;
#LASTSECONDHINT:121.183960;
#RADARVALUES:1.203093,1.367536,0.329953,0.259248,1.492643,1072.000000,1030.000000,42.000000,33.000000,0.000000,0.000000,0.000000,0.000000,0.000000,1.203093,1.367536,0.329953,0.259248,1.492643,1072.000000,1030.000000,42.000000,33.000000,0.000000,0.000000,0.000000,0.000000,0.000000;
#CREDIT:ヨセフ ver.IV;
#NOTES:
// measure 0
0000
0000
0000
0000
,  // measure 1
0000
0000
0000
0000
,  // measure 2
0000
0000
0000
0000
,  // measure 3
0000
0000
0000
0000
,  // measure 4
0000
0000
0000
0000
,  // measure 5
0000
0000
0000
0000
0000
0000
0000
0000
0000
0000
0000
0000
0000
0000
0000
1000
,  // measure 6
0000
0100
1000
0010
0100
0001
1000
0100
0010
0001
1000
0010
0100
0010
1000
0001
,  // measure 7
0010
0000
0000
0000
0000
0000
0100
0000
0000
0000
0000
0000
1000
0000
0000
0001
0000
0000
0100
0000
0000
0010
0000
0000
1000
0000
0010
0000
1000
0000
0000
0000
0001
0000
0000
0000
0100
0000
0001
0000
0100
0000
0000
0000
0010
0000
0000
0000
,  // measure 8
1000
0001
1000
0000
0100
0000
0010
0000
0001
0000
1000
0000
0001
0100
0001
0000
1000
0000
0100
0010
0100
0000
1000
0000
,  // measure 9
0002
0000
0000
0000
,  // measure 10
0000
0000
1003
2200
3300
0000
0000
0000
,  // measure 11
1000
0010
0000
1000
0001
0000
1000
0100
0000
1000
0001
0000
0100
0000
0010
0000
,  // measure 12
1000
0001
0010
0000
0001
0100
0000
0001
1000
0000
0001
0010
0000
0001
0100
0000
,  // measure 13
0010
0000
1000
0000
0100
1000
0010
0000
0100
0000
1000
0000
0100
0010
0000
0100
,  // measure 14
0001
0000
1000
0001
0000
0010
0001
0000
1000
0000
0100
0000
0010
0100
1000
0000
,  // measure 15
0010
0000
0001
0000
0010
0100
0000
0001
0100
0000
0001
1000
0000
0000
0001
0010
,  // measure 16
0100
0000
0010
1000
0010
0100
1000
0001
0100
0010
1000
0100
0010
0001
1000
0010
,  // measure 17
0100
0001
0000
1000
0001
0000
1000
0100
0000
0010
0001
0000
1000
0000
0010
0000
,  // measure 18
0100
0001
0010
0000
0100
1000
0000
0001
1000
0000
0010
1000
0000
0001
0100
0000
,  // measure 19
0001
0000
0010
0000
0100
1000
0010
0000
0100
0000
1000
0000
0100
0010
0000
0100
,  // measure 20
0001
0000
1000
0100
0000
0010
0001
0000
1000
0000
0010
0000
0100
0001
0010
0000
,  // measure 21
0100
0000
0001
0000
0100
0010
0000
0001
1000
0000
0001
0100
0000
0010
1000
0000
,  // measure 22
0000
0000
0001
0100
0010
0001
0010
0100
0001
1000
0100
0010
0001
0100
0001
1000
,  // measure 23
0200
0010
1000
0001
,  // measure 24
1000
0000
0000
0000
0310
0000
0001
0100
0020
0000
0000
0000
0032
0000
0000
0000
,  // measure 25
2003
0000
0000
0000
3200
0000
0000
0000
0310
0000
0010
0000
1010
0000
1000
0001
,  // measure 26
0020
1000
0100
0032
,  // measure 27
1000
0000
0103
0000
0000
0101
0001
0010
,  // measure 28
1100
0000
1000
0000
0010
0000
0101
0000
0001
0000
0010
0000
0100
1000
0010
0100
,  // measure 29
0001
1000
0000
0001
0100
0000
0010
1000
0000
0001
0010
0000
0100
0000
1000
0000
,  // measure 30
0010
0100
0001
0000
1000
0010
0000
0100
0001
0000
0010
0100
0000
0010
1000
0000
,  // measure 31
0010
0100
0000
0001
0000
0100
1000
0010
0100
1000
0100
0010
1000
0100
0010
0001
,  // measure 32
1000
0000
0010
0100
0001
1000
0010
1000
0100
0010
0001
1000
0100
1000
0010
0100
,  // measure 33
0001
1000
0100
0010
0001
0100
0010
1000
0001
0010
0100
0000
1000
0000
0000
0001
,  // measure 34
0100
0000
0010
1000
0000
0000
0001
0000
0011
0000
2000
0000
0000
3000
0000
0000
,  // measure 35
1001
0000
0020
0000
0000
0000
0030
0000
0101
0000
0100
0010
1000
0000
0001
0000
,  // measure 36
0000
0000
0000
0000
2002
3003
0000
0000
0000
0000
0000
0000
1000
0000
0000
0000
0100
0000
0000
0000
0022
0000
0000
0000
0030
0000
0000
0000
1003
0000
0000
0000
,  // measure 37
1010
0000
0010
0000
0100
0000
0001
0000
1000
0000
0100
0000
0010
0000
0010
0001
,  // measure 38
1000
0010
0100
0001
0010
0100
0002
0000
0103
0010
0001
1000
0010
0100
0001
1000
,  // measure 39
0200
0000
0300
0000
0011
0000
0001
0100
0010
1000
0100
0010
0001
0000
0100
0000
,  // measure 40
0010
0000
2010
0000
0000
0000
0000
0000
3001
0000
0010
0100
1000
0000
0020
0000
,  // measure 41
0000
0000
0000
0130
0001
0000
1000
0000
0001
0000
0010
0000
1100
0000
1000
0000
,  // measure 42
1010
0000
0000
0000
0202
0000
0303
0000
0000
0000
1001
0000
0000
0000
1000
0100
,  // measure 43
0010
0001
0010
0001
1000
0010
0100
0010
1000
0000
0100
0000
0010
0000
0001
0000
,  // measure 44
2002
0000
0000
0000
3003
0000
0000
0000
1000
0000
0010
0100
0001
0000
0010
0100
,  // measure 45
1000
0000
0010
0100
0001
0000
1000
0100
0010
0000
0001
0100
0010
0000
1000
0100
,  // measure 46
0010
0000
0001
1000
0010
0000
0100
0001
0010
0000
0100
1000
0010
0000
0100
0001
,  // measure 47
0010
0000
0100
1000
0001
0000
0100
0010
1000
0000
0100
0010
0001
0000
0100
0010
,  // measure 48
1000
0000
0100
0010
0001
0000
1000
0010
0100
0000
0001
0010
0100
0000
0000
1100
,  // measure 49
0000
0000
1001
0000
0001
0000
0100
0010
1000
0000
0100
0010
0001
0000
0100
0010
,  // measure 50
0001
0000
0010
0100
0001
0000
1000
0100
0010
0000
0001
1000
0010
0000
0001
0010
,  // measure 51
0100
0000
0001
1000
0100
0000
0010
0001
0100
0000
0010
1000
0100
0000
0010
0100
,  // measure 52
0001
0000
0100
0010
0001
0000
0100
0010
1000
0000
0001
0010
0100
0000
1000
0001
,  // measure 53
1000
0010
1000
0001
0010
0100
0010
0001
0100
0010
1000
0001
0010
0100
1000
0001
,  // measure 54
0100
0000
0001
0001
0100
0010
0000
1000
,  // measure 55
0001
0001
0010
0100
1000
0000
0001
0100
,  // measure 56
0010
0000
0000
0100
0000
0000
0001
0000
0000
1000
0000
0000
0100
0000
0010
0000
0001
0000
0100
0000
0010
0000
1000
0000
,  // measure 57
0001
0000
0000
0100
0000
0000
0001
0000
,  // measure 58
0000
1000
0000
0100
0010
1000
0010
0001
,  // measure 59
1000
0000
0000
0000
0010
0000
0000
0000
0100
0000
0000
0000
0001
0000
0000
0000
1000
0000
0000
0000
0100
0000
0000
0000
0010
0000
0000
0000
0000
0000
0001
0000
0000
0000
0000
0000
1000
0000
0000
0010
0000
0000
0100
0000
0000
0000
0000
0000
,  // measure 60
0001
1000
0100
1000
0010
0100
0001
0001
,  // measure 61
1001
0000
0010
0000
0000
0000
0100
0000
0010
0000
0100
0000
1001
0000
0000
1000
,  // measure 62
0010
0000
0100
0001
1000
0010
0100
0010
1000
0001
0010
0100
1000
0001
0100
0001
,  // measure 63
0010
0100
1000
0010
0100
0001
1000
0100
0010
0001
1000
0010
1000
0001
0010
0001
,  // measure 64
1000
0000
0000
0100
0000
0000
1000
0000
0000
0001
0000
0000
0100
0000
0000
0001
0000
0000
1000
0000
0000
0100
0000
0000
0010
0000
0000
0100
0000
0000
1000
0000
0000
0001
0000
0000
1000
0000
0000
0000
0001
0000
0000
0000
0010
0000
0000
0000
,  // measure 65
0100
0000
0000
0000
0010
0000
0000
0000
0001
0000
0000
0000
0100
0000
0000
0010
0000
0000
1000
0000
0000
0001
0000
0000
0010
0000
0000
0100
0000
0000
0010
0000
0000
0001
0000
0000
1000
0000
0000
0010
0000
0000
1000
0000
0000
0001
0000
0000
,  // measure 66
0010
0100
1000
0010
0100
0001
1000
0100
0010
0001
0100
0010
1000
0001
0010
0100
,  // measure 67
0010
0001
1000
0010
1000
0001
0010
0100
1000
0010
0100
0001
1000
0100
0010
0001
,  // measure 68
0100
0010
0001
0010
0100
0001
1000
0100
0010
0001
1000
0010
0100
1000
0100
0010
,  // measure 69
1000
0001
0010
0100
1000
0010
0100
0001
1000
0100
0010
1000
0010
0001
1000
0010
,  // measure 70
0100
0001
0010
1000
0010
0100
1000
0010
0100
0001
0010
0100
1000
0000
0000
0000
,  // measure 71
0000
0000
0000
0000
,  // measure 72
0000
0000
0000
0000
0001
1000
0001
1000
0001
1000
0001
1000
0001
1000
0001
1000
,  // measure 73
0001
1000
0001
1000
0001
1000
0001
1000
0001
1000
0001
1000
0001
1000
0001
1000
,  // measure 74
0001
1000
0001
1000
0001
1000
0001
1000
0001
1000
0001
1000
0001
0000
0000
0000
,  // measure 75
0000
0000
0000
0000
1001
0000
1000
1100
,  // measure 76
0000
0001
0101
0000
1000
1010
0001
0100
,  // measure 77
0100
0000
0001
1000
0100
0000
0010
0000
0001
0000
1000
0000
0000
0000
0010
0000
,  // measure 78
1000
0000
0100
0000
0010
0000
0001
0000
0200
0000
0000
0320
0000
0000
2030
0000
,  // measure 79
3002
0000
0000
0000
0013
0100
0001
0100
0010
0001
1000
0010
0100
0001
1000
0100
,  // measure 80
0010
0001
1000
0010
0100
0000
0001
0000
0010
0000
0100
1000
0001
0000
0000
0000
,  // measure 81
0101
0000
0100
0000
0010
1000
0001
0010
0001
1000
0100
1000
0001
0100
0001
1000
,  // measure 82
0100
0010
0001
0100
0010
1000
0001
0010
0200
0000
0000
0000
1000
0000
0000
0000
,  // measure 83
0001
0000
0010
0000
1300
0000
0010
0001
,  // measure 84
0020
0000
0000
0000
1030
0000
0100
0000
0001
0000
0000
0000
0100
1000
0001
0100
,  // measure 85
0010
1000
0100
0010
0001
1000
0001
0100
0010
1000
0100
0001
0200
0000
0000
0000
,  // measure 86
1300
0001
0100
0010
0100
0001
1000
0100
0010
0001
1000
0010
1000
0100
0010
0001
,  // measure 87
1000
0000
0000
0010
0000
0000
0100
0000
0000
0010
0000
0000
1000
0000
0000
0000
0001
0000
0000
0000
0010
0000
0000
0000
0100
0000
0000
0000
0000
0000
1000
0000
0000
0001
0000
0000
0100
0000
0000
0000
0000
0000
0001
0000
0000
0000
0000
0000
,  // measure 88
0000
0000
1000
0000
1100
0000
0000
0000
0001
0010
0001
1000
0001
1000
0100
0010
,  // measure 89
0001
0000
1000
0000
0100
0000
1000
0000
0010
0000
0100
0000
1000
0000
0100
0010
,  // measure 90
0100
0001
1000
0100
0010
0001
1000
0010
1000
0001
0010
0100
1000
0000
0001
0000
,  // measure 91
0100
0000
1000
0000
0100
0000
0001
0000
0010
0100
0010
0001
1000
0010
0100
0001
,  // measure 92
1000
0100
0010
0001
0100
0001
1000
0100
0010
0000
0001
0000
0100
0010
1000
0001
,  // measure 93
0010
0100
1000
0010
0100
1000
0100
0010
1000
0001
0010
0100
1000
0000
0010
0000
,  // measure 94
0100
0000
0001
0000
1000
0100
1000
0001
0100
0010
1000
0001
0010
0100
0010
0001
,  // measure 95
1000
0010
0100
0001
1000
0100
0010
0001
0100
0010
1000
0001
0010
0100
0010
0001
,  // measure 96
0010
0100
1000
1010
0010
0100
0101
0001
,  // measure 97
0010
0110
0100
1000
1010
0001
0010
1100
,  // measure 98
0001
0100
1010
0001
1000
0110
0001
1001
,  // measure 99
1001
0000
1000
0000
0001
0000
1000
0100
1000
0010
0100
0001
1000
0010
1000
0000
,  // measure 100
1010
0010
0100
0101
0001
1000
0100
1001
,  // measure 101
0001
0000
0100
0000
0010
0000
1001
0000
0001
0000
0010
0000
0100
0000
1000
0100
,  // measure 102
1000
0010
0100
0001
0010
0001
0100
0010
1000
0100
1000
0001
0010
0001
0100
0000
,  // measure 103
0000
0000
0010
1000
0100
0010
0001
0100
0001
1000
0100
0010
0001
1000
0010
0100
,  // measure 104
0001
0010
0100
1000
0001
0000
0000
0000
0000
0000
0202
0000
0000
0000
0000
0000
,  // measure 105
0000
0000
0303
0000
;

//---------------dance-single - ----------------
#NOTEDATA:;
#CHARTNAME:;
#CHARTHASH:35920220;
#STEPSTYPE:dance-single;
#BANNER:;
#DESCRIPTION:;
#CHARTSTYLE:;
#DIFFICULTY:Beginner;
#METER:8;
#METERF:0.000000;
#LASTSECONDHINT:1.750000;
#RADARVALUES:0.294039,0.372964,0.172832,0.227824,0.007856,262.000000,240.000000,22.000000,29.000000,0.000000,0.000000,0.000000,0.000000,0.000000,0.294039,0.372964,0.172832,0.227824,0.007856,262.000000,240.000000,22.000000,29.000000,0.000000,0.000000,0.000000,0.000000,0.000000;
#CREDIT:;
#NOTES:
// measure 0
0000
0000
0000
0000
,  // measure 1
0000
0000
0000
0000
,  // measure 2
0000
0000
0000
0000
,  // measure 3
0000
0000
0000
0000
,  // measure 4
0000
0000
0000
0000
,  // measure 5
0000
0000
0000
0000
0000
0000
0000
0000
0000
0000
0000
0000
0000
0000
0000
1001
,  // measure 6
0000
1000
1001
0000
,  // measure 7
0001
0100
0010
0010
,  // measure 8
1000
1000
0001
0001
,  // measure 9
0020
0000
0000
0000
,  // measure 10
0030
0000
0000
0020
0030
0000
0000
0000
,  // measure 11
1001
0000
0000
1000
,  // measure 12
1000
0010
0000
0000
,  // measure 13
0100
0100
0001
0001
,  // measure 14
1000
1000
0100
0000
,  // measure 15
0010
0010
0001
0000
,  // measure 16
1000
1000
0010
0010
,  // measure 17
0100
0001
0100
0000
,  // measure 18
0001
1000
0001
0000
,  // measure 19
1000
0100
1000
0000
,  // measure 20
0001
1000
0001
0000
,  // measure 21
0100
0010
1000
0000
,  // measure 22
0000
1001
0000
0000
,  // measure 23
2002
0000
3003
0000
,  // measure 24
0000
0001
0100
0001
,  // measure 25
0200
0300
0000
0010
,  // measure 26
0020
0000
0030
2000
,  // measure 27
0000
0000
3000
0000
0000
0001
0000
0000
,  // measure 28
0001
0000
0000
0001
0000
0000
0001
0000
,  // measure 29
1000
0001
1000
0000
,  // measure 30
0001
0100
0010
0000
,  // measure 31
1000
0001
1000
0000
,  // measure 32
1001
0000
0110
0000
,  // measure 33
1001
0000
0100
0000
,  // measure 34
0010
0000
0000
0000
0000
0110
0000
0000
,  // measure 35
1001
0000
0001
0000
,  // measure 36
0000
0000
0000
0000
0200
0300
0000
0000
0000
0000
0000
0000
0000
0000
0000
0000
0000
0000
0000
0000
0010
0000
0000
0000
0000
0000
0000
0000
0000
0000
0000
0000
,  // measure 37
1001
0000
0100
0010
,  // measure 38
0000
2002
0000
3003
,  // measure 39
1000
0010
0100
0002
,  // measure 40
0000
0003
0000
0000
0000
1000
0000
2000
,  // measure 41
0000
3000
1000
0001
,  // measure 42
1000
0000
0001
0000
0000
1001
0000
0000
,  // measure 43
1000
1000
0100
0100
,  // measure 44
0020
0030
0001
0001
,  // measure 45
0100
0000
0010
0010
,  // measure 46
1000
0000
0001
0001
,  // measure 47
0010
0000
0100
0100
,  // measure 48
1000
0000
0001
0001
,  // measure 49
0000
1000
0010
1000
,  // measure 50
0000
0001
0100
0001
,  // measure 51
0000
1000
0100
1000
,  // measure 52
0000
0001
0010
0001
,  // measure 53
0000
1000
0001
1000
,  // measure 54
0001
0000
0000
0000
,  // measure 55
0100
0000
0010
0000
,  // measure 56
0000
0000
1000
0000
,  // measure 57
0001
0000
0000
1000
,  // measure 58
0000
0000
0100
0100
,  // measure 59
0010
0010
0001
0000
,  // measure 60
1000
0000
0010
0000
,  // measure 61
1001
0000
0000
0110
,  // measure 62
0000
1000
1000
0000
,  // measure 63
0000
0001
0000
0000
0001
0000
0001
0000
,  // measure 64
0000
1000
0000
0000
1000
0000
2000
0000
,  // measure 65
3000
0100
0100
0100
,  // measure 66
0010
0000
0010
0000
0000
0001
0000
0001
,  // measure 67
0000
0001
0000
1000
0000
1000
0000
0000
,  // measure 68
0010
0010
0010
0100
,  // measure 69
0100
0000
0000
0001
0000
0001
0000
0001
,  // measure 70
0000
0010
0000
0010
0000
0000
1001
0000
,  // measure 71
0000
0000
0000
0000
,  // measure 72
0000
0020
0000
0000
,  // measure 73
0000
0000
0000
0000
,  // measure 74
0000
0000
0000
0030
,  // measure 75
0000
0000
1001
0000
,  // measure 76
0000
1000
0000
0000
,  // measure 77
0001
0001
0100
0000
,  // measure 78
0010
0000
2000
3000
,  // measure 79
0001
0001
0010
0010
,  // measure 80
0001
0001
1000
1000
,  // measure 81
1000
0000
0001
0000
,  // measure 82
0100
0010
2000
0000
,  // measure 83
0000
0000
3000
0200
,  // measure 84
0300
0020
0030
0001
,  // measure 85
0100
0010
1000
0001
,  // measure 86
0002
0000
0000
0000
,  // measure 87
0000
0013
0020
0000
,  // measure 88
0000
0030
0000
0000
,  // measure 89
0200
0000
0000
0300
,  // measure 90
1000
1000
0001
0002
,  // measure 91
0000
0003
0100
0100
,  // measure 92
0010
0010
2000
3000
,  // measure 93
0002
0003
0020
0030
,  // measure 94
0100
0100
1000
1000
,  // measure 95
0001
0002
0000
0003
,  // measure 96
1001
0000
0000
0110
,  // measure 97
0000
0000
1001
0000
,  // measure 98
0000
0000
0110
0000
0000
0000
0000
1001
,  // measure 99
0000
0000
0000
0001
0000
0000
0000
0000
,  // measure 100
0000
0100
0000
0100
0000
0100
0000
0010
,  // measure 101
0000
0010
0000
0010
0000
0010
0000
1000
,  // measure 102
0000
0001
0000
1000
0000
0100
0000
0010
,  // measure 103
0000
0020
0000
0000
0000
0000
0000
0000
,  // measure 104
0000
0030
0000
0000
0000
0200
0000
0000
,  // measure 105
0000
0000
0300
0000
;
