#TITLE:VECTOR↑ZΣ;
#SUBTITLE:;
#ARTIST:Trina Lydia;
#TITLETRANSLIT:VECTORIZE;
#SUBTITLETRANSLIT:;
#ARTISTTRANSLIT:;
#GENRE:DIRECTION and MAGNITUDE;
#CREDIT:;
#MUSIC:VECTORIZE.ogg;
#BANNER:VECTORIZE.png;
#BACKGROUND:VECTORIZE-bg.png;
#CDTITLE:;
#SAMPLESTART:95.616;
#SAMPLELENGTH:14.999;
#SELECTABLE:YES;
#OFFSET:0.000;
#BPMS:0.000=89.420
,16.000=178.840
,52.000=89.420
,55.000=178.840
,168.000=89.420
,184.000=178.840
,244.000=89.420
,248.000=178.840
,280.000=89.420
,283.500=178.840
,358.000=357.680
,360.000=178.840
,361.000=89.420
,362.000=178.840
;
#STOPS:55.000=0.335
,283.500=0.168
;
#DISPLAYBPM:89.420:178.840;
#BGCHANGES:0.000=VECTORIZE.avi=1.000=1=0=0=StretchNoLoop==CrossFade==;
#FGCHANGES:;

//--------------- dance-single - KAYSTAR ----------------
#NOTES:
     dance-single:
     KAYSTAR:
     Beginner:
     5:
     0,0,0,0,0:
0000
0000
0000
0000
,
0000
0000
0000
0000
,
2000
0000
3000
0000
,
0002
0000
0003
0000
,
1000
0000
0000
0100
0000
0000
0020
0000
,
0000
0000
0030
0000
,
0001
0000
0000
0100
0000
0000
0020
0000
,
0000
0000
0030
0000
,
2000
0000
3000
0000
,
0001
0000
0001
0000
,
0010
0000
0010
0000
,
0100
0000
0100
0000
,
1000
0000
1000
0000
,
0002
0000
0003
0000
,
0100
0000
0010
0000
,
2000
0000
3000
0000
,
0001
0000
0010
0000
,
0001
0000
0000
1000
,
0000
0010
0000
1000
,
0000
0000
0001
0000
,
0010
0000
0100
0000
,
0000
1000
0000
0010
,
0000
0100
0000
0000
,
0001
0000
1000
0000
,
0100
0000
1000
1000
,
0000
0001
0000
0100
,
0000
0001
0001
0000
,
1000
0000
0100
0000
,
0010
0010
0000
0001
,
0000
0100
0000
0010
,
0010
0020
0000
0000
,
0000
0030
0000
0000
,
1000
0000
0100
0000
,
0010
0000
0001
0000
,
0000
1000
1000
1000
,
0000
0010
0010
0010
,
0000
0100
0100
0100
,
0000
0001
0001
0000
,
1001
0000
0000
0110
0000
0000
2002
0000
,
0000
0000
3003
0000
,
1000
0000
0100
0000
,
0010
0000
0001
0000
,
2002
3003
0000
0000
0000
0000
0000
0000
0000
0000
0000
0000
0000
0000
0000
0000
,
0000
0000
0000
0000
,
2000
0000
3000
0000
,
0002
0000
0003
0000
,
1000
0000
1000
0000
,
0010
0000
0010
0000
,
0100
0000
0100
0000
,
0001
0000
0001
0000
,
2000
0000
0000
0000
,
3000
0000
0000
0000
,
0100
0000
0010
0000
,
0002
0000
0000
0000
,
0003
0000
0000
0000
,
1000
0000
1000
0000
,
0000
0000
0000
0000
,
0001
0000
0001
0000
,
1000
0000
0010
0000
,
0100
0000
0001
0000
,
0010
0000
0100
0000
,
2000
0000
3000
0000
,
0001
0000
0100
0000
,
0010
0010
0010
0000
,
1000
0000
0100
0000
,
0010
0010
0010
0000
,
0001
0000
0001
0000
,
1000
0000
1000
0000
,
0010
0010
0010
0000
,
0100
0000
0001
0000
,
2002
0000
3003
0000
,
0001
0000
0010
0000
,
0100
0100
0100
0000
,
1000
0000
1000
0000
,
0001
0000
0001
0000
,
0100
0100
0100
0000
,
0010
0000
1000
0000
,
2002
0000
0000
0000
,
0000
0000
3003
0000
,
0220
0000
0000
0000
,
0000
0000
0330
0000
,
1000
0000
0001
0000
,
0010
0010
0010
0000
,
0001
0000
1000
0000
,
0010
0010
0010
0000
,
0100
0000
0001
0000
,
1000
0000
0100
0000
,
0000
0010
0010
0010
,
0010
0000
0000
0000
1001
0000
0000
0110
,
0000
0000
2002
0000
,
0000
0000
3003
0000
;

//--------------- dance-single - KAYSTAR ----------------
#NOTES:
     dance-single:
     KAYSTAR:
     Easy:
     10:
     0,0,0,0,0:
0000
0000
0000
0000
,
0000
0000
0000
0000
,
1000
0100
1000
0000
0001
0100
0001
0000
,
1000
0100
0010
0001
0100
0100
0010
0010
,
1000
0000
0000
0001
0000
0000
2002
0000
,
0000
0000
0000
3003
,
0100
0000
0000
0010
0000
0000
0220
0000
,
0000
0000
0000
0330
,
2002
0000
0000
3003
,
0001
0010
0100
1000
,
0001
0001
1000
1000
,
0001
0100
0010
1000
,
0100
0100
0010
0010
,
0002
0000
0000
0003
,
1000
0000
0001
0000
1000
0001
1000
0001
,
2000
0000
3000
0000
,
0002
0103
0020
1030
,
0001
1000
0001
0000
1000
0000
0002
0000
,
0013
0200
1300
0001
,
0100
0010
2000
0000
,
3001
0010
0100
0100
,
1000
0001
0100
0100
,
0010
1000
2002
3003
,
0001
0000
0010
0000
0001
0010
0100
0000
,
2000
0000
3020
0000
0130
0001
0100
0000
,
0001
1000
1001
0001
,
0010
0100
0000
0100
1000
0000
0010
0000
,
1000
0010
0100
0000
0002
0000
0023
0000
,
0130
1000
0100
0000
1000
0000
0001
0000
,
1001
0000
1000
0010
0100
0001
1000
0010
,
0100
0002
0000
2003
,
0000
3001
0010
0100
,
2000
0000
3002
0000
,
1003
0000
0010
0100
0000
0100
0001
0000
,
0000
0022
0000
0000
,
0033
2200
0000
0000
,
3300
0000
0001
0100
0010
0000
0100
0010
,
1000
0000
0001
0010
0100
1000
0001
0000
,
1001
0000
0000
0110
0000
0000
2002
0000
,
0000
0000
3003
0000
,
1000
0010
0100
0001
,
0010
0100
1000
0000
,
2002
3003
0000
0000
0000
0000
0000
0000
0000
0000
0000
0000
0000
0000
0000
0000
,
0000
0000
0000
0000
,
0001
0100
0010
0000
0100
0010
1000
0000
,
0001
0000
0010
0000
0100
0000
1000
0000
0001
0000
0000
0100
0000
0010
0000
0000
,
2000
0000
3200
0000
,
0320
0032
2003
0000
,
3002
0000
0203
0000
,
0320
2030
3002
0023
,
0230
0000
0000
0000
,
1300
0001
1000
0001
,
0100
0010
0100
0010
0100
0010
0100
0000
,
2002
0000
0000
0000
,
3003
0000
0000
0001
,
0010
1000
0010
0001
,
1001
0000
0000
1000
,
0010
0001
0010
1000
,
0002
0000
2003
0000
,
3100
0010
0100
0010
,
0002
0203
0320
1030
,
2002
0000
3003
0000
,
1000
0000
0100
0000
1000
0100
0010
0000
,
0100
0001
0100
0010
,
0001
0000
0100
0000
0001
0100
0010
0000
,
0100
1000
0100
0010
,
2000
0010
3002
0010
,
1003
0010
0100
0001
,
1001
0000
0110
0000
,
1000
0100
0010
0001
1000
0100
0010
0000
,
2002
0000
3003
0000
,
1000
0000
0010
0000
1000
0010
0100
0000
,
0010
0001
0010
0100
,
0002
0100
2003
0100
,
3001
0100
0010
1000
,
1001
0000
0110
0000
,
0001
0010
0100
1000
0001
0010
0100
0000
,
1000
0000
1000
0000
,
0001
0000
0001
0000
,
0220
0000
0000
0000
,
0000
0000
0330
0000
,
2000
3100
0020
0031
,
1000
0010
1000
0010
0100
0001
0100
0001
,
1000
0100
0010
0001
,
1000
0000
0000
0001
0000
0000
1000
0000
0000
0000
0001
0000
1000
0000
0000
0000
,
0001
0100
0001
0100
0010
0000
0010
0000
,
1000
0100
1000
0100
0010
0000
0010
0000
,
0000
0000
0001
1000
0001
1000
0001
1000
,
0001
0000
1000
0000
0001
0000
0000
0000
1000
0000
0000
0001
0000
0000
1001
0000
,
0000
0000
0220
0000
,
0000
0000
0330
0000
;

//--------------- dance-single - KAYSTAR ----------------
#NOTES:
     dance-single:
     KAYSTAR:
     Medium:
     13:
     0,0,0,0,0:
0000
0000
0000
0000
,
0000
0000
0000
0000
,
1000
0000
0000
0100
0010
0000
0000
0001
0000
0001
0000
0100
0010
0000
1000
0000
,
0001
0010
0100
0000
1000
0010
0100
0000
0002
0000
0023
0000
0230
0000
1300
0000
,
1001
0000
0000
0101
0000
0000
2020
0000
,
0000
0000
0000
0000
0000
0000
0000
0000
3030
0000
1000
0001
1000
0000
0000
0000
,
1001
0000
0000
1100
0000
0000
0022
0000
,
0000
0000
0000
0030
,
2000
0000
0000
3003
,
0001
0000
0100
0000
0010
0000
1000
0000
0001
0000
0000
0010
0000
0000
0001
0000
,
1000
0010
0100
0000
0001
0010
0100
0000
,
1000
0000
0001
0000
0100
0000
0001
0000
1000
0000
0000
0100
0000
0000
0010
0000
,
0000
0001
0000
0000
1000
0000
0010
0000
0100
0000
0001
0000
0010
0000
0000
0000
,
0002
0000
0000
0003
,
1000
0010
0100
0001
1000
0100
0001
0100
,
2000
0000
0000
0000
,
3002
0100
2003
0100
,
3001
0000
0100
0000
0010
0000
0000
1000
0000
0000
1000
0000
0002
0000
0000
0000
,
0010
0000
0000
0000
1003
0000
0010
0000
0100
0000
0001
0000
0000
0001
0000
0000
,
1000
0000
0000
0100
0000
0000
0010
0000
0002
0000
0000
0000
0000
0000
0000
0000
,
1003
0010
0100
0001
1000
0010
0100
0001
,
1000
0010
0100
0001
1000
1000
0100
0100
,
0010
0010
0001
0001
2000
0000
0000
0000
,
3001
0000
0000
0000
0100
0000
0010
0000
1000
0000
0000
1000
0100
0000
0010
0000
,
0001
0000
1000
0000
0010
0000
0010
0000
1000
0000
0001
0000
0010
0000
0000
0100
,
0000
0000
0010
0000
0000
0100
0000
0000
1000
0000
0000
0000
0001
0000
0100
0000
,
1000
0100
0001
0000
2000
0000
3100
0010
,
0001
0000
0000
0001
0100
0000
0010
0000
1000
0000
0001
0000
0010
0000
0010
0000
,
0001
0000
1000
0000
0010
0000
0000
0100
0000
0000
0001
0000
1000
0000
0100
0000
,
1000
0001
0100
0010
0100
0010
1000
0000
,
1001
0000
0002
0000
0013
0000
0100
1000
,
0001
0000
2000
0000
3010
0000
0100
0001
,
1000
0100
0010
0000
0100
0010
0001
1000
,
0010
0000
0000
0010
0000
0000
0100
0000
0000
0100
0000
0000
2002
0000
0000
0000
,
3003
0000
1000
0100
0010
0001
0100
0010
,
1000
0000
0001
0100
0010
1000
0100
0010
,
0001
0000
1000
0100
0001
0100
1000
0100
,
0010
0000
0001
0100
1000
0100
0001
0100
,
0010
0000
0000
0010
0000
0000
1000
0000
0000
0001
0000
0000
2002
0000
0000
0000
,
0000
0000
3003
0000
1000
0100
0010
0001
,
0100
0010
1000
0100
0010
0001
1000
0010
,
0001
0010
2000
0000
3001
0000
0000
0000
,
2002
3003
0000
0000
0000
0000
0000
0000
0000
0000
0000
0000
0000
0000
0000
0000
,
0000
0000
0000
0000
,
0002
0000
0010
0000
0000
1003
0000
0000
2000
0000
0010
0000
0000
3001
0000
0000
,
0002
0000
0010
0000
0000
1003
0000
0000
1001
0000
0000
0001
0000
0100
0000
0010
,
2000
0000
3200
0000
,
0320
0032
2003
0000
,
3002
0000
0203
0000
,
0320
2030
3002
0023
,
0230
0000
0000
0000
,
1300
0001
1000
0001
0100
0010
1000
0000
,
0001
0010
0100
1000
0001
0100
1000
0100
,
0002
0000
0000
0000
0000
2000
0000
0000
,
3003
0000
0000
0000
0000
0000
0001
0100
,
0010
0000
0000
0010
0000
0000
0020
0000
0000
0000
0000
0000
0000
0000
1030
0000
,
1001
0000
0000
0000
0000
0000
1000
0100
,
0010
0000
0000
0010
0000
0000
0010
0000
0001
0000
1000
0000
0010
0000
0100
0000
,
0002
0100
1000
0010
,
1000
0000
0103
0000
0001
0100
0010
0000
,
2000
0000
0010
0000
0001
0000
3100
0010
,
0002
0000
0003
0000
,
1000
0000
0000
0001
0100
0000
0010
0000
0100
0001
0000
0000
1000
0000
0100
0000
,
0010
0010
0001
0001
1000
0010
0200
0000
,
0301
0000
0000
1000
0100
0000
0010
0000
0100
1000
0000
0000
0001
0000
0100
0000
,
0010
0010
1000
1000
0001
0010
0200
0000
,
1300
0000
0001
0100
0001
0000
0100
0000
0010
0000
1000
0010
1000
0000
0001
0000
,
0010
0010
0100
0100
1000
0001
0100
0000
,
0110
0000
0000
0000
1001
0000
0000
0000
1000
0000
0000
0100
0000
0000
0010
0000
,
0001
1000
0001
1000
0010
0100
0001
0000
,
0020
0000
0030
0000
,
0001
0000
0000
1000
0010
0000
0100
0000
0010
1000
0000
0000
0001
0000
0010
0000
,
0100
0100
1000
1000
0001
0100
0020
0000
,
1030
0000
0001
0010
0001
0000
0010
0000
0100
0000
1000
0100
1000
0000
0001
0000
,
0100
0100
0010
0010
1000
0100
0001
0100
,
2000
3020
0230
0302
,
1003
0100
0010
0001
0100
1000
0100
0001
,
1000
0000
0000
0100
0000
0010
0000
0001
0000
1000
0000
1000
0000
1000
0000
0000
,
0000
0010
0000
0010
0000
0010
0000
0000
0000
0100
0000
0100
0000
0100
0000
0000
,
0002
0000
0000
0000
,
0000
0000
1003
0000
,
0002
0010
2003
0010
,
3001
0010
0100
1000
0001
0010
0100
1000
,
0001
0100
0010
2000
0000
3100
0010
0001
,
1000
0000
0010
0100
0000
0010
0100
0000
0000
0000
0001
0000
1001
0000
0000
0000
,
1000
0100
0000
0100
0010
0000
0000
0011
0000
0000
0001
0000
1000
0000
0000
0000
,
0001
0100
0000
0100
0010
0000
0000
1010
0000
0000
1000
0000
0001
0000
1001
0000
,
0000
0000
0001
0010
1000
0010
0001
0010
,
1000
0000
0010
0000
0001
0000
0000
0000
1010
0000
0000
0110
0000
0000
0101
0000
,
0000
0000
2002
0000
,
0000
0000
0000
3003
1001
0000
0000
0000
;

//--------------- dance-single - KAYSTAR ----------------
#NOTES:
     dance-single:
     KAYSTAR:
     Hard:
     16:
     0,0,0,0,0:
0000
0000
0000
0000
,
0000
0000
0000
0000
,
1000
0001
0100
0001
0010
0100
1000
0000
0001
1000
0100
1000
0010
0100
0001
0000
,
1000
0100
0010
0001
0100
0001
0010
0100
1000
0001
1000
0001
0100
0010
1000
0000
,
1200
0000
0000
0310
0000
0000
0120
0000
0000
0031
0000
0000
2002
0000
0000
0000
,
0000
0000
0000
0000
0000
0000
0000
0000
3003
0000
0001
1000
0001
0000
0000
0000
,
0201
0000
0000
0310
0000
0000
0120
0000
0000
1030
0000
0000
2002
0000
0000
0000
,
0000
0000
0000
0000
0000
0000
0000
0000
0000
0000
0000
0000
3003
0000
1000
0100
,
0020
0000
0031
0000
1001
1001
0000
0000
,
1000
0000
0010
0000
0100
0001
0100
0000
0001
1000
0000
0001
1000
0000
0100
1000
,
0100
0000
0100
0000
0010
0001
1000
0000
0010
0000
0100
0000
0110
0000
0000
0000
,
0001
0000
0010
0000
0100
1000
0100
0000
1000
0001
0000
0001
0100
0000
0010
1000
,
0000
1000
0001
0000
0010
0100
1000
0000
0001
0000
1000
0000
1001
0000
0000
0000
,
0002
0000
0000
0003
,
1000
0010
0100
0000
0010
0100
0001
0000
1000
0001
1000
0001
1000
0001
1000
0001
,
0020
0000
0030
0000
,
0001
0000
0000
0001
0100
0000
0010
0000
0000
0010
1000
0000
0001
0000
0020
0000
,
0000
0000
0130
0000
1000
0000
0000
1001
0000
0000
0001
0000
1000
0000
0000
1000
,
0010
0000
0100
0000
0000
0100
0001
0000
1000
0000
1200
0000
0000
0310
0000
0000
,
0120
0000
0000
0031
0000
0000
2000
0000
0002
0000
0000
0000
3003
0000
0000
0000
,
1000
0100
0001
0100
1000
0100
0001
0100
,
1000
0001
0100
1000
0100
0001
0100
1000
,
0100
0000
0001
0000
1000
0100
1000
0100
0020
0000
0000
0000
0000
0000
0000
0000
,
0031
0000
0100
0000
0010
0000
1000
0001
1000
0000
0001
0010
0000
0010
0100
0000
,
1000
0000
0001
0100
0010
0000
1000
0000
0100
1000
0100
0000
0020
0000
0000
1000
,
0000
0000
0230
0000
0000
0001
0000
0000
0310
0000
0001
0000
1000
0010
1000
0010
,
1000
0000
0001
0100
0001
0100
0001
0000
2000
0000
0000
0000
3001
0010
0100
0000
,
1000
0000
0001
0100
0000
0100
0010
0000
1000
0000
0100
0001
0100
0000
1000
0000
,
0010
0100
0001
0000
1000
0000
0000
1100
0000
0000
0011
0000
0001
0000
1000
0000
,
0001
1000
0010
1000
0001
0000
0000
0011
0000
0000
1100
0000
1000
0000
0001
0100
,
0001
0100
0010
0000
2000
0000
0000
0000
3200
0000
0000
0000
0310
0000
0001
0000
,
1000
0000
0002
0000
0203
0000
0310
1000
,
0001
0000
0000
0011
0000
0000
0110
0000
0000
1100
0000
0000
0001
0000
0100
0000
,
0020
0000
0000
0001
0000
0000
0100
0000
0000
1030
0000
0000
1001
0000
1001
0000
,
0000
0000
2000
3200
0320
2030
3002
0203
,
0320
0030
0002
0203
0320
0032
2003
3200
,
0320
0000
0030
0000
1000
0100
0010
0000
0100
0010
0001
0000
1000
0001
1000
0001
,
0100
0000
0000
0000
0001
0100
0010
0000
0100
0010
1000
0000
0001
1000
0001
1000
,
0100
0000
0000
1100
0000
0000
0101
0000
0000
0110
0000
0000
2002
0000
0000
0000
,
0000
0000
3003
0000
1000
0010
0100
0001
,
1000
0100
1000
0100
0010
0000
0001
0100
0000
0100
0010
0000
1000
0001
1000
0001
,
0000
1000
0100
0010
0002
0000
0000
0000
1003
0000
0000
0000
0000
0000
0000
0000
,
2002
3003
0000
0000
0000
0000
0000
0000
0000
0000
0000
0000
0000
0000
0000
0000
,
0000
0000
0000
0000
,
0001
0010
0001
0000
0100
0010
0000
0000
1000
0100
1000
0000
0010
0100
0000
0000
,
0001
0010
0001
1000
0010
1000
0100
0010
0001
0000
0000
0101
0000
0110
0000
1010
,
2000
0000
3200
0000
,
0320
1000
0100
0000
,
0032
0000
0203
0000
,
0320
0032
2003
3200
,
0302
0000
0000
0000
,
1003
1000
0100
0100
0010
0010
0001
0001
,
1000
0010
0100
0000
0001
0010
0100
0000
1000
0001
1000
0001
0100
0010
0100
0010
,
2000
0000
3200
0000
0310
0002
0000
0000
,
0003
0000
0000
0000
0000
0000
1000
0010
,
0001
0000
0000
0010
0000
0000
2000
0000
0000
0000
0000
0000
0000
0000
3001
0000
,
1001
0000
0000
0000
0000
0000
0001
0010
,
1000
0000
0000
0010
0000
0000
0002
0000
0000
0000
0000
0000
1003
0000
0000
0000
,
0001
0000
0100
0000
0010
1000
0010
0000
1000
0000
0001
0010
0001
0010
0100
0000
,
1000
0000
0001
1000
0001
1000
0010
0000
0100
0001
1000
0100
0020
0000
0000
0000
,
0031
1000
0010
0000
0100
0001
1000
0000
0100
0010
0100
0010
0001
1000
0001
1000
,
0020
0000
0030
0000
,
1000
0000
0001
0010
0000
0100
1000
0000
0010
0100
0000
0001
1000
0000
1000
0000
,
0001
0000
0010
0100
1000
0000
0010
0100
0001
0000
1000
0001
1000
0001
1000
0000
,
0001
0000
1000
0010
0000
0100
0001
0000
0010
0100
0000
1000
0001
0000
0001
0000
,
1000
0000
0010
0100
0001
0000
0010
0100
1000
0000
0001
1000
0001
1000
0001
0000
,
1000
0000
0010
0100
0000
1000
0100
0000
0010
0000
1000
0100
0000
0010
0100
0000
,
0001
0000
0100
0010
0100
0000
1000
0000
0001
0000
0100
0010
0000
0010
1000
0000
,
0001
0000
0000
0000
1001
0000
0000
0000
1000
0000
0100
0010
0000
0010
0001
0000
,
1000
0000
0010
0000
0100
0001
0100
0001
1000
0100
1000
0100
0010
0000
0000
0000
,
0002
0000
0000
0000
0103
0101
0110
1010
,
1000
0000
0100
0001
0000
0100
1000
0000
0100
0001
0000
0100
0010
0000
0010
0000
,
0001
0000
1000
0010
0100
0000
0001
0010
0100
0000
1000
0001
2000
0000
0000
0000
,
3001
0000
0100
0010
0000
0001
0010
0000
0100
0000
0001
0010
0000
0100
0010
0000
,
1000
0000
0001
0100
0010
0000
0001
0000
1000
0000
0010
0100
0001
0100
0010
0000
,
1000
1000
0100
0100
0010
0010
0001
0001
,
1000
0000
0010
0100
1000
0100
0010
0000
1000
0100
0010
0000
0002
0000
0000
0000
,
1003
0010
0000
1000
0000
0010
0000
0100
0010
0100
0000
0001
0000
0100
0000
0001
,
1000
0100
0000
0010
0000
0100
0000
0010
0001
1000
0000
0001
0000
1000
0001
1000
,
0002
0000
0000
0000
,
0000
0003
1001
0000
,
1000
0000
0000
1000
0010
0000
0100
0000
0000
0100
0001
0000
0010
0000
0100
0000
,
1000
0010
0001
0010
1000
0010
0001
0010
,
1000
0000
0001
0010
0100
0000
1000
0000
0010
0000
0000
0100
0000
0100
0000
0001
,
0010
0000
0100
0010
0000
0100
1000
0000
0000
0000
0001
0000
2002
0000
3003
0000
,
1000
0010
1000
0010
0100
0000
0000
0110
0000
0000
0101
0000
0100
0001
1000
0000
,
0001
0010
0001
0010
0100
0000
0000
0110
0000
0000
1100
0000
0100
1000
0001
0000
,
0000
0000
0000
0000
1000
0010
1000
0010
0100
0010
0100
0001
0100
0001
1000
0000
,
0100
0010
0001
1000
0010
0100
0000
0000
0110
0000
0000
0110
0000
0000
1001
0000
,
0000
0000
2002
0000
,
0000
0000
0000
3003
1001
0000
0000
0000
;

//--------------- dance-single - KAYSTAR ----------------
#NOTES:
     dance-single:
     KAYSTAR:
     Challenge:
     18:
     0,0,0,0,0:
0000
0000
0000
0000
,
0000
0000
0000
0000
,
1000
0000
0100
0000
0010
0001
0010
0000
0001
0000
1000
0010
0100
0000
0100
0000
0001
0000
1000
0000
0100
1000
0100
0000
0010
0000
0001
0100
0000
0100
0010
0000
,
1000
0000
0001
0000
0010
0100
0010
0000
1000
0000
0010
0100
0010
0000
0001
0000
1000
0010
0100
0000
0010
0100
0001
0000
1000
0001
1000
0001
1000
0000
0000
0000
,
1200
0000
0000
0310
0000
0000
0201
0000
0000
0310
0000
0000
2200
0000
0000
0000
,
0000
0000
0000
0000
0000
0000
0000
0000
3300
0000
1000
0100
0010
0000
0000
0000
,
0201
0000
0000
0310
0000
0000
1200
0000
0000
0310
0000
0000
0202
0000
0000
0000
,
0000
0000
0000
0000
0000
0000
0000
0000
0000
0000
0000
0000
0303
0000
0001
0100
,
0020
0000
1030
0000
1001
1001
0000
0000
,
1000
0000
0100
0000
1000
0100
0010
0000
0001
0100
0000
0100
0010
0000
1000
0001
,
1000
0000
1000
0000
0100
0010
0100
0000
0002
0003
0100
0010
0001
0000
0000
0000
,
0001
0000
0100
0000
0001
0100
0010
0000
1000
0001
0000
0001
0010
0000
0100
1000
,
0000
1000
0001
0000
0100
0010
0100
0000
2000
3000
0100
0000
0110
0000
0000
0000
,
0002
0000
0000
0003
,
1000
0000
0000
0001
0000
0000
1000
0000
0000
0001
0000
0000
0010
0000
0000
0100
0000
0000
1000
0000
0000
0000
0000
0000
0001
0000
0100
0000
0001
0000
0100
0000
0000
0000
0000
0000
0010
0000
1000
0000
0010
0000
1000
0000
0000
0000
0000
0000
,
0200
0000
0300
0000
,
1000
0000
0002
0000
0100
0000
1003
0000
0000
1200
0000
0000
0310
0000
0001
0000
,
0000
0000
0002
0000
0100
0000
1003
0100
0000
0000
0010
0000
0001
0000
2000
0000
,
0100
0000
3001
0000
0000
0201
0000
0000
0310
0000
1000
0100
0000
0100
0010
0000
,
0001
0100
0000
0100
0010
0000
1000
0000
2002
0000
0000
0000
0000
0000
3003
0000
,
0000
1000
0100
1000
0000
0001
0100
0001
0000
1000
0100
1000
0000
0001
0100
0010
,
1000
0000
1001
0000
0001
0010
0100
1000
0000
0010
0100
1000
0000
0001
0010
0100
,
0000
0001
1000
0001
1000
0100
0010
0100
2000
0000
0000
0000
0000
0000
0000
0000
,
3001
0000
0100
0001
0100
0000
0010
1000
0001
0000
0010
0100
0000
0001
0100
0000
,
0010
0000
0001
0100
0010
0000
0010
0000
1000
0001
0010
0001
2000
0000
0000
0010
,
0000
0000
3002
0000
0000
0100
0000
0000
2003
0000
3200
0000
0310
0001
1000
0010
,
0100
0000
0001
0010
0100
0010
0001
0000
2000
0000
0000
0000
3001
0100
0010
0000
,
1000
0000
0001
0010
0000
0100
0010
0000
1000
0000
0001
0100
0010
0000
0010
0000
,
0001
1000
0010
0000
1010
0000
0000
0101
0000
0000
1001
0000
0002
0000
0023
0000
,
0130
1000
0001
0100
0010
0000
1000
0001
1000
0000
0100
0000
0010
0000
1000
0010
,
0100
0010
0001
0000
2000
0000
0000
0000
0010
0000
0000
0000
3100
0000
0100
0000
,
0010
0000
0010
0000
0002
0000
0000
0000
0100
0000
0000
0000
0013
0100
1000
0000
,
0010
0000
0100
1000
0100
0000
0010
0000
0100
1000
0100
0000
0010
0000
1000
0000
,
1100
0000
0000
0011
0000
0000
1010
0000
0000
0101
0000
0000
1001
0000
1001
0000
,
0000
0000
0000
0000
1000
0100
1000
0100
0010
0100
0010
0100
0010
0001
0010
0001
,
1000
0000
0000
0000
0001
0100
0001
0100
0010
0100
0010
0100
0010
1000
0010
1000
,
0002
0000
0000
0000
1003
0100
0010
0001
1000
0010
0100
0010
1000
0001
0010
0100
,
1000
0000
0000
0000
0001
0100
0010
1000
0100
0010
0001
1000
0010
0100
0010
0100
,
1000
0000
0000
1100
0000
0000
0110
0000
0000
0101
0000
0000
2002
0000
0000
0000
,
0000
0000
0000
0000
3003
0000
0000
0000
0001
1000
0001
1000
0001
1000
0001
1000
,
0100
0010
0100
0010
0001
1000
0010
0100
0001
0010
0100
1000
0001
0100
0010
1000
,
0100
0001
0100
1000
0002
0000
0000
0000
1003
0000
0000
0000
0000
0000
0000
0000
,
2002
3003
0000
0000
0000
0000
0000
0000
0000
0000
0000
0000
0000
0000
0000
0000
,
0000
0000
0000
0000
,
0001
0100
0020
0000
0100
1030
0000
0000
1000
0100
0020
0000
0100
0031
0000
0000
,
0001
0100
0020
0000
0100
1030
0000
0001
1001
0000
0000
1100
0000
0011
0000
1001
,
2000
0010
3002
0100
,
2003
0000
0000
0000
3200
0000
0000
0000
0320
0000
0000
0000
0031
1000
0001
1000
,
0002
0000
0103
0010
2000
0000
0100
0000
,
3001
0000
0000
0100
0000
0000
0020
0000
0000
0000
0001
0000
0000
0000
1030
0000
,
1002
0023
0230
2300
,
3001
0001
0100
0100
0010
0010
1000
1000
,
0001
0010
0001
0010
0100
1000
0100
1000
0001
0100
0010
1000
0001
0010
0100
1000
,
0020
0000
0230
0000
0010
0302
0000
0000
,
1003
0100
0001
1000
0010
0001
0100
0010
,
1000
0000
0000
0100
0000
0000
0020
0000
0000
0000
0000
0000
0031
0000
1000
0000
,
1002
0000
0103
0010
2000
0000
3001
0001
,
0011
0000
0000
1100
0000
0000
1001
0000
1000
0000
0001
0100
0010
0100
0001
0000
,
1000
0000
0100
0000
1000
0100
0010
0000
0001
0000
0100
0001
0100
0010
1000
0000
,
0001
0000
0010
0100
1000
0001
1000
0001
0100
1000
0100
0001
2000
0000
0000
0000
,
3001
0000
0000
0010
0000
0000
0100
0000
0000
1000
0000
0000
0010
0000
0000
0100
0000
0000
0001
0000
0000
0000
0000
0000
0010
0000
0001
0000
0010
0000
0100
0000
0000
0000
0000
0000
1000
0000
0001
0000
0100
0000
0010
0000
0000
0000
0000
0000
,
2000
0000
0000
0000
3000
0002
0023
0230
,
1300
0000
0001
0100
0000
0010
0100
0000
0010
1000
0000
0001
0010
0100
0010
0000
,
1000
0000
0010
0100
1000
0000
0010
0100
1000
0000
0001
0010
0001
0010
0100
0000
,
0001
0000
1000
0100
0000
0010
0100
0000
0010
0001
0000
1000
0010
0100
0010
0000
,
0001
0000
0010
0100
0001
0000
0010
0100
0001
0000
1000
0010
0100
0010
0001
0000
,
1000
0010
0100
0001
0000
0010
0100
0000
1000
0010
0100
0001
0000
0010
0100
0000
,
1000
0000
0001
0100
0001
1000
0010
1000
0001
0010
0100
1000
0100
0010
0001
0000
,
2000
0000
3010
0100
0002
0000
0013
0100
1000
0000
0000
1010
0000
0000
0101
0000
,
1001
0000
0001
0000
1000
0100
0010
0001
0100
0001
0010
0100
1000
0000
0000
0000
,
2002
0000
0000
0000
0000
0000
0000
0000
3003
0000
0000
0000
0000
0000
0000
0000
0001
0000
0100
0001
0100
0000
0010
0100
0010
0000
1000
0010
2000
0000
0000
0000
,
3001
0000
1000
0100
0000
0010
0001
0000
0100
0010
0000
1000
0001
1000
0100
0000
,
0001
0000
1000
0010
0001
0000
1000
0010
0001
0000
1000
0100
0001
0100
0010
0000
,
1000
0100
0010
0100
1000
0001
0010
0100
1000
0001
0100
0010
0100
0001
1000
0010
,
0100
0001
1000
0100
0010
0001
0100
0010
2000
0000
3001
0010
1000
0010
0001
0000
,
1000
0010
0100
0001
0000
0010
0100
0000
1000
0010
0100
0001
0000
0010
0100
0000
,
1000
0010
0100
0010
0100
1000
0001
0010
0100
0010
0100
0001
2000
0000
0000
0000
,
3100
0010
0000
0011
0000
0001
0000
1000
0010
0100
0000
0101
0000
1000
0000
0001
,
0010
0100
0000
1100
0000
1000
0000
0001
0100
0010
0000
1010
0000
0001
0010
1000
,
0020
0000
0000
0000
,
0000
0030
1001
0000
,
1000
0000
0001
2000
0010
0000
3001
0000
0000
0000
1000
0002
0100
0000
1003
0000
,
0000
0001
0010
0001
0000
0010
0100
0010
0000
0100
1000
0100
0000
1000
0001
1000
,
0001
0000
0100
0000
0010
0100
1000
0000
0100
0000
0010
1000
0000
1001
0000
0002
,
0010
0000
2003
0010
0000
3002
0010
0000
0003
0000
1001
0000
2002
0000
3003
0000
,
1000
0010
0100
0010
0001
0000
1000
0100
0000
0100
0010
0000
0100
0010
1000
0000
,
0001
0000
0000
0010
0000
0000
0100
0000
0000
0010
0000
0000
1000
0000
0000
0000
0000
0000
0001
0000
0000
0100
0000
0000
0000
0000
0000
0100
0000
0000
0010
0000
0000
0000
0000
0000
0100
0000
0000
0010
0000
0000
0001
0000
1000
0000
0001
0000
,
2000
0000
0000
0000
0000
0000
0000
0000
0000
0000
0000
0000
3010
0000
0000
0100
0000
0000
0001
0000
0000
1000
0000
0000
0100
0000
0000
0010
0000
0000
0001
0000
0010
0000
0001
0000
0010
0000
0000
0001
0000
0000
1000
0000
0000
0010
0000
0000
,
1000
0000
0010
0000
1000
0000
0010
0000
0000
0100
0000
0000
0001
0000
0000
1000
0000
0000
0000
0000
0000
0000
0000
0000
1100
0000
0000
0000
0000
0000
0000
0000
0000
0110
0000
0000
0000
0000
0000
0000
0000
0000
0011
0000
0000
0000
0000
0000
,
0000
0000
2002
0000
,
0000
0000
0000
3003
0110
0000
0000
0000
;

//--------------- dance-double - KAYSTAR ----------------
#NOTES:
     dance-double:
     KAYSTAR:
     Easy:
     10:
     0,0,0,0,0:
00000000
00000000
00000000
00000000
,
00000000
00000000
00000000
00000000
,
10000000
01000000
00100000
00000000
01000000
00100000
00010000
00000000
,
00100000
00001000
00010000
00000100
00001000
00001000
00000001
00000001
,
00000100
00000000
00000000
00000010
00000000
00000000
00000220
00000000
,
00000000
00000000
00000000
00000330
,
00010000
00000000
00000000
00001000
00000000
00000000
00022000
00000000
,
00000000
00000000
00000000
00033000
,
02200000
00000000
00000000
03300000
,
10000000
01000000
00100000
00001000
,
00010000
00010000
00001000
00001000
,
00010000
00000100
00000010
00000001
,
00000100
00001000
00011000
00000000
,
00020000
00000000
00000000
00030000
,
00001000
00000000
01000000
00000000
00010000
10000000
00010000
10000000
,
00020000
00000000
00030000
00000000
,
20000000
31000000
02000000
03010000
,
00001000
00010000
00000100
00000000
00001000
00000000
00000002
00000000
,
00000103
00000200
00001300
00010000
,
00001000
01000000
00020000
00000000
,
10030000
01000000
00100000
00001000
,
00010000
00001000
00010000
00000100
,
00000010
00000001
00002002
00003003
,
00001000
00000000
00000010
00000000
00010000
00001000
00010000
00000000
,
00000200
00000000
00000320
00000000
00000031
00001000
00000001
00000000
,
00000100
00001000
00011000
00010000
,
00100000
01000000
00000000
01000000
00010000
00000000
00100000
00000000
,
00001000
00010000
00001000
00000000
02000000
00000000
03200000
00000000
,
10300000
00010000
10000000
00000000
01000000
00000000
00010000
00000000
,
00011000
00000000
00001000
00010000
00001000
00010000
00001000
00000000
,
00011000
00020000
00000000
00030200
,
00000000
00001300
00000010
00010000
,
00002000
00000000
02003000
00000000
,
03010000
00000000
00000000
10000000
00000000
00000000
10010000
00000000
,
00000000
20000000
32000000
03020000
,
00030000
00002000
00003020
00000032
,
00000003
00000000
00001000
00000010
00010000
00000000
00001000
00010000
,
00001000
00000000
00010000
00001000
01000000
00000000
00010000
00000000
,
10010000
00000000
00000000
01100000
00000000
00000000
20020000
00000000
,
00000000
00000000
30030000
00000000
,
00010000
00100000
00010000
00001000
,
00000100
00002000
00003000
00000000
,
00002002
00003003
00000000
00000000
00000000
00000000
00000000
00000000
00000000
00000000
00000000
00000000
00000000
00000000
00000000
00000000
,
00000000
00000000
00000000
00000000
,
00000001
00000100
00000010
00000000
00000100
00000010
00001000
00000000
,
00000010
00000000
00010000
00000000
00001000
00000000
01000000
00000000
00010000
00000000
00000000
10010000
00000000
10010000
00000000
00000000
,
20000000
00000000
32000000
00000000
,
03200000
00320000
00230000
00000000
,
00302000
00000000
00023000
00000000
,
00030200
00002300
00003200
00000320
,
00000032
00000000
00000000
00000000
,
00001003
00000010
00010000
00001000
,
01000000
00000000
00010000
00000000
10000000
00010000
10000000
00020000
,
20000000
00000000
00000000
00000000
,
30030000
00000000
00000000
10000000
,
01000000
00100000
00002000
00000000
,
00013000
00000000
00000000
00010000
,
00000100
00000010
00000002
00000000
,
00000103
00001000
00010000
00000000
,
00001000
00001000
00010000
00010000
,
00001000
00010000
00100000
00000000
,
20020000
00000000
30030000
00000000
,
10000000
00000000
01000000
00000000
00100000
00001000
00010000
00000000
,
00001000
00010000
00100000
00010000
,
00001000
00000000
00010000
00000000
00001000
00010000
00000100
00000000
,
00001000
00000010
00000100
00000001
,
00000020
00000100
00000032
00000100
,
00001003
00000010
00010000
00001000
,
00011000
00000000
01100000
00000000
,
10000000
00010000
10000000
00010000
00100000
00000000
00001000
00000000
,
00022000
00000000
00033000
00000000
,
00010000
00000000
00001000
00000000
00010000
00001000
01000000
00000000
,
00010000
00100000
01000000
10000000
,
00200000
01000000
20300000
01000000
,
30010000
00100000
00001000
00010000
,
00011000
00000000
00000110
00000000
,
00000001
00001000
00000001
00001000
00000010
00010000
00001000
00000000
,
00021000
00000000
00230000
00000000
,
20300000
00000000
00020000
30030000
,
02200000
00000000
00000000
00000000
,
00000000
00000000
03300000
00000000
,
20000000
31000000
02000000
03010000
,
00001000
00010000
00001000
00000000
00010000
00000100
00001000
00000000
,
00000002
00000203
00002300
00013000
,
00001000
00000000
00000000
00010000
00000000
00000000
00001000
00000000
00000000
00000000
00010000
00000000
00001000
00000000
00000000
00000000
,
01000000
00010000
01000000
00001000
00010000
00000000
00010000
00000000
,
00000100
00001000
00000100
00010000
00001000
00000000
00001000
00000000
,
00000000
00000000
01000000
00000000
00010000
10000000
00010000
10000000
,
00010000
00000000
10000000
00000000
00010000
00000000
00000000
00000000
10000000
00000000
00000000
01000000
00000000
00000000
00010000
00000000
,
00000000
00000000
00022000
00000000
,
00000000
00000000
00033000
00000000
;

//--------------- dance-double - KAYSTAR ----------------
#NOTES:
     dance-double:
     KAYSTAR:
     Medium:
     13:
     0,0,0,0,0:
00000000
00000000
00000000
00000000
,
00000000
00000000
00000000
00000000
,
10000000
00000000
00000000
01000000
00100000
00000000
00000000
00001000
00000000
00010000
00000000
00001000
00010000
00000000
00000000
00000000
,
00000100
00000010
00000110
00000000
00000001
00000100
00001000
00010000
,
00011000
00000000
00000000
00110000
00000000
00000000
00022000
00000000
,
00000000
00000000
00000000
00000000
00000000
00000000
00000000
00000000
00033000
00000000
00010000
00001000
00010000
00000000
00000000
00000000
,
00011000
00000000
00000000
00001010
00000000
00000000
00022000
00000000
,
00000000
00000000
00000000
00033000
,
02010000
00000000
03200000
00000000
10300000
00010000
00000000
00000000
,
10000000
00000000
01000000
00000000
00100000
00000000
00010000
00000000
00100000
00000000
00000000
00001000
00000000
00000000
00010000
00000000
,
00000100
00000100
00000100
00000000
00000010
00000010
00000010
00000000
,
00000001
00000000
00000100
00000000
00000010
00000000
00001000
00000000
00000010
00000000
00000000
00010000
00000000
00000000
00001000
00000000
,
00000000
01000000
00000000
00000000
00010000
00000000
01000000
00000000
00100000
00000000
00100000
00000000
00100000
00000000
00000000
00000000
,
20000000
00000000
00000000
30000000
,
10000000
01000000
00100000
00001000
00010000
00000100
00000010
00000001
,
00002002
00000000
00003003
00000000
,
00000002
00001000
00000203
00001000
,
00000310
00010000
00001000
00000000
00010000
00001000
02000000
00000000
,
00010000
00000000
00000000
00000000
03002000
00000000
00000000
00000000
00013000
00000000
01000000
00000000
00000000
00100000
00000000
00000000
,
01000000
00000000
00000000
00100000
00000000
00000000
00010000
00000000
20000000
00000000
00000000
00000000
00000000
00000000
00000000
00000000
,
30100000
01000000
00010000
00000000
00100000
01000000
00010000
00000000
,
00001000
00000010
00000100
00000000
00001000
00000010
00000100
00000000
,
00000001
00001000
00000100
00001000
00000002
00000000
00000000
00000000
,
00000103
00000000
00000000
00000000
00000010
00000000
00001000
00000000
00000001
00000000
00000000
00000001
00000010
00000000
00000100
00000000
,
00001000
00000000
00000001
00000000
00000100
00000000
00000100
00000000
00001000
00000000
00010000
00000000
00000100
00000000
00000000
00000010
,
00000000
00000000
00000100
00000000
00000000
00010000
00000000
00000000
00001000
00000000
00000000
00000000
00010000
00000000
00001000
00000000
,
00010000
00001000
01000000
00000000
00020000
00000000
01030000
00100000
,
10000000
00000000
00000000
10000000
00010000
00000000
00100000
00000000
01000000
00000000
10000000
00000000
00100000
00000000
00100000
00000000
,
00010000
00000000
00001000
00000000
00100000
00000000
00000000
01000000
00000000
00000000
00100000
00000000
00001000
00000000
00010000
00000000
,
00001000
00010000
00000100
00001000
00000100
00000010
00000001
00000000
,
00001001
00000000
00002000
00000000
00003010
00000000
00010000
00001000
,
00010000
00001000
02000000
00000000
03010000
00000000
10000000
01000000
,
00200000
00302000
00023000
00030200
,
00001300
00000000
00000000
00000010
00000000
00000000
00000100
00000000
00000000
00000001
00000000
00000000
00002002
00000000
00000000
00000000
,
00003003
00000000
00001000
00000100
00000010
00000001
00001000
00000010
,
00010000
00000000
00001000
01000000
00010000
10000000
01000000
00100000
,
00002000
00000000
00013000
00000100
00001000
00000010
00000100
00001000
,
00010000
00000000
00001000
01000000
00010000
00100000
00001000
00010000
,
00100000
00000000
00000000
00100000
00000000
00000000
01000000
00000000
00000000
01000000
00000000
00000000
20020000
00000000
00000000
00000000
,
00000000
00000000
30030000
00000000
10000000
01000000
00100000
00010000
,
00100000
00001000
00001000
00010000
00001000
00010000
00010000
00000100
,
00001000
00000100
00000020
00000000
00000031
00000000
00000000
00000000
,
00002002
00003003
00000000
00000000
00000000
00000000
00000000
00000000
00000000
00000000
00000000
00000000
00000000
00000000
00000000
00000000
,
00000000
00000000
00000000
00000000
,
00000001
00000100
00000001
00000000
00000100
00001000
00000100
00000000
,
00001000
00000000
00010000
00000000
00001000
00000000
01000000
00000000
00010000
00000000
00000000
00110000
00000000
01100000
00000000
11000000
,
20000000
00000000
30200000
00000000
,
02300000
03020000
00230000
00000000
,
00302000
00000000
00023000
00000000
,
00030200
00002300
00003020
00000230
,
00000302
00000000
00000000
00000000
,
00001003
00000100
00000010
00000100
00000010
00000001
00001000
00000000
,
00000010
00010000
00001000
00010000
00001000
00010000
00001000
01000000
,
00020000
00000000
00000000
00000000
00000000
20000000
00000000
00000000
,
30030000
00000000
00000000
00000000
00000000
00000000
10000000
01000000
,
00100000
00000000
00000000
00001000
00000000
00000000
00020000
00000000
00000000
00000000
00000000
00000000
00000000
00000000
00031000
00000000
,
00011000
00000000
00000000
00000000
00000000
00000000
00010000
00001000
,
00010000
00000000
00000000
00000100
00000000
00000000
00000020
00000000
00000000
00000000
00000031
00000000
00001000
00000000
00000000
00000000
,
00001002
00000203
00002300
00023000
,
00031000
00000000
01000000
00010000
01000000
00100000
10000000
00000000
,
20010000
32000000
03020000
00031000
,
00022000
00000000
00033000
00000000
,
00001000
00000000
00000000
01000000
00010000
00000000
00100000
00000000
00010000
01000000
00000000
00000000
00001000
00000000
00010000
00000000
,
01000000
01000000
00100000
00100000
00010000
00100000
00002000
00000000
,
00013000
00000000
00000000
00000100
00001000
00000000
00000010
00000000
00001000
00000100
00000000
00000000
00010000
00000000
00001000
00000000
,
00000100
00000100
00000010
00000010
00001000
00000100
00000020
00000000
,
00000031
00000000
00001000
00000010
00000000
00000010
00010000
00000000
00001000
00000000
00010000
00001000
00000000
00001000
01000000
00000000
,
00010000
00100000
01000000
00100000
00010000
01000000
00001000
00010000
,
00011000
00000000
00000000
00000000
00011000
00000000
00000000
00000000
00001000
00000000
00000000
00000100
00000000
00000000
00000010
00000000
,
00010000
00010000
00001000
00001000
00000010
00000100
00010000
00000000
,
00022000
00000000
00033000
00000000
,
00001000
00000000
00000000
00100000
00010000
00000000
01000000
00000000
00010000
00100000
00000000
00000000
00001000
00000000
00010000
00000000
,
00100000
00100000
01000000
01000000
00010000
00100000
02000000
00000000
,
13000000
00000000
00010000
01000000
00001000
00000000
00010000
00000000
00001000
00000000
00010000
00000010
00001000
00000000
00000010
00000000
,
00001000
00000100
00000010
00000100
00001000
00000010
00010000
00001000
,
00012000
02003000
03020000
20030000
,
31000000
00100000
00010000
00001000
00000100
00000010
00000002
00000000
,
00001003
00000000
00000000
00000001
00000000
00000100
00000000
00001000
00000000
00010000
00000000
00010000
00000000
00010000
00000000
00000000
,
00000000
00001000
00000000
00001000
00000000
00001000
00000000
00000000
00000000
00010000
00000000
00100000
00000000
10000000
00000000
00000000
,
00020000
00000000
00000000
00000000
,
00000000
00000000
10030000
00000000
,
20000000
00010000
32000000
00010000
,
03100000
00001000
00010000
00000000
00001000
00010000
00000100
00000000
,
00001000
00000001
00000100
00001000
00000100
00000001
00001000
00000000
,
00000001
00000000
00000010
00000100
00000000
00000100
00001000
00000000
00000000
00000000
00000010
00000000
00020000
00000000
00000000
00000000
,
00031000
01000000
00000000
01000000
00010000
00000000
00000000
00100000
00000000
00000000
00001000
00000000
00010000
00000000
00001000
00000000
,
00010000
00000100
00000000
00000100
00001000
00000000
00000000
00000010
00000000
00000000
00010000
00000000
00001000
00000000
00011000
00000000
,
00000000
00000000
00002000
00023000
00230000
02300000
23000000
32000000
,
03200000
00000000
00320000
00000000
00031000
00000000
00000000
00000000
00011000
00000000
00000000
00101000
00000000
00000000
00110000
00000000
,
00000000
00000000
20020000
00000000
,
00000000
00000000
00000000
30030000
10010000
00000000
00000000
00000000
;

//--------------- dance-double - KAYSTAR ----------------
#NOTES:
     dance-double:
     KAYSTAR:
     Hard:
     16:
     0,0,0,0,0:
00000000
00000000
00000000
00000000
,
00000000
00000000
00000000
00000000
,
00001000
00010000
00100000
01000000
00100000
00010000
00001000
00000000
00010000
00001000
00000100
00000010
00000100
00001000
00010000
00000000
,
00000100
00001000
00000100
00001000
00000001
00000100
00000001
00000100
00000010
00001000
00000100
00000010
00002000
00000000
00013000
00000000
,
00012000
00000000
00000000
01003000
00000000
00000000
02010000
00000000
00000000
03100000
00000000
00000000
20020000
00000000
00000000
00000000
,
00000000
00000000
00000000
00000000
00000000
00000000
00000000
00000000
30030000
00000000
00010000
00100000
00001000
00000000
00000000
00000000
,
00021000
00000000
00000000
00030100
00000000
00000000
00001200
00000000
00000000
00000310
00000000
00000000
00002002
00000000
00000000
00000000
,
00000000
00000000
00000000
00000000
00000000
00000000
00000000
00000000
00000000
00000000
00000000
00000000
00003003
00000000
00001000
00000010
,
00020000
00000000
00031000
00000000
00011000
00011000
00000000
00000000
,
00001000
00000000
00010000
00000000
00001000
00010000
00001000
00000000
01000000
00010000
00000000
01000000
00010000
00000000
10000000
00010000
,
10000000
00000000
10000000
00000000
01000000
10000000
01000000
00000000
00100000
00000000
00001000
00000000
00011000
00000000
00000000
00000000
,
00010000
00000000
00001000
00000000
00010000
00001000
00010000
00000000
00000100
00001000
00000000
00001000
00000001
00000000
00000100
00000010
,
00000000
00000010
00001000
00000000
00000001
00000010
00000100
00000000
00010000
00000000
00001000
00000000
00011000
00000000
00000000
00000000
,
00020000
00000000
00000000
00030000
,
00001000
00010000
00001000
00000000
00010000
00001000
01000000
00000000
00010000
10000000
00010000
10000000
00010000
10000000
00010000
10000000
,
02000000
00000000
03000000
00000000
,
10000000
00000000
00000000
10000000
00100000
00000000
01000000
00000000
00000000
01000000
00010000
00000000
00100000
00000000
00002000
00000000
,
00000000
00000000
00010000
00000000
00013000
00000000
00000000
00000010
00000000
00000000
00001000
00000000
00000001
00000000
00000000
00000001
,
00000010
00000000
00000100
00000000
00000000
00000100
00001000
00000000
00000001
00000000
00000201
00000000
00000000
00000310
00000000
00000000
,
00000120
00000000
00000000
00001030
00000000
00000000
00000002
00000000
00002000
00000000
00000000
00000000
00003003
00000000
00000000
00000000
,
00000001
00000010
00000100
00001000
00000010
00000100
00001000
00010000
,
00000100
00001000
00010000
00100000
00001000
00010000
00100000
01000000
,
00010000
00100000
01000000
10000000
10020000
00000000
00000000
00000000
,
01030000
00000000
00100000
00000000
10000000
00000000
00010000
10000000
00010000
00000000
00100000
01000000
00000000
01000000
10000000
00000000
,
00010000
00000000
01000000
00100000
10000000
00000000
01000000
00000000
00100000
00010000
00100000
00000000
00002000
00000000
00000000
00023000
,
00000000
00000000
00230000
00000000
00000000
02300000
00000000
00000000
03001000
00000000
00010000
00000000
00001000
00010000
00001000
00010000
,
00001000
00000000
00010000
00000100
00001000
00000100
00000010
00000000
00000002
00000000
00000000
00000000
00000103
00000000
00000010
00000000
,
00001000
00000000
00000100
00000010
00000000
00000010
00000001
00000000
00001000
00000000
00000010
00000001
00000010
00000000
00001000
00000000
,
00000001
00000010
00000100
00000000
00001000
00000000
00000000
00001010
00000000
00000000
00010010
00000000
00000010
00000000
00010000
00000000
,
00001000
00010000
00001000
00010000
00001000
00000000
00000000
00011000
00000000
00000000
00101000
00000000
00100000
00000000
00010000
01000000
,
00100000
10000000
00010000
00000000
10020000
00000000
00100000
00000000
,
00032000
00000000
00000100
00000000
00003001
00000000
00000100
00000010
,
00001000
00000000
00000000
00001100
00000000
00000000
00000110
00000000
00000000
00000011
00000000
00000000
00000001
00000000
00001000
00000000
,
00000020
00000000
00000000
00000230
00000000
00000000
00002300
00000000
00000000
00023000
00000000
00000000
00031000
00000000
00011000
00000000
,
00000000
00000000
00002000
00023000
02030000
03002000
00023000
00230000
,
00302000
00003000
00020000
00032000
00003200
00020300
00032000
00003020
,
00020030
00000000
00030000
00000000
00001000
00010000
00001000
00000000
01000000
00010000
01000000
00000000
00010000
00100000
00001000
00010000
,
00001000
00000000
00000000
00000000
00010000
00001000
00010000
00000000
00000100
00001000
00000100
00000000
00001000
00000010
00010000
00001000
,
00010000
00000000
00000000
00011000
00000000
00000000
01001000
00000000
00000000
01010000
00000000
00000000
20020000
00000000
00000000
00000000
,
00000000
00000000
30030000
00000000
10000000
00010000
00100000
00001000
,
00010000
00001000
00010000
00000100
00001000
00000000
00000001
00000100
00000000
00000010
00001000
00000000
00000100
00000010
00000001
00001000
,
00000000
00000010
00001000
00000010
00020000
00000000
00000000
00000000
00031000
00000000
00000000
00000000
00000000
00000000
00000000
00000000
,
00022000
00033000
00000000
00000000
00000000
00000000
00000000
00000000
00000000
00000000
00000000
00000000
00000000
00000000
00000000
00000000
,
00000000
00000000
00000000
00000000
,
00010000
00001000
00000010
00000000
00001000
00010000
00000000
00000000
00001000
00010000
01000000
00000000
00010000
00001000
00000000
00000000
,
01000000
00010000
01000000
00010000
10000000
01000000
10000000
01000000
00100000
00000000
00000000
00110000
00000000
00101000
00000000
00011000
,
00020000
00000000
00030200
00000000
,
00000010
00001000
00020300
00000000
,
00032000
00000000
02003000
00000000
,
03200000
00320000
20030000
32000000
,
03002000
00000000
00000000
00000000
,
00013000
00010000
00000100
00000100
00001000
00001000
00000001
00000001
,
00000100
00000001
00000100
00000000
00000010
00001000
00000010
00000000
00001000
00000001
00001000
00000001
00001000
00000001
00001000
00000001
,
00000020
00000000
00000230
00000000
00010300
00002000
00000000
00000000
,
00003000
00000000
00000000
00000000
00000000
00000000
00001000
00010000
,
00100000
00000000
00000000
00010000
00000000
00000000
00002000
00000000
00000000
00000000
00000000
00000000
00000000
00000000
00013000
00000000
,
00011000
00000000
00000000
00000000
00000000
00000000
00010000
00001000
,
00000010
00000000
00000000
00000100
00000000
00000000
00020000
00000000
00000000
00000000
00000000
00000000
00031000
00000000
00000000
00000000
,
00010000
00000000
00001000
00000000
00010000
00001000
00010000
00000000
00001000
00000000
01000000
00010000
01000000
00010000
01000000
00000000
,
00100000
00000000
10000000
00100000
10000000
00100000
10000000
00000000
01000000
00100000
00010000
00100000
00002000
00000000
00000000
00000000
,
00013000
00000100
00001000
00000000
00000100
00000010
00000001
00000000
00001000
00000001
00001000
00000001
00001000
00000001
00001000
00000001
,
00000200
00000000
00000300
00000000
,
00001000
00000000
00010000
00001000
00000000
01000000
00010000
00000000
10000000
01000000
00000000
00100000
00010000
00000000
00010000
00000000
,
10000000
00000000
00100000
01000000
00010000
00000000
10000000
01000000
00100000
00000000
00001000
00010000
00001000
00010000
00001000
00000000
,
00010000
00000000
00001000
00010000
00000000
00000100
00001000
00000000
00000001
00000100
00000000
00000010
00001000
00000000
00001000
00000000
,
00000001
00000000
00000010
00000100
00001000
00000000
00000010
00000100
00001000
00000000
00010000
00001000
00010000
00001000
00010000
00000000
,
00001000
00000000
01000000
00010000
00000000
00010000
00100000
00000000
00001000
00000000
01000000
00010000
00000000
00010000
00100000
00000000
,
00001000
00000000
00010000
00100000
01000000
00000000
00010000
00000000
10000000
00000000
01000000
00100000
00000000
00100000
00010000
00000000
,
00110000
00000000
00000000
00000000
00101000
00000000
00000000
00000000
00002000
00000000
00000000
00010000
00000000
00000000
00013000
00000000
,
00011000
00000000
00000000
00000000
00001000
00010000
00001000
00010000
00000100
00001000
00000100
00000010
00000001
00000000
00000000
00000000
,
00002002
00000000
00003003
00000000
00000101
00001010
00010010
00011000
,
00001000
00000000
01000000
00010000
00000000
00100000
01000000
00000000
10000000
00100000
00000000
01000000
00010000
00000000
00010000
00000000
,
10000000
00000000
01000000
00100000
00010000
00000000
01000000
00100000
00010000
00000000
00001000
00010000
00001000
00010000
00001000
00000000
,
00010000
00000000
00000100
00000010
00000000
00000010
00000100
00000000
00010000
00000000
00000100
00000010
00000000
00000010
00000100
00000000
,
00010000
00000000
00001000
00000100
00000010
00000000
00001000
00000000
00000001
00000000
00000010
00000100
00001000
00000100
00000010
00000000
,
00000001
00000001
00000100
00000100
00000010
00000010
00001000
00001000
,
00000100
00000000
00010000
00001000
00000100
00001000
00010000
00000000
00001000
00010000
00001000
01000000
00020000
00000000
00000000
00000000
,
10030000
01000000
00000000
10000000
00000000
01000000
00000000
00100000
00010000
00100000
00000000
00010000
00000000
00100000
00000000
00010000
,
00001000
00010000
00000000
00001000
00000000
00010000
00000000
00001000
00000100
00001000
00000000
00000100
00000000
00001000
00000100
00000010
,
00000002
00000000
00000000
00000000
,
00000000
00000003
00001001
00000000
,
00000001
00000000
00000000
00000001
00000100
00000000
00000010
00000000
00000000
00000010
00001000
00000000
00000100
00000000
00010000
00000000
,
00001000
00000100
00010000
00001000
00000010
00010000
00001000
00000100
,
00010000
00000000
01000000
00010000
01000000
00000000
00100000
00000000
10000000
00000000
00000000
01000000
00000000
01000000
00000000
00100000
,
00001000
00000000
00010000
00001000
00000000
00010000
00000100
00000000
00000000
00000000
00010000
00000000
00022000
00000000
00033000
00000000
,
00010000
00000010
00001000
00000010
00010000
00000000
00000000
00011000
00000000
00000000
00001000
00000000
00000010
00001000
00010000
00000000
,
00001000
00100000
00010000
00100000
00001000
00000000
00000000
00011000
00000000
00000000
00010000
00000000
00100000
00010000
00001000
00000000
,
00000000
00000000
00000000
00000000
00010000
00001000
00010000
00000100
00001000
00000100
00000010
00000001
00001000
00000000
00000010
00001000
,
00000010
00010000
00001000
01000000
00010000
01000000
00000000
00000000
01010000
00000000
00000000
01100000
00000000
00000000
10100000
00000000
,
00000000
00000000
20020000
00000000
,
00000000
00000000
00000000
30030000
10010000
00000000
00000000
00000000
;

//--------------- dance-double - KAYSTAR ----------------
#NOTES:
     dance-double:
     KAYSTAR:
     Challenge:
     18:
     0,0,0,0,0:
00000000
00000000
00000000
00000000
,
00000000
00000000
00000000
00000000
,
00010000
00000000
00001000
00000000
00100000
00010000
00100000
00000000
00010000
00000000
00100000
00001000
00010000
00000000
00010000
00000000
00001000
00000000
00010000
00000000
00000010
00001000
00000010
00000000
00001000
00000000
00000010
00010000
00000000
00010000
00001000
00000000
,
00010000
00000000
00001000
00000000
00010000
00001000
01000000
00000000
00010000
00000000
01000000
00100000
10000000
00000000
00010000
00000000
10000000
01000000
10000000
00000000
01000000
00010000
01000000
00000000
00010000
00001000
00010000
00001000
00010000
00000000
00000000
00000000
,
00012000
00000000
00000000
00003010
00000000
00000000
00002001
00000000
00000000
00003010
00000000
00000000
00022000
00000000
00000000
00000000
,
00000000
00000000
00000000
00000000
00000000
00000000
00000000
00000000
00033000
00000000
00001000
00010000
00001000
00000000
00000000
00000000
,
00021000
00000000
00000000
00130000
00000000
00000000
10020000
00000000
00000000
00130000
00000000
00000000
00022000
00000000
00000000
00000000
,
00000000
00000000
00000000
00000000
00000000
00000000
00000000
00000000
00000000
00000000
00000000
00000000
00033000
00000000
00010000
00001000
,
00000200
00000000
00002300
00000000
00013000
00011000
00000000
00000000
,
00001000
00000000
00010000
00000000
00001000
00010000
00000100
00000000
00001000
00000100
00000000
00000100
00000010
00000000
00000001
00001000
,
00000001
00000000
00000001
00000000
00000100
00001000
00010000
00000000
00002000
00003000
00010000
00001000
00010000
00000000
00000000
00000000
,
00001000
00000000
00010000
00000000
00001000
01000000
00010000
00000000
10000000
01000000
00000000
01000000
00100000
00000000
00010000
01000000
,
00000000
01000000
00100000
00000000
10000000
01000000
00100000
00000000
00002000
00003000
00010000
00000000
00011000
00000000
00000000
00000000
,
00002000
00000000
00000000
00003000
,
00010000
00001000
00100000
00001000
00010000
00001000
00100000
00001000
00010000
00000010
00010000
00001000
00010000
00000010
00010000
00000000
,
00022000
00000000
00033000
00000000
,
00001000
00000000
02000000
00000000
00010000
00000000
03001000
00000000
00000000
00001000
00000000
00000000
00010000
00000000
00001000
00000000
,
00000000
00000000
02000000
00000000
00010000
00000000
03001000
00010000
00000000
00000000
00001000
00000000
00010000
00000000
00000200
00000000
,
00001000
00000000
00010300
00000000
00000000
00010000
00000000
00000000
00001000
00000000
00012000
00000000
00000000
00003010
00000000
00000000
,
00002001
00000000
00000000
00003010
00000000
00000000
00020000
00000000
00002000
00000000
00000000
00000000
00033000
00000000
00000000
00000000
,
00000000
00001000
00010000
00001000
00000000
00010000
00001000
01000000
00000000
00010000
01000000
00100000
00000000
10000000
00010000
10000000
,
00010000
00000000
10010000
00000000
10000000
01000000
00100000
00010000
00000000
00100000
00010000
00001000
00000000
00010000
00001000
00000100
,
00000000
00001000
00000100
00000010
00000000
00000001
00001000
00000001
00002000
00000000
00000000
00000000
00000000
00000000
00000000
00000000
,
00003001
00000000
00000100
00000001
00000100
00000000
00000010
00001000
00000001
00000000
00000010
00000100
00000000
00000100
00001000
00000000
,
00000001
00000000
00000100
00001000
00010000
00000000
00001000
00000000
00010000
00000100
00001000
00000000
00000002
00000000
00000000
00000203
,
00000000
00000000
00002300
00000000
00000000
00023000
00000000
00000000
00031000
00000000
00001000
00000000
00010000
00000010
00001000
00000010
,
00010000
00000000
00001000
00100000
00010000
00100000
00001000
00000000
00011000
00000000
00000000
00000000
00010000
00100000
01000000
00100000
,
10000000
00000000
01000000
00100000
00000000
00100000
00010000
00000000
10000000
00000000
00100000
00010000
00001000
00000000
00010000
00000000
,
00001000
00100000
00010000
00000000
10000000
00000000
00100000
01000000
00000000
00010000
00100000
00000000
00001000
00000000
00001000
00000000
,
00010000
00001000
00010000
00001000
00010000
00000000
00001000
00010000
00000100
00000000
00001000
00000000
00000001
00000000
00000100
00001000
,
00020000
00000000
00030200
00000000
00000010
00000000
00010300
00001000
,
00010000
00000000
00001000
00000000
02000000
00000000
00000000
00000000
00100000
00000000
00000000
00000000
03001000
00010000
00001000
00000000
,
00010000
00000000
00001000
00010000
00100000
00000000
00010000
00000000
00001000
00010000
00100000
00000000
10000000
00000000
10000000
00000000
,
20010000
00000000
00000000
32000000
00000000
00000000
03020000
00000000
00000000
00031000
00000000
00000000
00011000
00000000
00011000
00000000
,
00000000
00000000
00000000
00000000
00010000
00000010
00001000
00000010
00010000
00000010
00001000
00000010
00010000
00000010
00001000
00000010
,
00010000
00000000
00000000
00000000
00001000
00100000
00010000
00100000
00001000
00100000
00010000
00100000
00001000
00100000
00010000
00100000
,
00002000
00000000
00000000
00000000
00013000
00000100
00001000
00000010
00010000
00000100
00001000
00000010
00010000
00000100
00001000
00000010
,
00010000
00000000
00000000
00000000
00001000
01000000
00010000
00100000
00001000
01000000
00010000
00100000
00001000
00010000
00001000
00010000
,
00100000
00000000
00000000
10010000
00000000
00000000
00110000
00000000
00000000
00101000
00000000
00000000
00022000
00000000
00000000
00000000
,
00000000
00000000
00000000
00000000
00033000
00000000
00000000
00000000
00001000
00010000
00001000
00010000
00001000
00010000
00001000
00000000
,
00010000
00000100
00001000
00000100
00000010
00000001
00001000
00000010
00010000
00000010
00010000
00001000
01000000
00001000
01000000
00010000
,
10000000
01000000
00100000
01000000
00020000
00000000
00000000
00000000
00031000
00000000
00000000
00000000
00000000
00000000
00000000
00000000
,
00022000
00033000
00000000
00000000
00000000
00000000
00000000
00000000
00000000
00000000
00000000
00000000
00000000
00000000
00000000
00000000
,
00000000
00000000
00000000
00000000
,
00001000
00010000
00000020
00000000
00001000
00010030
00000000
00000000
00010000
00001000
00200000
00000000
00010000
00301000
00000000
00000000
,
00001000
00010000
00000020
00000000
00001000
00010030
00000000
00001000
00011000
00000000
00000000
00010100
00000000
00001100
00000000
00001001
,
00000002
00001000
00000203
00001000
,
00020300
00000000
00000000
00000000
02030000
00000000
00000000
00000000
03200000
00000000
00000000
00000000
10300000
00010000
10000000
00010000
,
20000000
00010000
32000000
00010000
,
03001000
00000000
00000000
00000100
00000000
00000000
00000020
00000000
00000000
00000000
00001000
00000000
00000000
00000000
00000031
00000000
,
00001002
00000000
00000203
00002300
,
00013000
00010000
00001000
00001000
01000000
01000000
00010000
00010000
,
10000000
01000000
10000000
01000000
00100000
00010000
00100000
00001000
00010000
00000100
00001000
00000100
00000010
00000001
00000010
00000001
,
00002000
00000000
00003020
00000000
00001000
00020030
00000000
00000000
,
00031000
01000000
00100000
00010000
10000000
01000000
00010000
00010000
,
20000000
00000000
00000000
32000000
00000000
00000000
03020000
00000000
00000000
00000000
00000000
00000000
00031000
00000000
00010000
00000000
,
00021000
00000000
00030100
00000010
00000002
00000000
00001003
00001000
,
00000020
00000000
00000000
00000032
00000000
00000000
00002003
00000000
00000000
00000000
00013000
00000000
00001000
00010000
00001000
00000000
,
01000000
00000000
00010000
00000000
10000000
01000000
00100000
00000000
00010000
00000000
00100000
00010000
00100000
00001000
00010000
00000000
,
00001000
00000000
00010000
00001000
00010000
00000100
00001000
00000000
00000001
00000100
00001000
00000100
00000002
00000000
00000000
00000000
,
00001003
00000100
00000010
00000001
00001000
00000010
00010000
00000000
00001000
00010000
00100000
00000000
10000000
01000000
00100000
00000000
,
00020000
00000000
00000000
00000000
00030000
00002000
00003200
00000320
,
00000031
00000000
00001000
00000010
00000000
00000100
00000001
00000000
00000010
00000100
00000000
00010000
00001000
00010000
00001000
00000000
,
00000100
00000000
00000001
00000100
00001000
00000000
00000100
00001000
00010000
00000000
00100000
01000000
00010000
01000000
00100000
00000000
,
10000000
00000000
00010000
00100000
00000000
01000000
10000000
00000000
00100000
01000000
00000000
00001000
00010000
00001000
00010000
00000000
,
01000000
00000000
10000000
01000000
00010000
00000000
01000000
00010000
00001000
00000000
00000010
00001000
00010000
00001000
00000010
00000000
,
00000001
00000100
00000010
00001000
00000000
00000100
00000010
00000000
00000001
00000100
00000010
00001000
00000000
00000100
00000010
00000000
,
00000001
00000000
00000100
00000010
00001000
00000010
00010000
00001000
01000000
00010000
01000000
00100000
00000000
10000000
00010000
10000000
,
00020000
00000000
00130000
01000000
20000000
00000000
30100000
01000000
00010000
00000000
00100000
00001000
00000000
00001000
00010000
00000000
,
00011000
00000000
00001000
00000000
00010000
00000100
00001000
00000100
00010000
00000100
00001000
00000100
00000010
00000000
00000000
00000000
,
00002002
00000000
00000000
00000000
00000000
00000000
00000000
00000000
00003003
00000000
00000000
00000000
00000000
00000000
00000000
00000000
00000001
00000000
00000100
00000001
00000100
00000000
00000010
00000100
00000010
00000000
00001000
00000010
00002000
00000000
00000000
00000000
,
00003001
00000000
00001000
00000100
00000000
00000010
00000001
00000000
00000100
00000010
00000000
00010000
00001000
00010000
00001000
00000000
,
00000010
00000000
00000001
00000010
00001000
00000000
00000010
00001000
00010000
00000000
00001000
00010000
00100000
10000000
00010000
00000000
,
10000000
01000000
10000000
01000000
00100000
00010000
00100000
00001000
00010000
00000100
00001000
00000100
00000010
00000001
00000010
00000001
,
00001000
00000010
00000100
00000010
00001000
00000001
00000010
00000100
00002000
00000000
00003010
00010000
00001000
01000000
00010000
00000000
,
10000000
01000000
00100000
00010000
00000000
01000000
00100000
00000000
10000000
01000000
00100000
00010000
00000000
01000000
00100000
00000000
,
10000000
01000000
00100000
01000000
00010000
00001000
00010000
00001000
00000100
00000010
00000100
00000001
00002000
00000000
00000000
00000000
,
00003001
00000010
00000000
00000110
00000000
00000100
00000000
00010000
00001000
00010000
00000000
00011000
00000000
00001000
00000000
01000000
,
00100000
01000000
00000000
01100000
00000000
00100000
00000000
10000000
01000000
00100000
00000000
00001000
00000000
00010000
00001000
00010000
,
00002000
00000000
00000000
00000000
,
00000000
00003000
00011000
00000000
,
00001000
00000000
00010000
00000020
00001000
00000000
00010030
00000000
00000000
00000000
00001000
00200000
00010000
00000000
00301000
00000000
,
00000000
00010000
00001000
00010000
00000000
00001000
00010000
00000100
00000000
00001000
00000100
00000010
00000000
00000001
00001000
00000001
,
00001000
00000000
00000001
00000100
00001000
00000000
00010000
00000000
00011000
00000000
00001000
00100000
00000000
00100000
00010000
00000000
,
10000000
00000000
00100000
00010000
00000000
00100000
10000000
00000000
00000000
00000000
10010000
00000000
20020000
00000000
30030000
00000000
,
10000000
01000000
00100000
00010000
00001000
00000000
00010000
00001000
00000000
00001000
00000100
00000000
00000010
00000001
00001000
00000000
,
00000001
00000100
00000010
00001000
00010000
00000000
00001000
00010000
00000000
00010000
01000000
00000000
00100000
10000000
00010000
00000000
,
20000000
00000000
00000000
00000000
31000000
00100000
00010000
00100000
00001000
00010000
00000100
00001000
00000100
00000010
00000001
00001000
,
00000010
00000100
00000001
00000010
00000100
00001000
00000000
00000000
00001010
00000000
00000000
00011000
00000000
00000000
01010000
00000000
,
00000000
00000000
20020000
00000000
,
00000000
00000000
00000000
30030000
01100000
00000000
00000000
00000000
;
