#TITLE:V3olt;
#SUBTITLE:;
#ARTIST:Aoi feat. ε’’δΊ•γ‚€γƒ’;
#TITLETRANSLIT:;
#SUBTITLETRANSLIT:;
#ARTISTTRANSLIT:Aoi feat. Majinai ihi;
#GENRE:;
#CREDIT:;
#MUSIC:V3olt.ogg;
#BANNER:V3olt.png;
#BACKGROUND:V3olt-bg.png;
#CDTITLE:;
#SAMPLESTART:54.031;
#SAMPLELENGTH:15.000;
#SELECTABLE:YES;
#OFFSET:0.000;
#BPMS:0.000=191.000;
#STOPS:;
#BGCHANGES:0.000=V3olt.avi=1.000=1=0=0=StretchNoLoop==CrossFade==;
#FGCHANGES:;

//--------------- dance-single - KAYSTAR ----------------
#NOTES:
     dance-single:
     KAYSTAR:
     Beginner:
     3:
     0,0,0,0,0:
0000
0000
0000
0000
,
0000
0000
0000
0000
,
0000
0000
0000
0000
,
0000
0000
0000
0000
,
0000
0000
0000
0000
,
1000
0000
0000
0000
,
0000
0000
0000
0000
,
0001
0000
0000
0000
,
0000
0000
0000
0000
,
1000
0000
0100
0000
,
1000
0000
0000
0000
,
0001
0000
0010
0000
,
0001
0000
0000
0000
,
1000
0000
0010
0000
,
1000
0000
0000
0000
,
0001
0000
0100
0000
,
0001
0000
0000
0000
,
1000
0000
0000
0000
,
0000
0000
0000
0000
,
0100
0000
0000
0000
,
0000
0000
0000
0000
,
0010
0000
0000
0000
,
0000
0000
0000
0000
,
0001
0000
0000
0000
,
0000
0000
0000
0000
,
1000
0000
1000
0000
,
1000
0000
0000
0000
,
0010
0000
0010
0000
,
0010
0000
0000
0000
,
0100
0000
0100
0000
,
0100
0000
0000
0000
,
0001
0000
0001
0000
,
0001
0000
0000
0000
,
1000
0000
0000
0000
,
0100
0000
0000
0000
,
0010
0000
0000
0000
,
0001
0000
0000
0000
,
1000
0000
1000
0000
,
0001
0000
0001
0000
,
2002
0000
0000
0000
,
3003
0000
0000
0000
,
0000
0000
0000
0000
,
0000
0000
0000
0000
,
1000
0000
0010
0000
,
0100
0000
0001
0000
,
1000
0000
1000
0000
,
1000
0000
0000
0000
,
0001
0000
0010
0000
,
0001
0000
0000
0000
,
1000
0000
0010
0000
,
1000
0000
0000
0000
,
0001
0000
0010
0000
,
0100
0000
1000
0000
,
0001
0000
0001
0000
,
0001
0000
0000
0000
,
2000
0000
3000
0000
,
0200
0000
0300
0000
,
0020
0000
0030
0000
,
0002
0000
0003
0000
,
1000
0000
0010
0000
,
0100
0000
0000
0000
,
0001
0000
0010
0000
,
0100
0000
0000
0000
,
1000
0000
1000
0000
,
0001
0000
0001
0000
,
0100
0000
0010
0000
,
1000
0000
0100
0000
,
0010
0000
0000
0000
,
0000
0000
0000
0000
,
0002
0000
0000
0000
,
0000
0000
0000
0000
0000
0000
0000
0003
;

//--------------- dance-single - KAYSTAR ----------------
#NOTES:
     dance-single:
     KAYSTAR:
     Easy:
     7:
     0,0,0,0,0:
0000
0000
0000
0000
,
0000
0000
0000
0000
,
0000
0000
0000
0000
,
0000
0000
0000
0000
,
0000
0000
0000
0000
,
0002
0000
0013
0000
,
0200
0000
1300
0000
,
0020
0000
0000
0000
0130
0000
0000
0001
,
0000
0001
0000
0001
0000
0000
0000
0000
,
1000
0100
1000
0001
,
0100
0010
1000
0000
,
0100
0010
0100
0010
,
0002
0000
2003
0000
,
3001
0100
0001
1000
,
0100
0010
0001
0000
,
0100
0000
0000
0100
0000
0000
0010
0000
,
0000
0010
0000
0000
2000
0000
0000
0000
,
3001
0000
0001
0000
,
0010
0000
0100
0000
,
1000
0000
1000
0000
,
0010
0000
0100
0000
,
0001
1000
0100
0000
,
1000
0001
0100
0000
,
0020
0000
0030
0000
,
1000
0001
0000
0000
1000
0001
0000
0000
,
1000
0001
0010
0001
,
1000
0010
0100
0000
,
0001
0001
1000
1000
,
0200
0000
0310
0000
,
0001
1000
0010
1000
,
0001
0010
0100
0000
,
2000
3020
0230
0302
,
1000
1000
1003
0000
,
1001
0000
0000
1001
0000
0000
0000
0000
,
0110
0000
0000
0110
0000
0000
0000
0000
,
1001
0000
0000
1001
0000
0000
0000
0000
,
0002
0023
0230
2300
,
3001
0001
0100
0010
,
1000
1000
0100
0010
,
0001
0000
0000
0001
0000
0000
2002
0000
,
0000
0000
0000
0000
,
3003
0000
0000
0000
,
0000
0000
0000
0000
,
1000
1000
1000
1000
,
1000
1000
1000
0000
,
0001
0100
0010
1000
,
0200
0000
0310
0000
,
0001
1000
0010
1000
,
0001
0010
0100
0000
,
1000
0000
0000
1000
0000
0000
2002
0000
,
0000
0000
3003
0000
,
0001
0001
0001
0001
,
0001
0001
0001
0000
,
1000
0010
0100
0001
,
0020
0000
0130
0000
,
1000
0001
0100
0001
,
1000
0100
0010
0000
,
0001
0100
0010
1000
,
0100
0010
0002
0000
,
1003
0010
0100
0001
,
0010
0010
0010
0000
,
0001
0100
1000
0100
,
0002
0000
2003
0000
,
3001
0010
0100
1000
,
0010
0010
0010
0000
,
1000
0100
0001
0100
,
1000
0010
0100
0001
,
1001
0000
0000
0000
,
0000
0000
0000
0000
,
2000
0000
0001
0000
0000
0001
0000
0000
,
0001
0000
0000
3001
0000
1000
0001
1000
;

//--------------- dance-single - KAYSTAR ----------------
#NOTES:
     dance-single:
     KAYSTAR:
     Medium:
     12:
     0,0,0,0,0:
0000
0000
0000
0000
,
0000
0000
0000
0000
,
0000
0000
0000
0000
,
0000
0000
0000
0000
,
0000
0000
0000
0000
,
0001
0000
1000
0000
0010
1000
0010
1000
,
0000
0001
0000
0010
0001
0010
0001
0000
,
1000
0000
1000
0000
0001
0100
0010
1000
,
0000
1000
0000
2002
0000
0000
3003
0000
,
0001
0000
0011
0000
0010
0100
1000
0002
,
0000
0100
0000
1003
0100
0010
0001
0000
,
1000
0000
1010
0000
0010
0100
0001
2000
,
0000
3100
0010
0002
0000
0103
0010
0000
,
1000
0000
1100
0000
0100
0010
0001
2000
,
0000
0010
0000
3001
0010
0100
1000
0000
,
0001
0100
0001
0100
0010
0000
1000
0100
,
1000
0100
0010
0000
0001
0100
0010
1000
,
0002
0000
0023
0000
,
0130
1000
0001
0001
,
2000
0000
3020
0000
,
0130
0001
2000
0100
,
3002
0100
2003
3200
,
0320
0032
1003
0000
,
0002
0203
0320
2030
,
3001
0001
0000
0000
1000
1000
0000
0000
,
1002
0000
0010
0000
1003
0000
0001
0100
,
0010
0000
1000
0001
0000
0001
1000
0000
,
0002
0000
0013
0100
2000
0000
3001
0100
,
0010
1000
0000
1100
0000
0011
0000
0001
,
2000
0000
0010
0000
3001
0000
1000
0100
,
0010
0001
1000
0010
0000
0100
0001
0000
,
2000
3200
0320
0031
,
1001
0000
0110
0000
1000
0010
0100
0001
,
0020
0100
0000
0130
0000
0000
0000
0000
,
2000
0001
0000
3001
0000
0000
1000
0010
,
0100
0000
0001
1000
0000
1000
0001
0000
,
0011
1100
2000
0000
,
3001
0100
0010
0000
1010
0000
1000
0100
,
0010
0011
1000
1001
,
0001
1000
0010
1000
0001
0010
0100
2000
,
0000
0000
0000
0000
,
3000
0000
0000
0000
,
0000
0000
0000
0000
,
1010
0011
1010
0011
,
1010
0000
0011
0000
1010
0000
0001
0020
,
0000
0130
1000
0002
0000
0103
0010
2000
,
0000
3100
0010
0000
0001
0100
0001
0200
,
0000
0010
0000
0301
1000
0100
1000
0200
,
0000
0010
0000
1300
0001
0100
0010
0000
,
2000
0000
3100
0020
0000
0031
2002
0000
,
0000
0000
3003
0000
1000
0010
0100
0001
,
0011
1010
0011
1010
,
0011
0000
1010
0000
0011
0000
1000
0010
,
0100
0001
1000
0100
0010
0100
1000
0002
,
0000
0103
0010
1000
1001
0000
1001
0000
,
0001
0010
0001
0020
0000
0100
0000
0031
,
1000
0010
1000
0010
0100
0000
0101
0000
,
0001
1000
0100
1000
0001
0100
0010
1000
,
0100
0010
0100
0010
0002
0000
0000
0000
,
1003
0000
1010
0000
0010
0100
0001
2000
,
0000
0100
0000
3001
0100
0010
1000
0000
,
0001
0000
0011
0000
0010
0100
1000
0002
,
0000
0103
0010
2000
0000
3100
0010
0000
,
0002
0100
2003
0100
,
3002
0100
2003
0000
,
3001
0010
0001
0100
0010
1000
0100
1000
,
0001
0100
1000
0100
0001
1000
0100
0010
,
0001
0000
0000
0000
,
0000
0000
0000
0000
,
2000
0000
0010
3002
0000
0010
2003
0000
,
0010
3002
0000
0010
1003
0010
0100
0001
;

//--------------- dance-single - KAYSTAR ----------------
#NOTES:
     dance-single:
     KAYSTAR:
     Hard:
     15:
     0,0,0,0,0:
0000
0000
0000
0000
,
0000
0000
0000
0000
,
0000
0000
0000
0000
0000
0000
0000
0000
0000
0000
0000
0000
0000
0000
0001
1000
,
0001
0000
0000
0000
,
0000
0000
0000
0000
,
2000
0000
3100
0000
1000
0100
0010
0002
,
0000
0103
0000
0001
0100
0010
1000
0000
,
1100
0000
0000
0000
0011
0000
0000
0000
0001
0000
1000
0001
1000
0000
0010
0000
,
0000
0010
0000
2002
0000
0000
3003
0000
,
1000
0010
0100
0001
0010
0100
0010
0001
,
1000
0010
0100
0001
0010
0100
0010
0001
,
0100
0010
1000
0100
0001
0100
1000
0002
,
0000
0103
0010
2000
0000
3001
1001
0000
,
0001
0010
0100
1000
0010
0100
0010
1000
,
0001
0010
0100
1000
0010
0100
0010
1000
,
1002
0000
0000
0000
0013
0000
0100
0000
1000
0000
0001
1000
0001
0000
0100
0000
,
1000
0000
0100
0000
0001
0000
1000
0000
0100
1000
0100
0000
0010
0001
0010
0000
,
0002
0000
0000
0103
0020
0000
0000
1030
,
0002
0000
0023
0000
0230
0000
1000
2300
,
0000
0001
0002
0000
0000
0000
0000
0000
,
3003
0000
1020
0130
,
0021
0000
0130
1000
0000
0001
0100
0000
,
0010
1000
0001
0000
0010
0100
1000
0000
,
0002
0203
0320
2030
,
3001
0000
0011
0000
0000
0000
0000
0000
1000
0000
1100
0000
0000
0000
0001
1000
,
0001
0100
0010
0100
0001
0100
0010
1000
,
0100
0001
0100
2000
0000
3010
0100
0001
,
1000
0100
0010
0100
1000
0100
0010
0001
,
0100
0000
1000
0000
0100
0000
0002
0000
0000
0000
1003
0100
0010
0000
0002
0000
,
0000
1003
1001
0000
0001
1000
0010
0100
,
0001
0000
0010
0000
0100
0000
1000
0001
1000
0000
0001
0000
0100
0000
0010
0000
,
2000
3200
0320
1000
,
0100
0000
0000
0000
0031
0000
0000
0000
1000
0001
1000
0001
1000
0001
1000
0000
,
0001
0101
0000
0101
0000
0000
0000
0000
,
1000
1100
0000
1100
0000
0001
0100
0010
,
1000
0000
1001
0000
0000
0000
1001
0000
0000
0000
0010
0000
0100
0010
0100
0010
,
0100
0000
0000
1001
0000
0000
1000
0100
0010
0001
0100
0010
,
1000
0001
0011
0000
1100
0000
1000
0001
,
0101
0000
0000
0000
1010
0000
0000
0000
1000
0100
0010
0000
0001
0100
0010
0000
,
1000
0000
0001
0010
0001
0000
0010
0000
0100
1000
0100
0000
1000
0000
2002
0000
,
0000
0000
0000
0000
,
3003
0000
0000
0000
,
0000
0000
0000
0000
0000
0000
0000
0000
0000
0000
0000
0000
4004
3003
0000
0000
,
0001
0100
0110
0000
1000
0100
0110
0000
,
0001
0100
0110
0000
1001
0000
1000
0100
,
0001
0100
1000
0010
0001
0010
1000
0002
,
0000
0000
0013
0000
0100
1000
0100
0000
1000
0000
0001
0000
0100
0000
0201
0000
,
0000
0310
1000
0001
0010
0001
1000
1020
,
0000
0000
0130
0000
0001
0000
1000
0000
0100
0000
0010
0001
0010
0001
0010
0000
,
0002
0000
0000
0000
1003
0000
0110
0000
0000
0000
0001
1000
0002
0000
0000
0000
,
0000
0000
0013
0000
0100
0000
0010
0000
0001
1000
0001
1000
0001
0000
0000
0000
,
0101
0100
0010
1000
1100
0100
0010
0001
,
0101
0000
0100
0000
0010
0000
1000
0001
1000
0000
0001
0000
0001
0000
0001
0000
,
1000
0100
0010
1000
0001
0100
0010
0002
,
0000
0000
1003
0000
0010
0000
1000
0000
0001
0010
0100
0000
0010
0100
1000
0000
,
0002
0000
0103
1000
0100
0001
1000
2001
,
0000
0000
3100
0000
0001
0000
0100
0000
1000
0000
0001
0000
1000
0001
1000
0000
,
0001
0000
0100
0010
1000
0000
0001
0010
0001
0010
0100
1000
0100
1000
0001
0000
,
0100
0100
0010
0010
2000
0000
0000
0000
,
3001
0010
1000
0010
0001
0100
0010
1000
,
0100
0001
0100
1000
0001
0100
0010
1000
,
0001
0010
0100
1000
0010
0001
0010
2000
,
0000
3100
0010
0002
0000
0103
0010
1000
,
1100
1100
0011
0011
,
1010
0000
0000
0000
0101
0000
0000
0000
1000
0000
0001
1000
0001
1000
0001
0000
,
0010
0000
0100
0000
1100
0000
1000
0000
0001
0000
0100
0010
1000
0000
0001
0000
,
0011
0000
0010
0000
0100
0000
1000
0000
0001
0100
0001
0100
0010
1000
0010
1000
,
0001
0000
0000
0000
,
0000
0000
0000
0000
,
1000
0000
0100
0000
0010
0000
0001
0010
0001
0010
0001
0000
1000
0001
1000
0001
,
1000
0000
0010
1000
0010
1000
0010
0000
0100
0000
0001
0000
0001
0000
1001
0000
;

//--------------- dance-double - KAYSTAR ----------------
#NOTES:
     dance-double:
     KAYSTAR:
     Easy:
     7:
     0,0,0,0,0:
00000000
00000000
00000000
00000000
,
00000000
00000000
00000000
00000000
,
00000000
00000000
00000000
00000000
,
00000000
00000000
00000000
00000000
,
00000000
00000000
00000000
00000000
,
00020000
00000000
00031000
00000000
,
00020000
00000000
00031000
00000000
,
00020000
00000000
00000000
00000000
00031000
00000000
00000000
00010000
,
00000000
00010000
00000000
00010000
00000000
00000000
00000000
00000000
,
00001000
01000000
00001000
01000000
,
00010000
01000000
00100000
00000000
,
10000000
00010000
10000000
00010000
,
00200000
00000000
00302000
00000000
,
00013000
00000100
00010000
00000100
,
00001000
00000100
00000010
00000000
,
00000001
00000000
00000000
00000001
00000000
00000000
00001000
00000000
,
00000000
00001000
00000000
00000000
00000020
00000000
00000000
00000000
,
00010030
00000000
00001000
00000000
,
00010000
00000000
00010000
00000000
,
00001000
00000000
00010000
00000000
,
00001000
00000000
00001000
00000000
,
01000000
00010000
01000000
00000000
,
00100000
10000000
00100000
00000000
,
20000000
00000000
30000000
00000000
,
00010000
10000000
00000000
00000000
00010000
10000000
00000000
00000000
,
01000000
00100000
00010000
00100000
,
00001000
00001000
00010000
00000000
,
00002000
00013000
00002000
00013000
,
00000100
00001000
00000001
00000000
,
00000100
00000010
00001000
00000010
,
00010000
00010000
00001000
00000000
,
00020000
00031000
00020000
00031000
,
01000000
00010000
10000000
00000000
,
10010000
00000000
00000000
10010000
00000000
00000000
00000000
00000000
,
01100000
00000000
00000000
01100000
00000000
00000000
00000000
00000000
,
10010000
00000000
00000000
10010000
00000000
00000000
00000000
00000000
,
10000000
00010000
00200000
00000000
,
00301000
00001000
00010000
00001000
,
00010000
00010000
00001000
00010000
,
00000100
00000000
00000000
00000100
00000000
00000000
00002002
00000000
,
00000000
00000000
00000000
00000000
,
00003003
00000000
00000000
00000000
,
00000000
00000000
00000000
00000000
,
00000001
00000001
00000001
00000001
,
00000001
00000001
00000001
00000000
,
00001000
00000010
00010000
00001000
,
02000000
00000000
03010000
00000000
,
00100000
00001000
00010000
00000000
,
00001000
00010000
00100000
00000000
,
10000000
00000000
00000000
10000000
00000000
00000000
20020000
00000000
,
00000000
00000000
30030000
00000000
,
10000000
10000000
10000000
10000000
,
10000000
10000000
10000000
00000000
,
00010000
00100000
00001000
00010000
,
00000200
00000000
00001300
00000000
,
00000010
00010000
00001000
00000000
,
00010000
00001000
00000010
00000000
,
00000001
00001000
00000001
00001000
,
00000010
00000000
00020000
00000000
,
00031000
01000000
00010000
01000000
,
00100000
00100000
00100000
00000000
,
10000000
01000000
00100000
00010000
,
02000000
00000000
03002000
00000000
,
00013000
00000100
00001000
00000100
,
00000010
00000010
00000010
00000000
,
00000001
00000100
00000010
00001000
,
00000100
00010000
00002000
00000000
,
00013000
00000000
00000000
00000000
,
00000000
00000000
00000000
00000000
,
00002000
00000000
00010000
00000000
00000000
00010000
00000000
00000000
,
00010000
00000000
00000000
00013000
00000000
00001000
00010000
00001000
;

//--------------- dance-double - KAYSTAR ----------------
#NOTES:
     dance-double:
     KAYSTAR:
     Medium:
     12:
     0,0,0,0,0:
00000000
00000000
00000000
00000000
,
00000000
00000000
00000000
00000000
,
00000000
00000000
00000000
00000000
,
00000000
00000000
00000000
00000000
,
00000000
00000000
00000000
00000000
,
00010000
00000000
00001000
00000000
00100000
00001000
00100000
00001000
,
00000000
00010000
00000000
00000010
00010000
00000010
00010000
00000000
,
00002000
00000000
00013000
00000000
00001000
01000000
00010000
10000000
,
00000000
10000000
00000000
20020000
00000000
00000000
30030000
00000000
,
00010000
00000000
01010000
00000000
01000000
00100000
10000000
00020000
,
00000000
00100000
00000000
10030000
00100000
01000000
00010000
00000000
,
10000000
00000000
11000000
00000000
01000000
00100000
00000000
00002000
,
00000000
00013000
00000100
00002000
00000000
00003001
00001001
00000000
,
00001000
00000000
00001010
00000000
00000010
00000100
00000001
00002000
,
00000000
00000100
00000000
00003001
00000100
00000010
00001000
00000000
,
00000100
00000010
00000001
00001000
00000010
00000000
00000100
00000001
,
00001000
00000100
00000010
00000000
00000001
00001000
00000010
00010000
,
00002000
00000000
02003000
00000000
,
03010000
00010000
00100000
00001000
,
00020000
00000000
00030200
00000000
,
00001300
00001000
00000002
00000100
,
00002003
00000100
00003002
00000203
,
00002300
00000000
00013000
00000000
00001000
00010000
00001000
00000000
,
00020000
00230000
20300000
30010000
,
10000000
10000000
00000000
00000000
00010000
00010000
00000000
00000000
,
10020000
00000000
01000000
00000000
10030000
00000000
01000000
00100000
,
00010000
00000000
01000000
00001000
00000000
00001000
00010000
00000000
,
00001000
00010000
00000100
00000000
00001000
00000100
00000010
00000000
,
00000001
00000100
00000000
00000101
00000000
00001010
00000000
00000001
,
00002000
00000000
00000100
00000000
00003001
00000000
00000100
00000010
,
00001000
00000000
00000100
00010000
00000000
00010000
00001000
00000000
,
00020000
00032000
00003200
00002300
,
00013000
00000000
00011000
00000000
00001000
01000000
00010000
10000000
,
02000000
00100000
00000000
03100000
00000000
00000000
00000000
00000000
,
00020000
10000000
00000000
10030000
00000000
00000000
00100000
01000000
,
00010000
00000000
00100000
00001000
00000000
00001000
00010000
00000000
,
00001000
00000000
00011000
00000000
00010000
00000100
00001000
00000001
,
00000200
00000010
00000310
00020000
,
00001000
00031000
00011000
00011000
,
00002000
00000000
01003000
00020000
00000000
10030000
20020000
00000000
,
00000000
00000000
00000000
00000000
,
30030000
00000000
00000000
00000000
,
00000000
00000000
00000000
00000000
,
10010000
00110000
00101000
00011000
,
00010010
00000000
00001010
00000000
00001001
00000000
00000001
00000010
,
00000000
00000001
00000100
00000010
00000000
00000100
00001000
00020000
,
00000000
00031000
01000000
00000000
00010000
01000000
00100000
20000000
,
00000000
00010000
00000000
31000000
00100000
00010000
00100000
00002000
,
00000000
00010000
00000000
00010000
00013000
00000000
00011000
00000000
,
00002000
00000000
00013000
00000200
00000000
00001300
00002002
00000000
,
00000000
00000000
00003003
00000000
00001000
00000010
00000100
00000001
,
00001001
00001100
00010100
00011000
,
01001000
00000000
01010000
00000000
10010000
00000000
10000000
01000000
,
00100000
00000000
00001000
00010000
00000000
00100000
00010000
00002000
,
00000000
00013000
00000100
00001000
00000001
00000000
00001001
00000000
,
00001000
00000010
00000100
00000002
00000000
00001000
00000000
00000013
,
00000100
00001000
00000100
00010000
00001000
00000000
00011000
00000000
,
00010000
00001000
00010000
00001000
00010000
00001000
00010000
00001000
,
01000000
00010000
01000000
00100000
20000000
00000000
00000000
00000000
,
30010000
00000000
10010000
00000000
10000000
00010000
00100000
00002000
,
00000000
00010000
00000000
00013000
00000010
00001000
00000001
00000000
,
00001000
00000000
00001001
00000000
00000001
00001000
00000100
00020000
,
00000000
00031000
01000000
00020000
00000000
10030000
10010000
00000000
,
20000000
32000000
03020000
00032000
,
00003020
00000032
00002003
00000000
,
00003001
00000100
00000001
00000100
00001000
00000100
00001000
00010000
,
00001000
00010000
00100000
00010000
00100000
10000000
00100000
10000000
,
00010000
00000000
00000000
00000000
,
00000000
00000000
00000000
00000000
,
10000000
00000000
01000000
10000000
00000000
01000000
00100000
00000000
,
00010000
00100000
00000000
00001000
00010000
00001000
00010000
00011000
;

//--------------- dance-double - KAYSTAR ----------------
#NOTES:
     dance-double:
     KAYSTAR:
     Hard:
     15:
     0,0,0,0,0:
00000000
00000000
00000000
00000000
,
00000000
00000000
00000000
00000000
,
00000000
00000000
00000000
00000000
00000000
00000000
00000000
00000000
00000000
00000000
00000000
00000000
00000000
00000000
00001000
00010000
,
00001000
00000000
00000000
00000000
,
00000000
00000000
00000000
00000000
,
00020000
00000000
00031000
00000000
00100000
00010000
00100000
00002000
,
00000000
00013000
00000000
00000010
00001000
00000010
00010000
00000000
,
00011000
00000000
00000000
00000000
00011000
00000000
00000000
00000000
00001000
00000000
00010000
00001000
00010000
00000000
00001000
00000000
,
00000000
00001000
00000000
00022000
00000000
00000000
00033000
00000000
,
00010000
00000100
00001000
00000100
00000010
00000001
00001000
00000010
,
00000100
00000010
00001000
00000001
00000010
00000100
00020000
00000000
,
00031000
01000000
00010000
01000000
00100000
10000000
00010000
00200000
,
00000000
01300000
10000000
00200000
00000000
01300000
00010000
00000000
,
10000000
01000000
00100000
00010000
01000000
00001000
00010000
00000010
,
00001000
00000100
00000010
00000001
00001000
00000010
00020000
00000000
,
00031000
00000000
00100000
00000000
00010000
00000000
00100000
00000000
00001000
00000000
00010000
00001000
00010000
00000000
00000010
00000000
,
00000100
00000000
00001000
00000000
00010000
00000000
00100000
00000000
01000000
00000000
00010000
10000000
00010000
10000000
00010000
00000000
,
20000000
00000000
00000000
31000000
00200000
00000000
00000000
00310000
,
20000000
00000000
30200000
00000000
02300000
00000000
03010000
00200000
,
00000000
00302000
00020000
00000000
00000000
00000000
00000000
00000000
,
00033000
00000000
00012000
00003010
,
00001020
00000000
00000031
00001000
00000000
00000001
00001000
00000000
,
00000001
00000100
00000010
00000000
00001000
00000010
00010000
00000000
,
00021000
00130000
00210000
10300000
,
10010000
00000000
10010000
00000000
00000000
00000000
00000000
00000000
01100000
00000000
01100000
00000000
00000000
00000000
10000000
00010000
,
10000000
01000000
00010000
01000000
10000000
01000000
00100000
00001000
,
00010000
00000100
00001000
00000200
00000000
00001300
00000001
00001000
,
00000001
00000100
00001000
00000100
00000001
00000100
00000010
00010000
,
00001000
00000000
01000000
00000000
00010000
00000000
02000000
00000000
00000000
00000000
03010000
10000000
00010000
00000000
20000000
00000000
,
00000000
30010000
10010000
00000000
10000000
01000000
00100000
00010000
,
01000000
00000000
00001000
00000000
00010000
00000000
00001000
00010000
00001000
00000000
00010000
00000000
00000100
00000000
00000010
00000000
,
00000002
00000203
00002300
00023000
,
00001000
00000000
00000000
00000000
00031000
00000000
00000000
00000000
00010000
00001000
00010000
00001000
00010000
00001000
00010000
00000000
,
00001000
01000000
00000000
01001000
00000000
00000000
00001000
00000000
,
00010000
00000100
00000000
00010100
00000000
00010000
00001000
00010000
,
00001000
00000000
00011000
00000000
00000000
00000000
00011000
00000000
00000000
00000000
00010000
00000000
00001000
00010000
00001000
00010000
,
00001000
00000000
00000000
00011000
00000000
00000000
00010000
00001000
00010000
00001000
01000000
00010000
,
10000000
01000000
00200000
00000000
00320000
00000000
00031000
00000100
,
00000020
00000032
00001003
00001001
,
00000001
00000100
00001000
00010000
00100000
10000000
00010000
20020000
,
00000000
00000000
00000000
00000000
,
30030000
00000000
00000000
00000000
,
00000000
00000000
00000000
00000000
00000000
00000000
00000000
00000000
00000000
00000000
00000000
00000000
40040000
30030000
00000000
00000000
,
10000000
01000000
11000000
00000000
00100000
00010000
00110000
00000000
,
00001000
00000100
00001100
00000000
00000011
00000000
00000001
00001000
,
00000010
00010000
00001000
00010000
00000100
00001000
00000001
00000200
,
00000000
00000000
00000310
00000000
00001000
00000001
00001000
00000000
00000001
00000000
00000010
00000000
00000100
00000000
00020000
00000000
,
00000000
00031000
00000100
00000010
00010000
00001000
00010000
00002000
,
00000000
00000000
00013000
00000000
01000000
00000000
00100000
00000000
00010000
00000000
10000000
00010000
10000000
00010000
10000000
00000000
,
00100000
00000000
01000000
00000000
00010000
00000000
00100000
00000000
00000000
00000000
00001000
00010000
00002000
00000000
00000000
00000000
,
00000000
00000000
00013000
00000000
00000100
00000000
00000010
00000000
00000001
00001000
00000001
00001000
00000001
00000000
00000000
00000000
,
00000101
00000100
00001000
00010000
00011000
00001000
00010000
00100000
,
10100000
00000000
10000000
00000000
00010000
00000000
10000000
00010000
10000000
00000000
01000000
00000000
00100000
00000000
00010000
00000000
,
10000000
00100000
00010000
00001000
00010000
01000000
10000000
00200000
,
00000000
00000000
01300000
00000000
00010000
00000000
00100000
00000000
00001000
00010000
00001000
00000000
00010000
00001000
00010000
00000000
,
00002000
00000000
00013000
01000000
00100000
00001000
00010000
00021000
,
00000000
00000000
00031000
00000000
00000100
00000000
00000010
00000000
00001000
00000000
00000001
00001000
00000001
00000000
00001000
00000000
,
00000001
00000000
00000010
00000100
00001000
00000000
00000001
00000100
00000001
00000100
00000010
00001000
00000010
00001000
00000010
00000000
,
00010000
00010000
00001000
00001000
00022000
00000000
00033000
00000000
,
00001000
01000000
00010000
01000000
00001000
00010000
01000000
00100000
,
00010000
10000000
00100000
01000000
00010000
00100000
00002000
00000000
,
00013000
00000100
00001000
00000100
00010000
00001000
00000100
00000020
,
00000000
00001030
00000100
00000020
00000000
00000031
00001001
00000000
,
00000002
00000203
00002300
00023000
,
00032000
00000000
00000000
00000000
00003020
00000000
00000000
00000000
00000031
00000000
00001000
00000001
00001000
00000001
00001000
00000000
,
00000010
00000000
00000100
00000000
00001000
00000000
00010000
00000000
00011000
00000000
00001000
00010000
00001000
00000000
00011000
00000000
,
00010000
00000000
01000000
00000000
00100000
00000000
00010000
00000000
10000000
00100000
10000000
00100000
01000000
00010000
01000000
00010000
,
01000000
00000000
00000000
00000000
,
00000000
00000000
00000000
00000000
,
00001000
00000000
00010000
00000000
00001000
00000000
00010000
00001000
00010000
00001000
00010000
00000000
00001000
00010000
00001000
00010000
,
00001000
00000000
00010000
00001000
00010000
00001000
00010000
00000000
00000100
00000000
00000010
00000000
00000001
00000000
00001001
00000000
;
