#VERSION:0.83;
#TITLE:UNAGI RISING VICTORY;
#SUBTITLE:;
#ARTIST:Carlos Hakamada;
#TITLETRANSLIT:;
#SUBTITLETRANSLIT:;
#ARTISTTRANSLIT:;
#GENRE:;
#CREDIT:Flicks;
#MUSIC:UNAGI RISING VICTORY.ogg;
#BANNER:UNAGI RISING VICTORY-bn.png;
#BACKGROUND:UNAGI RISING VICTORY-bg.jpg;
#CDTITLE:;
#SAMPLESTART:74.316;
#SAMPLELENGTH:9.947;
#SELECTABLE:YES;
#OFFSET:-0.105;
#BPMS:0.000=190.000;
#STOPS:;
#BGCHANGES:-0.332=UNAGI RISING VICTORY.avi=1.000=1=0=0=StretchNoLoop==CrossFade==;
#FGCHANGES:;

//--------------- dance-single - Flicks ----------------
#NOTEDATA:;
#STEPSTYPE:dance-single;
#DESCRIPTION:Flicks;
#DIFFICULTY:Beginner;
#METER:5;
#RADARVALUES:0,0,0,0,0;
#NOTES:
0000
0000
0000
0000
,
0000
0000
0000
0000
,
0000
0000
0000
0000
,
1000
0000
0001
0000
,
1000
0000
0000
0000
,
0001
0000
1000
0000
,
0001
0000
0000
0000
,
1000
0000
0100
0000
,
0010
0000
0001
0000
,
1000
0000
0001
0000
,
1000
0000
0001
0000
,
1000
0000
0000
0000
,
0001
0000
0001
0000
,
1000
0000
0001
0000
,
0100
0000
0010
0000
,
1000
0000
1000
0000
,
0001
0000
0001
0000
,
1000
0000
0001
0000
,
1000
0000
0001
0000
,
1000
0000
0000
0000
,
0001
0000
0001
0000
,
1000
0000
0000
0000
,
0000
0000
1000
0000
,
0001
0000
0010
0000
,
0100
0000
0010
0000
,
0001
0000
0000
0000
,
0000
0000
2000
0000
,
3001
0000
1000
0000
,
0100
0000
1000
0000
,
0001
0000
0100
0000
,
0001
0000
1000
0000
,
0001
0000
1000
0000
,
0001
0000
1000
0000
,
1000
0000
0100
0000
,
0010
0000
0001
0000
,
1000
0000
0001
0000
,
1000
0000
0001
0000
,
1000
0000
0001
0000
,
1001
0000
0000
0000
,
0000
0001
0000
0100
,
0000
0010
0000
1000
,
0000
0001
0000
1000
,
0000
0001
0000
1000
,
0000
0000
1000
0000
,
0100
0000
0010
0000
,
0001
0000
0000
0000
,
0001
0000
0000
0000
,
1000
0000
0001
0000
,
0100
0000
0010
0000
,
1000
0000
0000
0000
,
0001
0000
0000
0000
,
1000
0000
0000
0100
,
0000
0000
0000
0000
,
0010
0000
0000
0000
,
0001
0000
0000
0000
,
1000
0000
1001
0000
,
0000
0000
0000
0000
,
0000
0000
0000
0000
,
0001
0000
0000
0000
,
0100
0000
0100
0000
,
0001
0000
1000
0000
,
0001
0000
1000
0000
,
0100
0000
0010
0000
,
0100
0000
1000
0000
,
1000
0000
0001
0000
,
1000
0000
0001
0000
,
1000
0000
0000
0000
,
0001
0000
0001
0000
,
0100
0000
0000
0000
,
0010
0000
0000
0000
,
1000
0000
0001
0000
,
1000
0000
1000
0000
,
0001
0000
0001
0000
,
1000
0000
1000
0000
,
0001
0000
0001
0000
,
2002
0000
0000
0000
,
0000
0000
0000
3003
,
1000
0000
0001
0000
,
1000
0000
0100
0000
,
1000
0000
0001
0000
,
1000
0000
0010
0000
,
1000
0000
0001
0000
,
0010
0000
0100
0000
,
1000
0000
1000
0000
,
0001
0000
0001
0000
,
1000
0000
0001
0000
,
0100
0000
0100
0000
,
0010
0000
0010
0000
,
1000
0000
0001
0000
,
1001
0000
0000
0000
,
0000
0000
0110
0000
,
1000
0000
0001
0000
,
1000
0000
0010
0000
,
1000
0000
1000
0000
,
0100
0000
0100
0000
,
0010
0000
0010
0000
,
0001
0000
0001
2000
,
0000
0000
0000
0000
,
0000
0000
3000
0000
;

//--------------- dance-single - Flicks ----------------
#NOTEDATA:;
#STEPSTYPE:dance-single;
#DESCRIPTION:Flicks;
#DIFFICULTY:Easy;
#METER:9;
#RADARVALUES:0,0,0,0,0;
#NOTES:
0000
0000
0000
0000
,
0000
0000
0000
0000
,
0000
0000
0000
0000
,
2000
3100
0010
0002
,
1003
0001
1000
0000
,
0002
0103
0010
2000
,
3001
1000
0001
1000
,
0001
1000
0001
0000
1000
0001
1000
0000
,
0100
0010
0001
1001
,
0001
0100
0020
0000
,
1030
0100
0010
0100
,
2000
0000
0000
0000
0000
0000
3002
0003
,
0100
0100
0001
0001
,
1001
0000
0000
0001
1000
0000
0001
0000
,
0010
0100
0010
0000
,
0001
1000
0010
0000
1000
0001
0010
0000
,
0001
0000
0100
0010
1000
0000
0001
0000
,
1000
0100
0020
0000
,
0031
0100
0010
0100
,
0002
0000
0000
0000
0000
0000
2003
3000
,
0100
0100
1000
1000
,
1001
0000
0000
1001
0000
0000
0000
1001
,
0000
0000
1000
0001
,
1000
0001
0010
0100
,
1000
0100
0010
0011
,
0001
0000
0000
0000
1000
0000
0000
1000
,
0000
0001
0000
0000
2002
0000
3003
0000
,
1000
0010
1000
0001
,
1000
0100
0001
0100
,
1000
0001
1000
0000
0001
0100
0001
0000
,
1000
1001
0001
1001
,
0001
0010
0001
1000
,
0001
0100
1000
0100
,
0001
1000
0001
0000
1000
0100
1000
0000
,
0001
1001
1000
1001
,
1000
0001
1000
0100
,
1000
0000
0010
0000
1000
0001
1000
0000
,
0001
1000
0001
0010
,
0001
0000
1000
0000
0002
0000
0000
0103
,
0000
0010
1000
0001
,
0100
0000
0010
1000
0000
0000
0000
0001
,
0000
0000
1000
0000
0100
0000
0010
0001
,
1000
0000
0000
0001
0000
1000
0000
1001
,
0000
0000
0000
1000
0020
0000
0000
0130
,
0002
0203
2300
3200
,
0302
0000
0000
1003
0001
0000
0000
0001
,
1000
0000
0000
1001
0000
0000
0001
1000
,
0000
0001
1000
0000
0001
0000
1000
0100
,
0010
0000
0000
0001
0000
1000
0001
1000
,
0000
0001
1000
0000
0001
0000
0100
0000
,
0010
0000
0000
1000
0000
1001
0000
0000
,
1001
0000
0000
1000
0000
0000
1100
0000
,
1000
0100
1000
0001
,
0100
0000
0001
0000
,
0110
0000
0000
1000
0000
0000
0000
0000
,
0001
0000
2002
0000
,
0000
0000
0000
0000
,
0000
0000
3003
0000
,
0000
0000
0001
0000
1000
0000
0002
0003
,
1000
1000
0100
0100
,
1001
0001
0100
0010
,
0100
0001
1000
0000
,
0001
1000
0100
0000
1000
0001
0100
0000
,
0001
0000
0010
0100
1000
0000
0100
0000
,
1000
0100
0020
0000
,
0031
0100
0010
0100
,
0002
0000
0000
0000
0000
0000
2003
3000
,
0100
0100
1000
1000
,
1001
0000
0000
1001
0000
0000
0000
1001
,
0000
0000
1000
0001
,
0100
1000
0100
0001
,
1000
0000
0000
1000
0001
0000
0010
0000
,
0100
0000
0000
1000
0001
0000
0100
0000
,
0010
0000
0000
1000
0001
0000
1000
0000
,
0001
1000
0100
0010
,
2002
0000
0000
0000
,
3003
0001
1000
0000
0001
0000
0000
0000
,
1000
0100
0010
0001
,
1000
0001
1000
0001
,
0100
0010
1000
0010
,
1000
0001
0010
0000
,
0001
0010
0100
1000
,
0001
1000
0001
1000
,
0010
0000
0000
0100
0000
0000
0001
0000
,
1000
1000
0100
0100
,
0010
0000
0001
1000
0001
0000
1000
0000
,
0001
0000
0100
0001
0100
0000
0001
0000
,
0010
0001
0100
0001
,
1000
0100
0010
0000
,
0001
0000
0000
1000
0000
0000
0000
0001
,
0000
0000
1001
0000
,
0001
1000
0010
0100
,
0001
1000
0001
1001
,
1000
1000
0001
0001
,
1000
0000
0001
0000
1000
0000
0002
0003
,
0010
0010
0100
0100
,
1000
0001
1000
2002
,
0000
0000
0000
0000
,
0000
3000
0003
0000
;

//--------------- dance-single - Flicks ----------------
#NOTEDATA:;
#STEPSTYPE:dance-single;
#DESCRIPTION:Flicks;
#DIFFICULTY:Medium;
#METER:12;
#RADARVALUES:0,0,0,0,0;
#NOTES:
0000
0000
0000
0000
,
0000
0000
0000
0000
,
0000
0000
0000
0000
,
2000
0000
3001
0000
1000
0100
0020
0000
,
0130
1000
0001
1000
0000
0001
1000
0000
,
0002
0000
1003
0000
0001
0100
0020
0000
,
0130
0001
1000
0001
0000
1000
0001
0000
,
1000
1000
1000
0000
0001
0001
0001
0000
,
2002
0000
3003
1001
,
1000
0100
0010
0001
1000
0000
0001
1000
,
0001
0000
0000
0100
0000
0000
0010
0000
0100
0000
0000
0001
0000
0000
1000
0000
,
0001
0000
2000
0000
3100
0000
2000
3000
,
0001
0000
0000
0000
0000
0000
0000
0000
0100
0000
0000
0000
0010
0000
0000
0000
0000
0000
0000
0000
1000
0000
0000
0000
0001
0000
0000
0000
0000
0000
0000
0000
0000
0100
0000
0000
0000
0000
0000
0000
0000
0000
0010
0000
0000
0000
0000
0000
,
2000
0000
0000
3001
1000
0000
0001
0010
,
0100
0010
0001
1000
0000
0001
0100
0010
,
1000
1000
0000
0001
0001
0000
1000
1000
,
0001
0000
0000
0010
0000
0000
0100
0000
0010
0000
0000
0000
0001
0000
0000
0000
,
1000
0010
0100
0001
1000
0000
0001
1000
,
0001
0000
0000
0010
0000
0000
0100
0000
0010
0000
0000
0001
0000
0000
1000
0000
,
0001
0000
2000
0000
3010
0000
2000
3000
,
0001
0000
0000
0000
0000
0000
0000
0000
0010
0000
0000
0000
0100
0000
0000
0000
0000
0000
0000
0000
1000
0000
0000
0000
0001
0000
0000
0000
0000
0000
0000
0000
0000
0010
0000
0000
0000
0000
0000
0000
0000
0000
0100
0000
0000
0000
0000
0000
,
2000
0000
0000
3001
0000
1000
0000
1001
,
0000
0000
1000
0000
0100
0000
0010
0000
0001
0000
0000
1000
0000
0000
0001
0000
,
1000
0001
1000
0010
,
1000
0001
1000
0100
1000
0000
0001
0000
,
2002
0000
0000
0000
0000
0000
3003
1000
,
0000
1010
0000
0000
2002
0000
3003
0000
,
1000
0100
0010
0001
1000
0100
0010
0000
,
0002
0203
2300
3200
,
0301
0100
0001
0100
0001
0100
0001
0000
,
1000
0100
0010
0000
0010
0100
1000
0001
,
1000
0010
0100
0001
1000
0010
0100
0000
,
0002
0023
2030
3020
,
0031
0010
0001
0010
0001
0010
0001
0000
,
1000
0010
0100
0000
0100
0010
1000
0001
,
1000
0001
0100
0001
,
1000
0000
0100
0000
1000
0001
1000
0000
,
0001
1000
0001
0000
1000
0010
0100
0001
,
1000
0000
0001
0000
2002
0000
3003
1000
,
0000
0001
0010
0100
1000
0000
1000
0100
,
0010
0001
0000
1000
0000
0001
0100
0010
,
0000
1000
0010
0100
0001
0000
1000
0001
,
2000
0000
0000
3002
0000
1000
0003
0100
,
0000
0000
0000
1000
0001
0000
0000
1000
,
0002
0203
2300
3200
,
0302
0000
0000
1003
0001
0000
0000
1000
,
0001
0000
0000
0010
0000
0000
0100
0000
0000
0000
1000
0000
0001
0000
1000
0000
,
0000
0001
0100
0010
1000
0000
1000
0010
,
0100
0001
0000
1000
0000
0001
0010
0100
,
0000
1000
0100
0010
0001
1000
0001
0100
,
0010
1000
0000
0002
0000
1003
0000
0000
,
1001
0000
0000
1001
0000
0000
1001
0000
,
1000
0000
0000
0100
0010
0000
0000
0001
1000
0000
0001
0000
0100
0000
0010
0000
,
0100
0000
0000
1001
0000
0000
0001
0000
1000
0000
0000
0100
0000
0000
0001
0000
,
0100
0000
0000
1000
0000
0000
0000
0000
,
0001
0000
0000
0100
0000
0000
0010
0000
2000
0000
0000
0000
0000
0000
0000
0000
,
0000
0000
0000
0000
,
0000
0000
0000
0000
0000
0000
0000
0000
3001
0000
0000
0010
0000
0000
0100
0000
,
0010
0000
0001
0000
1001
0000
2000
3000
,
0001
0000
0000
0000
0000
0000
0000
0000
0100
0000
0000
0000
0010
0000
0000
0000
0000
0000
0000
0000
1000
0000
0000
0000
0001
0000
0000
0000
0000
0000
0000
0000
0000
1000
0000
0000
0000
0000
0000
0000
0000
0000
0001
0000
0000
0000
0000
0000
,
1000
0100
0010
0001
1000
0000
0001
1000
,
0001
0100
0001
1000
0000
0001
1000
0001
,
1000
0100
1000
0001
0100
0001
1000
0100
,
1000
0000
0000
0100
0000
0000
0001
0000
0100
0000
1000
0000
0001
0000
0000
0000
,
1000
0010
0100
0001
1000
0000
0001
1000
,
0001
0000
0000
0010
0000
0000
0100
0000
0010
0000
0000
0001
0000
0000
1000
0000
,
0001
0000
2000
0000
3010
0000
0200
0300
,
0001
0000
0000
0000
0000
0000
0000
0000
0100
0000
0000
0000
0010
0000
0000
0000
0000
0000
0000
0000
0100
0000
0000
0000
1000
0000
0000
0000
0000
0000
0000
0000
0000
0100
0000
0000
0000
0000
0000
0000
0000
0000
0001
0000
0000
0000
0000
0000
,
2000
0000
0000
3001
0000
0000
0000
1001
,
0000
0000
1000
0000
0100
0000
0010
0000
0001
0000
0000
1000
0000
0000
1001
0000
,
2000
0000
3002
0000
2003
0000
3001
1000
,
0010
0000
0100
0000
0010
0000
0100
0000
0001
0000
0000
1000
0000
0000
0001
0000
,
0010
0000
0100
0000
0010
0000
0100
0000
1000
0000
0000
0001
0000
0000
1000
0000
,
0010
0000
0100
0000
0010
0000
0100
0000
0001
0000
0000
1000
0000
0000
0002
0000
,
0000
1003
0100
0001
0100
0000
2000
0000
,
3002
0000
0000
0000
,
0000
1003
0010
1000
0001
0000
0000
0000
,
1000
0100
0010
0000
0001
0100
0010
0000
,
1000
0000
0100
0010
0001
0000
0011
0000
,
0001
0100
0010
0000
1000
0100
0010
0000
,
0001
0000
0000
0000
0100
0000
0010
0000
1000
0000
0000
0001
0000
0000
1000
0000
,
0001
0010
0100
0000
1000
0010
0100
0000
,
0001
0100
1000
0100
0001
0000
1001
0000
,
1000
0100
0010
0000
0001
0100
0010
0000
,
1000
0010
0001
0010
1000
0000
1001
0000
,
1000
0001
1000
0100
0010
0001
0000
1000
,
0001
1000
0001
0100
0010
1000
0000
0001
,
1000
0100
0010
0100
1000
0001
1000
0001
,
0100
0000
0010
0000
0100
0000
0001
0000
1000
0000
0000
0001
0000
0000
1000
0000
,
0200
0000
0000
0320
0000
0000
0000
2030
,
0000
0000
0000
0000
0000
0000
0000
0000
3010
0000
0000
0001
0000
0000
1000
0000
,
0001
0100
0001
0010
,
0001
1000
0010
1000
0001
0000
1001
0000
,
1000
1100
0001
0101
,
0001
0000
0100
0000
1000
0000
0100
0000
0001
0000
0000
0000
2000
3000
0000
0000
,
0001
0011
1000
1010
,
1000
0010
0001
0010
1000
0000
2002
0000
,
0000
0000
0000
0000
,
0000
3000
0003
0000
;

//--------------- dance-single - Flicks ----------------
#NOTEDATA:;
#STEPSTYPE:dance-single;
#DESCRIPTION:Flicks;
#DIFFICULTY:Hard;
#METER:15;
#RADARVALUES:0,0,0,0,0;
#NOTES:
0000
0000
0000
0000
,
0000
0000
0000
0000
,
0000
0000
0000
0000
,
2000
0000
3001
0000
1000
0100
0002
0000
,
0103
1000
0001
1000
0000
0001
0100
0010
,
2000
0000
3001
0000
0001
0010
2000
0000
,
3010
0000
0001
0000
1000
0000
0001
0000
1000
0010
1000
0010
1000
0000
0001
0000
,
1000
1000
1000
0000
0001
0001
0001
0000
,
1000
0100
1000
0100
1000
0100
1000
0100
1000
0000
0000
0000
1001
0000
0000
0000
,
0001
0000
0100
0000
0010
0000
1000
0010
1000
0000
0001
0000
1000
0000
0100
0010
,
0100
0000
0000
1000
0000
0000
0100
0000
0010
0000
0000
0100
0000
0000
1000
0000
,
0001
0100
0020
0000
1030
0000
2000
3000
,
0001
0000
0000
0000
0010
0000
0000
0000
0100
0000
0000
0000
0010
0000
0000
0000
0001
0000
0000
0000
0010
0000
0000
0000
0100
0000
0000
0000
0000
0000
0000
0000
0000
0001
0000
0000
0000
0000
0000
0000
0000
0000
0100
0000
0000
0000
0000
0000
,
2000
0000
3001
1000
0001
0000
1000
0010
,
0100
0001
0010
0100
1000
0001
1000
0010
,
0100
0000
0010
0100
0010
0000
1000
0000
0100
0010
0100
0000
0010
0000
0100
0000
,
1000
0000
0000
0001
0000
0000
0100
0000
1000
0000
0100
0000
0001
0000
0100
0000
,
0001
0000
0010
0000
0100
0000
1000
0100
1000
0000
0001
0000
1000
0000
0010
0100
,
0010
0000
0000
1000
0000
0000
0010
0000
0100
0000
0000
0001
0000
0000
1000
0000
,
0001
0010
0200
0000
1300
0000
2000
3000
,
0001
0000
0000
0000
0100
0000
0000
0000
0010
0000
0000
0000
0100
0000
0000
0000
0001
0000
0000
0000
0100
0000
0000
0000
0010
0000
0000
0000
0000
0000
0000
0000
0000
0001
0000
0000
0000
0000
0000
0000
0000
0000
0010
0000
0000
0000
0000
0000
,
1000
0001
1000
1100
0000
1000
0001
1001
,
0000
0000
1000
0001
1000
0000
0001
0000
0101
0000
0000
0110
0000
0000
1010
0000
,
2000
3002
0023
0230
,
1300
0010
1000
0100
1000
0000
1001
0000
,
0001
0000
1001
0000
0000
0000
0000
0000
0001
0100
0001
0100
0001
0100
0001
0000
,
0000
1100
0000
0000
2002
0000
3003
0000
,
1000
0000
0010
1000
0010
0000
0100
0000
0001
0000
1000
0000
1000
0000
1000
0000
,
0001
0010
1000
0010
0001
1000
0001
0000
,
0001
0100
0001
0010
0001
0100
0001
1000
,
0001
0010
1000
0001
0100
1000
0001
1000
,
0001
0000
0010
0001
0010
0000
0100
0000
1000
0000
0001
0000
0001
0000
0001
0000
,
1000
0010
0001
0010
1000
0001
1000
0000
,
1000
0100
1000
0010
1000
0100
1000
0001
,
0100
1000
0001
0010
2000
0000
3001
1000
,
1001
1100
1001
0101
,
1001
0000
1100
0000
1000
0001
0100
1000
,
0100
0001
1000
0001
0010
1000
0010
0001
,
1000
0001
1000
0001
1000
0000
0001
0000
1000
0000
1000
0000
1000
0000
0002
0000
,
0000
0103
0010
1000
0001
0010
0001
1000
,
0010
0100
0001
1000
0100
1000
0001
2001
,
0000
3010
0100
0001
1000
0100
1000
0001
,
0100
0000
0010
0000
1000
0000
0001
0000
1000
0000
0100
0000
0010
0100
0020
0000
,
0000
0000
0001
0000
0031
0000
1000
0001
2000
0000
0000
0000
3010
0000
0100
0000
,
0002
0203
2300
3200
,
0302
0000
0000
0000
0000
0000
1003
0000
0001
0000
0000
0000
1000
0100
1000
0100
,
1000
0000
0000
1100
0000
0000
1001
0000
0000
0000
0001
0000
0100
0000
0010
0000
,
0000
0010
0100
0001
0100
0010
1000
0100
,
0010
0001
0100
0010
0000
1000
0100
0020
,
0000
1030
0010
0001
1000
0010
0001
0010
,
0100
0000
0001
0100
0001
0100
0001
0000
0000
0000
1001
0000
0000
0000
0000
0000
,
1100
0000
0000
0110
0000
0000
0011
0000
,
0001
0000
1000
0001
1000
0000
0001
1000
0001
0000
0100
0000
0010
1000
0010
1000
,
0010
0000
0000
0100
0000
0000
0001
0000
0100
0001
0100
0001
0100
0001
0100
0001
,
0100
0000
0000
2002
0000
0000
3003
0000
,
1000
0000
0000
0100
0000
0000
0010
0000
0002
0000
0000
0000
0000
0000
0000
0000
,
0000
0000
0000
0000
,
0000
0000
0000
0000
0000
0000
0000
0000
1003
0000
0000
0010
0000
0000
0100
0000
,
0010
0000
1010
0000
0011
0000
0002
0003
,
1000
0000
0000
0000
0010
0000
0000
0000
0100
0000
0000
0000
1000
0000
0000
0000
0100
0000
0000
0000
0010
0000
0000
0000
1000
0000
0000
0000
0000
0000
0000
0000
0000
0001
0000
0000
0000
0000
0000
0000
0000
0000
0010
0000
0000
0000
0000
0000
,
0001
1000
0001
1000
0010
0100
0010
1000
,
0100
0010
0100
1000
0001
1000
0001
0100
,
0010
0000
0100
1000
0100
0000
0001
0000
0100
1000
0100
0000
0010
0000
1000
0000
,
0001
0000
0000
0011
0000
0000
1001
0000
1000
0000
0001
0000
0100
0000
0010
0000
,
1000
0000
0100
0000
0010
0000
0001
0010
0100
0000
1000
0000
0001
0000
1000
0010
,
1000
0000
0000
0100
0000
0000
0001
0000
1000
0000
0000
0010
0000
0000
0001
0000
,
1000
0010
0100
0001
1000
0000
0002
0003
,
1000
0000
0000
0000
0100
0000
0000
0000
0010
0000
0000
0000
0100
0000
0000
0000
1000
0000
0000
0000
0010
0000
0000
0000
0100
0000
0000
0000
0000
0000
0000
0000
0000
1000
0000
0000
0000
0000
0000
0000
0000
0000
0100
0000
0000
0000
0000
0000
,
0001
0000
0100
0001
0100
0001
0100
0000
0000
0000
0001
0000
0000
0000
1001
0000
,
0000
0000
1000
0000
0100
0000
0010
0000
0110
0000
0000
0110
0000
0000
0110
0000
,
0020
0000
0032
0000
2003
0000
3001
1000
,
0010
0000
0100
0000
0010
0000
0100
0000
0001
0000
0000
0101
0000
0000
0001
0000
,
0010
0000
0100
0000
0010
0000
0100
0000
1000
0000
0000
1100
0000
0000
0001
0000
,
0100
0000
0010
0000
0100
0000
0010
0000
1000
0000
0000
1010
0000
0000
2000
0000
,
0000
3001
0010
1000
0010
0000
0011
0000
,
2001
0000
0001
0000
0010
0010
0000
0001
,
3000
0000
1000
0000
0001
0000
0010
0000
0001
0000
1000
0001
1000
0000
0000
0000
,
0001
0100
0001
1000
0001
0010
0100
0010
,
0001
0010
1000
0010
0001
1000
1001
0000
,
1000
0010
1000
0001
1000
0100
0010
0100
,
1000
0000
0000
0000
0100
0000
0000
0000
0010
0000
0000
0000
0001
0000
0000
0000
1000
0000
0000
0000
0001
0000
0000
0000
0100
0000
0000
0000
0000
0000
0000
0000
0000
0110
0000
0000
0000
0000
0000
0000
0000
0000
1010
0000
0000
0000
0000
0000
,
1000
0100
1000
0001
1000
0010
0100
0010
,
1000
0010
0001
0010
1000
0001
1001
0000
,
1000
0100
0010
0100
1000
0000
0001
0100
0010
0100
0001
0000
1000
0001
1000
0001
,
1000
0100
0110
0010
0110
0000
1001
0001
,
1000
0010
1000
0000
0001
0000
0010
0000
0001
0000
0100
0000
0001
0000
1000
0000
,
0001
0010
0100
0001
0100
1000
0001
1000
,
0010
0100
0001
0010
0100
1000
0100
1000
,
0001
0000
0000
0000
0100
0000
0000
0000
0001
0000
0000
0000
0100
0000
0000
0000
0010
0000
0000
0000
1000
0000
0000
0000
0010
0000
0000
0000
0000
0000
0000
0000
0000
0110
0000
0000
0000
0000
0000
0000
0000
0000
0101
0000
0000
0000
0000
0000
,
0001
0000
1000
0001
1000
0001
1000
0000
0100
0000
0010
0000
0001
0000
1000
0000
,
0001
0000
0100
0000
1000
0000
0100
0000
0101
0000
0000
0101
0000
0000
0101
0000
,
0002
2003
3200
0320
,
0031
0000
1000
0001
1000
0001
1000
0001
1000
0000
0000
0000
1010
0000
0000
0000
,
1000
1000
1000
0000
0001
0001
0001
0000
,
1000
0000
0100
0000
0001
0000
0100
0000
1000
0000
0001
0000
2000
3000
0000
0000
,
0010
0010
0010
0000
0100
0100
0100
0000
,
0001
0100
1000
0100
0001
0000
2002
0000
,
0000
0000
3003
2002
,
0000
3000
0003
0000
;

//--------------- dance-double - Flicks ----------------
#NOTEDATA:;
#STEPSTYPE:dance-double;
#DESCRIPTION:Flicks;
#DIFFICULTY:Hard;
#METER:15;
#RADARVALUES:0,0,0,0,0;
#NOTES:
00000000
00000000
00000000
00000000
,
00000000
00000000
00000000
00000000
,
00000000
00000000
00000000
00000000
,
20000000
00000000
30010000
00000000
10000000
01000000
00020000
00000000
,
01030000
10000000
00010000
00100000
00000000
00010000
01000000
00001000
,
00020000
00000000
00030100
00000000
00001000
00000010
00000002
00000000
,
00000013
00000000
00001000
00000000
00000001
00000000
00001000
00000000
00000100
00001000
00000100
00001000
00000100
00000000
00010000
00000000
,
00001000
00001000
00001000
00000000
00010000
00010000
00010000
00000000
,
00001000
00010000
00001000
00010000
00001000
00000000
00100000
00000000
00010000
00000000
00000000
00000000
10010000
00000000
00000000
00000000
,
00010000
00000000
01000000
00000000
00100000
00000000
10000000
00100000
10000000
00000000
00010000
00000000
10000000
00000000
01000000
00100000
,
01000000
00000000
00000000
10000000
00000000
00000000
01000000
00000000
00100000
00000000
00000000
01000000
00000000
00000000
10000000
00000000
,
00010000
01000000
00002000
00000000
00023000
00000000
00030020
00000000
,
00001030
00000000
00000000
00000000
00000010
00000000
00000000
00000000
00010000
00000000
00000000
00000000
00000010
00000000
00000000
00000000
00001000
00000000
00000000
00000000
00000010
00000000
00000000
00000000
00010000
00000000
00000000
00000000
00000000
00000000
00000000
00000000
00000000
00001000
00000000
00000000
00000000
00000000
00000000
00000000
00000000
00000000
00010000
00000000
00000000
00000000
00000000
00000000
,
02000000
00000000
13000000
00010000
10000000
00000000
10000000
00100000
,
01000000
00010000
00100000
01000000
10000000
01000000
00100000
00010000
,
00100000
00000000
00001000
00010000
00001000
00000000
00010000
00000000
00000010
00001000
00000010
00000000
00010000
00000000
00001000
00000000
,
00010000
00000000
00000000
01000000
00000000
00000000
10000000
00000000
01000000
00000000
00010000
00000000
00001000
00000000
00000010
00000000
,
00000001
00000000
00000010
00000000
00000100
00000000
00001000
00000100
00001000
00000000
00000001
00000000
00001000
00000000
00000010
00000100
,
00000010
00000000
00000000
00001000
00000000
00000000
00000010
00000000
00000100
00000000
00000000
00000010
00000000
00000000
00001000
00000000
,
00000001
00000010
00002000
00000000
00023000
00000000
00032000
00000000
,
01003000
00000000
00000000
00000000
00010000
00000000
00000000
00000000
01000000
00000000
00000000
00000000
00001000
00000000
00000000
00000000
01000000
00000000
00000000
00000000
00010000
00000000
00000000
00000000
01000000
00000000
00000000
00000000
00000000
00000000
00000000
00000000
00000000
00001000
00000000
00000000
00000000
00000000
00000000
00000000
00000000
00000000
00010000
00000000
00000000
00000000
00000000
00000000
,
00000200
00000000
00001300
00001100
00000000
00010000
00000000
00011000
,
00000000
00000000
00001000
01000000
00001000
00000000
01000000
00000000
01010000
00000000
00000000
01100000
00000000
00000000
10100000
00000000
,
20000000
30020000
00230000
02300000
,
13000000
00100000
01000000
00010000
01000000
00000000
01001000
00000000
,
00001000
00000000
00011000
00000000
00000000
00000000
00000000
00000000
00010000
00000100
00010000
00000100
00010000
00000100
00010000
00000000
,
00000000
00001100
00000000
00000000
00002002
00000000
00003003
00000000
,
00000001
00000000
00000100
00000001
00000100
00000000
00000010
00000000
00001000
00000000
00000001
00000000
00000001
00000000
00000001
00000000
,
00001000
00000100
00000001
00000100
00001000
00000001
00001000
00000000
,
00000001
00000100
00000001
00000010
00000001
00000100
00000001
00001000
,
00000001
00000010
00001000
00010000
01000000
10000000
00010000
10000000
,
00010000
00000000
01000000
00010000
01000000
00000000
00100000
00000000
10000000
00000000
00010000
00000000
00010000
00000000
00010000
00000000
,
10000000
01000000
00010000
01000000
10000000
00010000
10000000
00000000
,
10000000
00100000
10000000
01000000
10000000
00100000
10000000
01000000
,
00100000
00010000
00001000
00000100
00000020
00000000
00000031
00000010
,
00000011
00000101
00001001
00001100
,
00011000
00000000
01010000
00000000
10000000
00010000
00100000
10000000
,
00100000
00010000
00100000
00001000
00010000
00000100
00001000
00000001
,
00001000
00000001
00001000
00000001
00001000
00000000
00000001
00000000
00001000
00000000
00001000
00000000
00001000
00000000
00000002
00000000
,
00000000
00000103
00000010
00001000
00000001
00000010
00000001
00000100
,
00000010
00001000
00010000
01000000
00100000
10000000
00010000
20010000
,
00000000
31000000
00100000
00010000
10000000
00100000
10000000
00010000
,
00100000
01000000
10000000
00010000
10000000
00100000
01000000
00020000
,
00000000
00000000
01030000
00001000
00020000
00000000
00031000
00010000
,
00000200
00020300
00032000
02003000
,
03002000
00000000
00003000
00010000
00000100
00000000
00001000
00000100
,
00001100
00000000
00000000
00000110
00000000
00000000
00000011
00000000
00000000
00000000
00000001
00000000
00000010
00000000
00000100
00000000
,
00000000
00000100
00010000
00001000
01000000
00010000
10000000
01000000
,
00100000
00010000
01000000
00100000
00000000
10000000
01000000
00200000
,
00000000
10300000
00100000
00010000
10000000
00100000
00010000
00100000
,
01000000
00000000
00010000
01000000
00010000
01000000
00010000
00000000
00000000
00000000
10010000
00000000
00000000
00000000
00000000
00000000
,
11000000
00000000
00000000
00110000
00000000
00000000
00011000
00000000
,
00010000
00000000
00001000
00010000
00001000
00000000
00010000
00001000
00010000
00000000
00000100
00000000
00001000
00000001
00001000
00000001
,
00001000
00000000
00000000
00000010
00000000
00000000
00000100
00000000
00000001
00000100
00000001
00000100
00000001
00000100
00000001
00000100
,
00000001
00000000
00000000
00000021
00000000
00000000
00000030
00000000
,
00000001
00000000
00000000
00000010
00000000
00000000
00000100
00000000
00020000
00000000
00000000
00000000
00000000
00000000
00000000
00000000
,
00000000
00000000
00000000
00000000
,
00000000
00000000
00000000
00000000
00000000
00000000
00000000
00000000
00031000
00000000
00000000
00010000
00000000
00000000
00001000
00000000
,
00100000
00000000
10100000
00000000
00110000
00000000
00022000
00033000
,
00001000
00000000
00000000
00000000
00010000
00000000
00000000
00000000
00100000
00000000
00000000
00000000
00010000
00000000
00000000
00000000
00001000
00000000
00000000
00000000
00010000
00000000
00000000
00000000
00000010
00000000
00000000
00000000
00000000
00000000
00000000
00000000
00000000
00001000
00000000
00000000
00000000
00000000
00000000
00000000
00000000
00000000
00000001
00000000
00000000
00000000
00000000
00000000
,
00001000
00000001
00000010
00000001
00000010
00000100
00000010
00000001
,
00000100
00000010
00000100
00000001
00001000
00000001
00001000
00000100
,
00010000
00000000
00001000
00000010
00001000
00000000
00010000
00000000
00010000
00100000
00010000
00000000
00001000
00000000
00010000
00000000
,
00001000
00000000
00000000
00011000
00000000
00000000
00110000
00000000
00010000
00000000
10000000
00000000
00100000
00000000
01000000
00000000
,
00010000
00000000
01000000
00000000
00100000
00000000
10000000
01000000
00100000
00000000
00010000
00000000
01000000
00000000
00010000
10000000
,
00010000
00000000
00000000
10000000
00000000
00000000
01000000
00000000
00010000
00000000
00000000
00001000
00000000
00000000
00000010
00000000
,
00000001
00001000
00000010
00010000
00001000
00000000
00022000
00033000
,
00010000
00000000
00000000
00000000
00001000
00000000
00000000
00000000
00000010
00000000
00000000
00000000
00001000
00000000
00000000
00000000
00010000
00000000
00000000
00000000
00001000
00000000
00000000
00000000
00100000
00000000
00000000
00000000
00000000
00000000
00000000
00000000
00000000
00010000
00000000
00000000
00000000
00000000
00000000
00000000
00000000
00000000
10000000
00000000
00000000
00000000
00000000
00000000
,
00010000
00000000
01000000
00010000
01000000
00010000
01000000
00000000
00000000
00000000
00010000
00000000
00000000
00000000
10010000
00000000
,
00000000
00000000
10000000
00000000
01000000
00000000
00100000
00000000
01100000
00000000
00000000
01100000
00000000
00000000
01100000
00000000
,
00200000
00000000
00320000
00000000
00230000
00000000
01300000
10000000
,
01000000
00000000
00100000
00000000
00010000
00000000
00001000
00000000
00000100
00000000
00000000
00000011
00000000
00000000
00000001
00000000
,
00000100
00000000
00000010
00000000
00001000
00000000
00010000
00000000
01000000
00000000
00000000
10100000
00000000
00000000
10000000
00000000
,
01000000
00000000
00100000
00000000
00010000
00000000
00001000
00000000
00000100
00000000
00000000
00000011
00000000
00000000
00000002
00000000
,
00000000
00000103
00001000
00010000
00002000
00000000
02003000
00000000
,
23000000
00000000
32000000
00000000
03010000
00100000
00000000
10010000
,
00000000
00000000
10000000
00000000
00010000
00000000
01000000
00000000
00010000
00000000
10000000
00010000
10000000
00000000
00000000
00000000
,
00010000
00100000
00010000
10000000
00010000
01000000
00100000
01000000
,
00010000
01000000
10000000
01000000
00010000
00100000
00101000
00000000
,
00001000
00010000
00000010
00001000
00000001
00000010
00000100
00001000
,
00000100
00000000
00000000
00000000
00010000
00000000
00000000
00000000
00001000
00000000
00000000
00000000
00010000
00000000
00000000
00000000
00000010
00000000
00000000
00000000
00010000
00000000
00000000
00000000
00001000
00000000
00000000
00000000
00000000
00000000
00000000
00000000
00000000
01010000
00000000
00000000
00000000
00000000
00000000
00000000
00000000
00000000
10010000
00000000
00000000
00000000
00000000
00000000
,
10000000
01000000
10000000
00010000
10000000
00100000
01000000
00100000
,
10000000
00100000
00010000
00100000
10000000
00010000
00110000
00000000
,
00010000
00100000
00001000
00100000
00010000
00000000
00001000
00000100
00010000
00000100
00001000
00000000
00010000
00001000
00010000
00001000
,
00010000
00001000
00011000
00010000
00010100
00000000
00001001
00001000
,
00000001
00000100
00000001
00000000
00001000
00000000
00000100
00000000
00001000
00000000
00000010
00000000
00001000
00000000
00000001
00000000
,
00001000
00000100
00000010
00001000
00000010
00000001
00001000
00000001
,
00000100
00000010
00001000
00010000
01000000
00100000
01000000
00010000
,
00001000
00000000
00000000
00000000
01000000
00000000
00000000
00000000
00001000
00000000
00000000
00000000
00010000
00000000
00000000
00000000
00001000
00000000
00000000
00000000
00100000
00000000
00000000
00000000
00001000
00000000
00000000
00000000
00000000
00000000
00000000
00000000
00000000
00110000
00000000
00000000
00000000
00000000
00000000
00000000
00000000
00000000
01100000
00000000
00000000
00000000
00000000
00000000
,
01000000
00000000
10000000
00010000
10000000
00010000
10000000
00000000
00010000
00000000
10000000
00000000
00010000
00000000
10000000
00000000
,
00010000
00000000
01000000
00000000
10000000
00000000
01000000
00000000
01010000
00000000
00000000
01010000
00000000
00000000
01010000
00000000
,
00020000
20030000
30020000
00230000
,
00301000
00000000
00010000
00001000
00010000
00001000
00010000
00001000
00010000
00000000
00000000
00000000
00001010
00000000
00000000
00000000
,
00001000
00001000
00001000
00000000
00001000
00001000
00001000
00000000
,
00000001
00000000
00000010
00000000
00001000
00000000
00010000
00000000
01000000
00000000
10000000
00000000
00020000
00030000
00000000
00000000
,
00010000
00010000
00010000
00000000
00010000
00010000
00010000
00000000
,
10000000
00100000
01000000
00010000
01000000
00000000
02002000
00000000
,
00000000
00000000
03003000
00022000
,
00000000
00000000
00033000
00000000
;
