#TITLE:The Madness;
#SUBTITLE:;
#ARTIST:EAR;
#TITLETRANSLIT:;
#SUBTITLETRANSLIT:;
#ARTISTTRANSLIT:;
#GENRE:;
#CREDIT:;
#MUSIC:The Madness.ogg;
#BANNER:The Madness.png;
#BACKGROUND:The Madness-bg.png;
#CDTITLE:;
#SAMPLESTART:6.406;
#SAMPLELENGTH:12.800;
#SELECTABLE:YES;
#OFFSET:1.594;
#BPMS:0.000=150.000;
#STOPS:;
#BGCHANGES:;
#FGCHANGES:;

//--------------- dance-single - OrangeRight ----------------
#NOTES:
     dance-single:
     OrangeRight:
     Beginner:
     4:
     0,0,0,0,0:
0000
0000
0000
0000
,
0000
0000
0000
0000
,
0000
0000
0000
0000
,
0000
0000
0000
0000
,
0000
0000
0000
0000
,
1000
0000
1000
0000
,
0001
0000
0001
0000
,
1000
0000
0001
0000
,
0100
0000
0100
0000
,
0001
0000
0001
0000
,
1000
0000
1000
0000
,
0001
0000
1000
0000
,
0100
0000
0010
0000
,
0001
0000
0001
0000
,
0100
0000
0100
0000
,
0010
0000
1000
0000
,
0001
0001
0001
0000
,
1000
0000
1000
0000
,
0100
0000
0100
0000
,
0010
0000
0001
0000
,
1000
1000
1000
0000
,
2000
0000
3000
0000
,
0002
0000
0003
0000
,
1000
0000
0100
0000
,
1000
0000
1000
0000
,
0001
0000
0100
0000
,
0001
0000
0001
0000
,
1000
0000
0010
0000
,
1000
0000
1000
0000
,
0001
0000
0010
0000
,
0100
0000
1000
0000
,
2002
0000
3003
0000
,
1000
0000
1000
0000
,
0001
0000
0001
0000
,
1000
0000
0100
0000
,
1000
0000
1000
0000
,
0001
0000
0001
0000
,
1000
0000
1000
0000
,
0001
0000
0100
0000
,
0001
0000
0001
0000
,
1000
0000
0010
0000
,
1000
0000
0010
0000
,
0100
0000
0001
0000
,
0100
0000
0001
0000
,
1000
0000
0100
0000
,
0010
0000
0001
0000
,
0100
0000
0010
0000
,
0220
0000
0330
0000
,
0010
0000
1000
0000
,
1000
0000
0100
0000
,
2000
0000
3000
0000
,
0001
0000
0001
0000
,
0010
0000
0001
0000
,
0001
0000
0100
0000
,
0010
0000
1000
0000
,
0100
0000
0010
0000
,
0001
0000
0100
0000
,
0001
0000
0001
0000
,
1000
0000
0100
0000
,
1000
0000
1000
0000
,
0001
0000
0010
0000
,
0100
0000
1000
0000
,
0001
1000
0001
0000
,
2002
0000
3003
0000
,
0000
0000
0000
0000
,
1000
0000
1000
0000
,
0001
0000
0001
0000
,
0100
0000
0010
0000
,
1000
0001
1000
0000
,
0001
0000
0001
0000
,
1000
0000
1000
0000
,
0010
0000
0100
0000
,
0001
1000
0001
0000
,
1000
0001
1000
0000
,
0010
0100
0010
0000
,
0100
0100
0100
0100
;

//--------------- dance-single - OrangeRight ----------------
#NOTES:
     dance-single:
     OrangeRight:
     Easy:
     6:
     0,0,0,0,0:
0000
0000
0000
0000
,
0000
0000
0000
0000
,
0000
0000
0000
0000
,
0000
0000
0000
0000
,
0000
0000
0000
0000
,
1000
0000
0001
0010
,
0001
0000
1000
0010
,
1000
0000
0001
1000
,
0100
1000
0001
0100
,
0001
0000
1000
0010
,
1000
0000
0001
0010
,
0001
0000
1000
0001
,
1000
0100
0010
0001
,
1000
0000
0100
1000
,
0001
0000
0100
0001
,
1000
0000
0001
0100
,
0010
1000
0001
0000
,
1001
0000
1000
0001
,
1001
0000
0001
1000
,
1100
0000
0011
0000
,
2002
0000
3003
0000
,
2000
0000
3000
0000
,
0002
0000
0003
0000
,
1000
0100
1000
0100
,
0010
0001
0100
0010
,
1000
0010
1000
0010
,
0100
0001
0010
0010
,
0001
0100
0001
0100
,
0010
1000
0100
0010
,
0001
0010
0001
0010
,
0001
0001
1000
1000
,
2002
0000
3003
0000
,
1000
0100
1000
0000
,
0001
0100
0001
0000
,
1000
0010
0100
0001
,
1000
1000
1000
0000
,
0001
0100
0001
0000
,
1000
0100
1000
0000
,
0001
0010
0100
1000
,
0001
0100
0001
1000
,
0100
0100
1000
0000
,
0001
0001
0100
0000
,
0001
0010
0100
1000
,
0010
0010
0100
0000
,
0001
1000
0001
1000
,
0010
0100
0010
0100
,
0001
0010
0100
1000
,
2002
0000
0000
3003
,
2000
0000
3002
0000
,
0103
0010
0100
0001
,
0020
0000
0031
0100
,
0010
1000
0100
0010
,
0200
0000
0300
0100
,
1000
0001
0100
0010
,
1000
0100
0001
0100
,
1000
1000
0001
0001
,
1000
0010
1000
0010
,
0100
0001
0010
0100
,
1000
0001
1000
0001
,
0100
0010
1000
0100
,
0010
0001
2000
3000
,
0010
1000
0001
0010
,
0200
0300
0020
0030
,
2002
0000
0000
3003
,
1000
0100
0001
0100
,
1000
1000
0001
0100
,
0001
0001
1000
0010
,
1000
1000
0001
0010
,
0001
0100
1000
0100
,
0001
0001
0100
0010
,
1000
1000
0100
0010
,
0001
1000
0010
0100
,
0001
1000
0001
1000
,
0010
0100
0010
0100
,
0001
1000
0001
1000
,
0100
0010
0001
1001
;

//--------------- dance-single - OrangeRight ----------------
#NOTES:
     dance-single:
     OrangeRight:
     Medium:
     12:
     0,0,0,0,0:
0000
0000
0000
0000
,
0000
0000
0000
0000
,
0000
0000
0000
0000
,
0000
0000
0000
0000
,
0000
0000
0000
0000
,
1000
0000
0000
1000
0000
0000
0010
0000
0000
0100
0000
0000
0001
0000
1000
0000
,
0001
0000
0000
0001
0000
0000
0010
0000
0000
0100
0000
0000
1000
0000
0010
0000
,
0100
0000
0000
0100
0000
0000
0001
0000
0000
1000
0000
0000
0100
0000
0010
0000
,
0100
1000
0001
0000
0100
0001
1000
0000
,
0001
0000
0000
0001
0000
0000
0010
0000
0000
0100
0000
0000
1000
0000
0001
0000
,
1000
0000
0000
1000
0000
0000
0010
0000
0000
0100
0000
0000
0001
0000
0010
0000
,
0100
0000
0000
0100
0000
0000
1000
0000
0000
0001
0000
0000
1000
0000
0100
0000
,
1100
0110
0011
1001
,
1000
0010
1000
0001
0100
0001
2000
0000
,
3001
0010
0001
1000
0100
1000
0002
0000
,
1003
0010
0100
0001
0010
0100
0020
0000
,
0130
0000
0100
0000
0000
1000
0000
0001
0000
0000
0100
0000
0100
0000
0000
0000
,
0001
0000
0000
0010
0000
0000
1000
0000
0000
0010
0000
0000
0001
0000
1000
0000
,
0001
0000
0000
0100
0000
0000
1000
0000
0000
0100
0000
0000
0001
0000
1000
0000
,
2001
3010
1002
0103
,
0001
0010
0100
1000
0001
1000
0001
0000
,
1000
0000
0000
1000
0000
0000
1000
0000
0000
0000
1000
0000
1000
0000
0000
0000
,
0001
0000
0000
0001
0000
0000
0001
0000
0000
0000
0001
0000
0001
0000
0000
0000
,
2000
0000
3100
1000
0002
0000
0103
0001
,
1000
0001
0100
0010
1000
0001
0010
0000
,
0002
0000
0013
0001
2000
0000
3010
1000
,
0001
1000
0010
0100
0001
0010
0001
0000
,
0200
0000
0301
0010
0200
0000
1300
0010
,
0100
0001
1000
0100
0010
0100
1000
0000
,
0020
0000
0130
0001
0020
0000
0130
1000
,
0010
0100
0001
1000
0100
0010
0110
0000
,
2002
0000
0000
0000
3003
0000
0000
1000
,
0100
1000
0001
0100
0010
1000
0001
0000
,
0010
0001
0100
0010
0100
0001
0010
0000
,
0100
0000
1000
0010
0100
0001
1000
0000
,
0100
0000
0010
0100
1000
0100
0010
0000
,
0001
0100
0001
1000
0100
0010
0001
0000
,
1000
0001
0100
0010
1000
0100
1000
0000
,
0001
0100
0010
0100
0001
1000
0100
0000
,
0010
0001
0100
0000
0010
1000
0100
0000
,
1000
0010
1000
0010
0100
0100
0100
0000
,
0001
0010
0001
0010
0100
0100
0100
0000
,
1000
0001
0100
0010
1000
1000
1000
0000
,
0001
1000
0100
0010
0001
0001
0001
0000
,
1000
0000
0010
0100
0001
0100
0010
0000
,
1000
0100
0010
0100
1000
0001
0100
0000
,
0102
1003
2010
3001
,
1000
0000
0000
0001
0000
0000
1000
0000
0001
0000
1000
0000
1001
0000
0000
0000
,
1000
0100
0010
0001
0200
0000
0001
0000
,
0310
1000
0100
0010
0100
2000
0000
3001
,
0200
0000
1000
0000
0010
0000
0301
0010
,
0100
0010
0001
0100
0010
1000
0001
1000
,
0100
0010
0100
1000
0002
0000
0103
0000
,
0001
0010
0001
1000
0001
0100
0010
0000
,
1000
0100
0010
0001
0100
0010
1000
0001
,
2000
0000
3100
1000
0001
0100
0010
1000
,
0002
0000
0103
0001
2000
0000
3100
1000
,
0001
0010
0100
0010
0001
1000
0010
0000
,
2000
0000
3010
1000
0002
0000
0013
0001
,
1000
0010
0100
0001
1000
0100
0010
0000
,
0001
0100
1000
0100
0020
0000
1030
0000
,
1000
0100
0001
0100
0010
0001
0100
0000
,
0010
0100
0010
0100
0001
1000
0001
1000
,
2002
0000
0000
3003
,
1000
0100
0010
0001
0001
0100
0010
1000
,
1000
0000
0000
1000
0000
0000
0100
0000
0000
0010
0000
0000
0001
0000
1000
0000
,
0001
0000
0000
0001
0000
0000
0100
0000
0000
0010
0000
0000
1000
0000
0100
0000
,
0010
0000
0000
0010
0000
0000
0001
0000
0000
1000
0000
0000
0010
0000
0100
0000
,
0010
1000
0001
0000
0010
0001
1000
0000
,
0001
0000
0000
0001
0000
0000
0010
0000
0000
0100
0000
0000
1000
0000
0001
0000
,
1000
0000
0000
1000
0000
0000
0010
0000
0000
0100
0000
0000
0001
0000
0010
0000
,
0100
0000
0000
1000
0000
0000
0001
0000
0000
0100
0000
0000
0010
0000
1000
0000
,
0001
0000
0010
0000
0100
0000
1000
0100
0000
1000
0100
0000
1000
0000
0000
0000
,
1000
0000
0100
0000
0010
0000
0001
0100
0000
0001
0100
0000
0001
0000
0000
0000
,
1000
0000
0001
0000
0100
0000
0010
0100
0000
0010
0100
0000
0010
0000
0000
0000
,
1000
0000
0100
0000
0010
0000
0001
1000
0000
1000
0001
0000
0100
0000
0000
0000
;

//--------------- dance-single - OrangeRight ----------------
#NOTES:
     dance-single:
     OrangeRight:
     Hard:
     14:
     0,0,0,0,0:
0000
0000
0000
0000
,
0000
0000
0000
0000
,
0000
0000
0000
0000
,
0000
0000
0000
0000
,
0000
0000
0000
0000
,
1000
0000
0000
1100
0000
0000
0001
0000
0000
0101
0000
0000
0001
0000
1000
0000
,
0001
0000
0000
0011
0000
0000
1000
0000
0000
1010
0000
0000
0010
0000
0100
0000
,
0010
0000
0000
1010
0000
0000
0100
0000
0000
0101
0000
0000
0100
0000
0010
0000
,
1000
0000
0001
0000
1000
0000
0000
0100
0000
0100
0010
0000
0001
0000
0000
0000
,
0001
0000
0000
0011
0000
0000
1000
0000
0000
1010
0000
0000
1000
0000
0001
0000
,
1000
0000
0000
1100
0000
0000
0001
0000
0000
0101
0000
0000
0100
0000
0010
0000
,
0100
0000
0000
0101
0000
0000
0010
0000
0000
1010
0000
0000
1000
0000
0001
0000
,
1001
0000
0000
0000
1100
0000
0000
0000
0110
0000
0000
0010
0001
0000
1000
0000
,
0001
0000
0100
0001
0000
0000
1000
0000
0100
1000
0000
0000
0001
0000
1000
0000
,
0001
0000
0010
0001
0000
0000
1000
0000
0010
1000
0000
0000
0001
0000
1000
0000
,
0100
0000
0010
0001
0000
0000
0100
0000
0010
1000
0000
0000
0100
0000
0010
0000
,
0001
0000
1000
0000
0001
0000
0000
0100
0000
0100
0010
0000
1000
0000
0000
0000
,
1000
0100
1000
0000
0001
0000
0100
0000
0010
0000
1000
0000
0001
0000
0000
0000
,
0001
0100
0001
0000
1000
0000
0100
0000
0010
0000
0001
0000
1000
0000
0000
0000
,
1000
0010
1000
0000
0001
0000
0010
0000
0001
0010
0001
0000
1000
0000
0010
0000
,
1000
0000
0100
0000
0010
0000
0001
0100
0000
0010
1000
0000
1001
0000
0000
0000
,
1000
0000
0000
1000
0000
0000
2000
0000
0000
0000
0001
0000
3001
0000
0000
0000
,
0001
0000
0000
0001
0000
0000
0002
0000
0000
0000
1000
0000
1003
0000
0000
0000
,
1000
0000
0100
0000
0010
0001
0010
0000
0001
0000
0100
0000
0010
1000
0010
0000
,
1000
0000
0100
0000
0001
0000
0100
0000
0010
0000
0001
0000
1000
0010
1000
0000
,
0001
0000
0100
0000
0010
1000
0010
0000
1000
0000
0100
0000
0010
0001
0010
0000
,
0001
0000
0100
0000
1000
0000
0100
0000
0010
0000
1000
0000
0001
0010
0001
0000
,
1000
0000
0001
0000
0100
0010
0000
0010
1000
0000
1000
0100
0000
0100
0010
0000
,
0001
0000
1000
0000
0010
0100
0000
0100
0001
0000
0001
0010
0000
0010
0100
0000
,
1000
0000
0001
0000
0010
0100
0010
0000
0001
0000
1000
0000
0010
0100
0010
0000
,
1000
0100
1000
0100
0010
0001
0010
0001
1000
0010
1000
0010
0100
0000
0001
0000
,
2002
0000
0000
0000
0000
0000
0000
0000
3003
0000
0000
0000
0000
0000
1000
0100
,
1000
0000
0001
0000
1000
0000
0010
0000
0100
0000
0001
0100
0001
0000
0000
0000
,
0001
0010
0001
0000
1000
0000
0001
0000
0100
0000
0010
0000
1010
0000
0000
1000
,
0100
0000
1000
0000
0001
0000
0100
0010
0000
0010
1000
0000
0001
0000
0000
0000
,
1000
0001
0000
0000
0001
0000
0010
0000
0100
0000
1000
0000
0001
1000
0000
0000
,
1000
0000
0100
0000
0010
0000
0100
0000
1000
0000
0001
0100
0000
0010
0000
0000
,
1000
0000
0001
0000
0010
0000
0100
0000
0010
0000
0001
1000
0000
0001
0000
0000
,
0100
0000
0010
0000
1000
0000
0100
0000
1000
0000
0010
0100
0000
0100
0000
0000
,
0001
0000
1000
0000
1001
0000
0000
1000
0000
0001
1000
0001
0000
1000
0000
0000
,
1000
0100
1000
0000
0001
0000
0100
0000
0010
0000
0100
0000
0110
0000
0000
0000
,
0100
0001
0100
0000
0010
0000
1000
0000
0001
0000
1000
0000
1100
0000
0000
0000
,
0100
1000
0100
0000
1000
0000
0010
0000
0100
0000
0001
0000
1001
0000
0000
0000
,
0001
0000
0010
0000
1000
0000
0010
0000
0001
0000
0100
0010
1000
0000
0000
0000
,
0001
0000
0010
0000
0100
0000
1000
0000
0001
0000
0100
0010
1000
0000
0000
0000
,
1000
0000
0100
0000
0010
0000
0001
0000
1000
0000
0010
0100
0001
0000
0000
0000
,
1000
0001
1000
0000
0010
0000
0100
0000
0001
1000
0001
0000
0010
0000
0100
0000
,
1000
0001
0000
1000
0000
0001
1000
0001
1000
0001
1000
0000
1001
0000
0000
0000
,
1000
0000
0100
1000
0100
0000
0010
0000
0002
0000
0000
0000
0100
0000
0000
0000
,
1003
0001
0010
1000
0010
0200
0000
1300
,
0020
0000
0001
0000
0100
0000
1030
0001
,
0010
0000
1000
0000
0010
0000
0001
0000
0100
0000
0010
0000
1000
0000
0100
0010
,
0100
0000
1000
0000
0010
0000
0100
0001
0200
0000
0000
0000
0301
0000
0010
0000
,
0001
1000
0001
0000
1000
0000
0010
0000
0100
0010
0100
0000
0001
0000
0010
0000
,
0001
0100
0001
0000
1000
0100
1000
0000
0001
0000
0010
0000
0100
0000
1000
0000
,
0020
0000
0000
0000
1030
0010
1000
0000
0001
0000
0100
0001
0100
0000
0000
0000
,
0001
0000
0010
0000
0100
1000
0100
0000
1000
0000
0010
0000
0100
0001
0100
0000
,
0001
0000
0010
0000
1000
0000
0001
0000
0100
0000
1000
0000
0010
0100
0010
0000
,
1000
0000
0001
0000
0100
0010
0100
0000
0001
0000
1000
0000
0100
0010
0100
0000
,
1000
0000
0010
0000
0001
0000
1000
0000
0100
0000
0001
0000
0010
0100
0010
0000
,
0002
0000
0000
0000
1003
0001
1000
0001
2000
0000
0000
0000
3100
0000
1000
0000
,
0001
0100
0001
0000
1000
0000
0100
0000
0001
0000
0100
0000
1000
0000
0001
0000
,
1000
0010
1000
0010
1000
0000
0001
0000
0100
0001
0100
0001
0100
0000
0001
0000
,
2000
3200
0320
0032
,
1003
0100
0001
0100
1000
0010
0001
0010
,
1010
0000
0000
1010
0000
0000
1100
0000
0000
0110
0000
0000
0010
0000
0001
0000
,
0011
0000
0000
0011
0000
0000
0101
0000
0000
0110
0000
0000
0010
0000
1000
0000
,
1001
0000
0000
1001
0000
0000
1100
0000
0000
0110
0000
0000
0010
0000
0001
0000
,
1000
0000
0010
0000
0100
0000
0000
0001
0000
1000
0100
0000
1100
0000
0000
0000
,
0011
0000
0000
0110
0000
0000
1100
0000
0000
1000
0001
0000
0100
0000
0001
0000
,
0101
0000
0000
1001
0000
0000
1010
0000
0000
0010
0100
0000
0001
0000
1000
0000
,
1001
0000
0000
0110
0000
0000
1001
0000
0000
1000
0100
0000
0010
0000
0001
0000
,
1000
0000
0010
0000
1000
0000
0100
0010
0000
0010
0001
0000
1000
0000
1000
0000
,
0001
0000
0010
0000
0001
0000
0100
0010
0000
0010
1000
0000
0001
0000
0001
0000
,
1000
0000
0100
0000
0010
0000
0001
0100
0000
0010
1000
0000
0001
1000
0001
0000
,
1000
0000
0001
0100
0001
0000
1000
0100
0000
0010
0001
0000
1001
0000
0000
0000
;

//--------------- dance-single - OrangeRight ----------------
#NOTES:
     dance-single:
     OrangeRight:
     Challenge:
     17:
     0,0,0,0,0:
0000
0000
0000
0000
,
0000
0000
0000
0000
,
0000
0000
0000
0000
,
0000
0000
0000
0000
,
0000
0000
0000
0000
,
1100
0000
0000
0110
0000
0000
0011
0000
0000
0001
0100
0000
0020
0000
0130
0000
,
0101
0000
0000
1001
0000
0000
1010
0000
0000
1000
0100
0000
0020
0000
0130
0000
,
1100
0000
0000
1010
0000
0000
0110
0000
0000
0100
0001
0000
2000
0000
3001
0000
,
0100
0000
0010
0000
0100
0000
0001
0010
0M00
0010
1000
0000
0001
0000
1000
0000
,
1100
0000
0000
1001
0000
0000
0101
0000
0000
0100
0001
0000
0020
0000
0031
0000
,
0011
0000
0000
1001
0000
0000
1010
0000
0000
0010
1000
0000
0200
0000
0310
0000
,
0110
0000
0000
0011
0000
0000
0101
0000
0000
0100
0010
0000
2000
0000
3010
0000
,
1010
0000
0000
1000
0001
0000
0010
0000
0011
0000
0000
0001
1000
0000
0010
0000
,
1000
0000
0100
1000
0100
0000
0010
0000
0001
0100
0001
0000
0020
0000
0031
0000
,
1000
0000
0010
1000
0010
0000
0100
0000
0001
0010
0001
0000
0200
0000
0310
0000
,
1000
0000
0100
1000
0001
0000
0100
0000
0010
1000
0001
0000
0020
0000
0130
0000
,
1000
0000
1010
0000
0000
0001
0000
0011
0000
0010
0100
0000
1000
0000
0001
0000
,
0101
0000
0100
0001
1000
0000
0010
0000
1000
0001
0100
0000
0002
0000
1003
0000
,
1100
0000
0100
1000
0001
0000
0010
0000
0001
1000
0100
0000
2000
0000
3001
0000
,
0011
0000
0010
0100
1000
0000
0010
0000
1010
0000
0010
0100
0001
0000
1000
0000
,
0100
0000
0010
0000
0001
0000
1000
0100
00M0
0100
0001
0000
1000
0000
0000
0000
,
1000
0000
0000
0100
0000
0000
0020
0000
0000
0000
0001
0000
0031
0000
0000
0000
,
0001
0000
0000
0100
0000
0000
0020
0000
0000
0000
1000
0000
1030
0000
0000
0000
,
1000
0100
1000
0100
0010
0001
0100
0010
1000
0001
1000
0001
0100
0010
0100
0001
,
0010
0100
1000
0001
0100
0001
1000
0100
1000
0010
0100
0001
0010
0100
0010
0100
,
1000
0001
1000
0001
0100
0010
1000
0100
0010
0001
0010
0001
1000
0010
1000
0001
,
0010
0100
1000
0001
0010
0001
1000
0010
0100
0001
0010
0100
1000
0001
1000
0001
,
1000
0010
0100
0001
1000
0100
0010
0001
0100
0010
0100
0001
0010
0100
0010
0001
,
1000
0100
0010
0001
1000
0010
1000
0001
0010
0001
0100
0010
1000
0100
0010
0001
,
0100
0010
1000
0010
0100
0001
1000
0001
0010
0100
1000
0100
0010
0001
1000
0001
,
0100
0010
0100
0001
1000
0001
0010
0100
0010
0001
0100
0010
1000
0000
0100
0000
,
0120
0000
0000
0000
0030
0000
0001
1000
0001
0000
0000
0000
0000
1000
0100
1000
,
0001
0100
0001
1000
0001
0100
0000
0001
1000
0000
1000
0100
1000
0000
0000
0001
,
0010
0001
0010
0001
1000
0010
0000
1000
0001
0000
1000
0000
1100
0000
0000
1000
,
0010
1000
0000
0001
0010
0000
0010
0100
0000
0100
1000
0001
1000
0010
0000
0000
,
0010
0100
0000
0000
0100
0001
0100
0001
0000
1000
0000
0100
1000
0100
0000
1000
,
0001
0010
0001
0010
0001
0000
0100
0010
0100
0000
0001
1000
0000
0010
0000
0100
,
0001
0000
1000
0100
0010
0001
0100
0010
0000
0010
1000
0001
0000
0011
0000
0000
,
0001
0100
0001
0100
0010
1000
0010
1000
0100
0010
0001
0100
0000
0010
0000
1000
,
0010
0100
0010
1000
0100
0000
0000
0010
0000
0001
0100
0010
0000
1000
0000
0001
,
1000
0100
0010
0001
0100
0010
0100
0001
0010
0100
1000
0010
0100
0000
0001
0000
,
1000
0100
0010
0001
0000
0100
0000
0010
1000
0000
0001
1000
0001
0000
0000
1000
,
0100
0010
0001
1000
0000
0010
0000
0100
0001
1000
0100
0010
0001
0000
1000
0010
,
0100
0000
0001
0010
0000
0100
0000
1000
0001
1000
0001
1000
0001
0000
0000
0001
,
1000
0000
0000
0100
1000
0010
0100
0000
0001
0000
0010
0100
1000
0001
0000
0001
,
1000
0010
0100
0000
0100
0010
1000
0001
0010
0000
0010
0001
1000
0010
0000
0000
,
1000
0100
0010
0001
0000
1000
0010
0100
0001
1000
0001
1000
0010
0100
0000
0100
,
0001
0010
0000
1000
0000
0010
0001
0100
1000
0100
0001
0000
1001
0000
0000
0000
,
1000
0000
0001
0000
1000
0100
0010
0001
0200
0000
0001
0000
0310
0000
0100
0000
,
0001
1000
0000
1000
0100
0010
0001
0100
0010
0000
2000
0000
3001
0000
1000
0000
,
0001
0020
0100
0000
0001
0000
0130
0000
0010
0000
0001
1000
0010
0100
0010
1000
,
0000
0100
0000
0001
0100
1000
0010
0100
0001
1000
0100
0010
0001
1000
0010
0100
,
0000
0001
0010
0100
0000
1000
0001
2000
0000
0000
3001
0000
0100
0000
0010
1000
,
0001
1000
0100
1000
0010
0100
0010
0100
0001
0010
0100
0010
0001
1000
0001
1000
,
0010
0100
0001
0000
0001
0100
0010
1000
0100
0001
0100
1000
0000
0010
0000
0100
,
0002
0000
0000
1003
0001
0010
0100
1000
0001
0100
0010
1000
0001
1000
0000
1000
,
0001
0010
0001
0010
0100
1000
0010
0100
0001
1000
0001
1000
0010
0100
0010
1000
,
0100
0010
0001
1000
0010
1000
0001
0010
0001
0100
0010
1000
0001
0010
0100
0010
,
0001
1000
0001
1000
0010
0100
0001
0010
0100
1000
0100
1000
0001
0100
0001
1000
,
0100
0010
0001
1000
0100
1000
0001
0100
0001
0010
0100
1000
0001
0100
0010
0100
,
0001
0000
1000
0100
0001
0100
1000
0010
0200
0000
0000
0001
0000
0000
0310
0000
,
0010
1000
0100
1000
0010
0100
0001
0010
0100
1000
0010
1000
0001
0100
1000
0100
,
0001
1000
0001
1000
0010
0100
0010
0100
0001
0010
0001
0010
0100
1000
0100
1000
,
0010
1000
0100
0010
0001
1000
0010
0100
0001
0010
0100
1000
0001
0100
0010
1000
,
0001
0100
1000
0100
0001
0010
1000
0010
,
0011
0000
0000
1001
0000
0000
0101
0000
0000
0110
0000
0000
0010
0000
1000
0000
,
1010
0000
0000
1001
0000
0000
1100
0000
0000
0110
0000
0000
0010
0000
0001
0000
,
1001
0000
0000
0101
0000
0000
0110
0000
0000
1010
0000
0000
1000
0000
0001
0000
,
0011
0000
0010
0000
0110
0000
0000
1100
0000
1000
0001
0000
1001
0000
0000
0000
,
1010
0000
0010
1000
0001
0000
0010
0000
0100
1000
0001
0000
0010
0000
0001
0000
,
0011
0000
0010
0001
1000
0000
0010
0000
0100
0001
1000
0000
0001
0000
0010
0000
,
0011
0000
0001
0010
0100
0000
1000
0000
1010
0000
0010
0000
0100
0000
0001
0000
,
0010
0000
0001
0000
0011
0000
0001
0100
00M0
0100
1000
0000
0001
0000
1000
0000
,
0010
0000
1000
0000
1010
0000
1000
0100
00M0
0100
0001
0000
1000
0000
0001
1000
,
0001
0000
0100
0000
0101
0000
0001
0010
0M00
0010
1000
0000
0001
0010
0100
1000
,
0001
0000
1000
0010
1000
0000
0001
0100
00M0
0100
1000
0000
1001
0000
0000
0000
;
