#VERSION:0.83;
#TITLE:The King Of Red;
#SUBTITLE:;
#ARTIST:Hommarju;
#TITLETRANSLIT:;
#SUBTITLETRANSLIT:;
#ARTISTTRANSLIT:;
#GENRE:;
#CREDIT:;
#MUSIC:The King Of Red.ogg;
#BANNER:The King Of Red.png;
#BACKGROUND:The King Of Red-bg.png;
#CDTITLE:./CDTitles/SDVX EXCEED GEAR.png;
#SAMPLESTART:97.862;
#SAMPLELENGTH:15.000;
#SELECTABLE:YES;
#OFFSET:-0.638;
#BPMS:0.000=195.000
,68.000=97.500
,72.000=195.000
,232.000=97.500
,252.000=195.000
,364.000=97.500
;
#STOPS:;
#TIMESIGNATURES:0.000=4=4;
#BGCHANGES:0.000=../BGAs/21he.mp4=1.000=0=0=0=StretchNoLoop====,
99999.000=-nosongbg-=1.000=0=0=0=StretchNoLoop====
;
#FGCHANGES:;

//--------------- dance-single - forcednature ----------------
#NOTEDATA:;
#STEPSTYPE:dance-single;
#DESCRIPTION:forcednature;
#CREDIT:forcednature;
#DIFFICULTY:Beginner;
#METER:5;
#RADARVALUES:0,0,0,0,0;
#NOTES:
0000
0000
0000
0000
,
0000
0000
0000
0000
,
0000
0000
0000
0000
,
0000
0000
0000
0000
,
0000
0000
0000
0000
,
0000
0000
0000
0000
,
0000
0000
0000
0000
,
0000
0000
0000
0000
,
0000
0000
0000
0000
,
1001
0000
0000
0000
,
0001
0000
0000
0000
,
0100
0000
0000
0000
,
0001
0000
0000
0000
,
1000
0000
1000
0000
,
0001
0000
0001
0000
,
1000
0000
0001
0000
,
1000
0000
0000
0000
,
1001
0000
0000
0000
,
0001
0000
0001
0000
,
0001
0000
0000
0000
,
0100
0000
0100
0000
,
0001
0000
0100
0000
,
0010
0000
0010
0000
,
0010
0000
0000
0000
,
1000
0000
1000
0000
,
0002
0000
0003
0000
,
1000
0000
0100
0000
,
1000
0000
0100
0000
,
0010
0000
0001
0000
,
0010
0000
0100
0000
,
1000
0000
1000
0000
,
0001
0000
0001
0000
,
1000
0000
0001
0000
,
0100
0000
0010
0000
,
0220
0000
0000
0000
,
0330
0000
0000
0000
,
2002
0000
0000
0000
,
3003
0000
0000
0000
,
0001
0000
0001
0000
,
1000
0000
1000
0000
,
0001
1000
0001
1000
,
0002
0000
0003
0000
,
1001
0000
0000
0000
,
1000
0000
0000
0000
,
0020
0000
0000
0000
,
0030
0000
0000
0000
,
2000
0000
3000
0000
,
0002
0000
0003
0000
,
0020
0000
0030
0000
,
0200
0000
0300
0000
,
1000
0000
1000
0000
,
0001
0000
0001
0000
,
0100
0000
0100
0000
,
0010
0000
0010
0000
,
1000
1000
0001
0001
,
1000
0001
1000
0000
,
0001
0001
1000
1000
,
0002
0000
0003
0000
,
1001
0000
0000
0000
,
1000
0000
0001
0001
,
0100
0000
0000
0000
,
0001
0000
1000
1000
,
0200
0000
0000
0000
,
0000
0000
0000
0000
,
0000
0000
0300
0000
,
0010
0000
0010
0000
,
0001
0000
0001
0000
,
0100
0000
0010
0000
,
0200
0000
0300
0000
,
0010
0000
0010
0000
,
1000
0000
1000
0000
,
0100
0000
0010
0000
,
0200
0000
0300
0000
,
1001
0000
0000
0000
,
0110
0000
0000
0000
,
0001
0000
0001
0000
,
1000
0000
0001
0000
,
1001
0000
0000
0000
,
0110
0000
0000
0000
,
1000
0000
1000
0000
,
0020
0000
0030
0000
,
0100
0100
0000
0000
,
0010
0010
0000
0000
,
1001
0000
0110
0000
,
1001
0000
0000
0000
,
0010
0010
0000
0000
,
0100
0100
0000
0000
,
1001
0000
0110
0000
,
2000
0000
3000
0000
,
0001
0001
1000
1000
,
0001
1000
0001
1000
,
0010
0000
0000
0000
;

//--------------- dance-single - forcednature ----------------
#NOTEDATA:;
#STEPSTYPE:dance-single;
#DESCRIPTION:forcednature;
#CREDIT:forcednature;
#DIFFICULTY:Easy;
#METER:9;
#RADARVALUES:0,0,0,0,0;
#NOTES:
0000
0000
0000
0000
,
0000
0000
0000
0000
,
0000
0000
0000
0000
,
0000
0000
0000
0000
,
0000
0000
0000
0000
,
0000
0000
0000
0000
,
0000
0000
0000
0000
,
0000
0000
0000
0000
,
0000
0000
0000
0000
,
1001
0000
0001
0100
,
0001
0000
1000
0100
,
1000
0000
0001
1000
,
0001
0000
0010
0000
,
0100
0100
1000
0000
,
0010
0010
1000
0000
,
0001
0010
0100
1000
,
0100
0010
0001
0000
,
1001
0000
0000
0000
,
1000
1000
1000
0000
,
0010
1000
0010
0000
,
0100
0100
0100
0000
,
0001
0100
0001
0000
,
1000
0100
1000
0000
,
0001
0100
0001
0000
,
0100
0100
0100
0000
,
0020
0000
0030
0000
,
1001
0000
0001
0010
,
0001
0000
0001
1000
,
0001
0000
0100
0100
,
0100
0000
0010
1000
,
0001
0000
1000
0100
,
1000
0000
0001
0100
,
0001
0000
1000
0001
,
1000
0000
0001
0000
,
2002
0000
0000
0000
0000
0000
0000
3003
,
0000
1000
0100
0010
,
0002
0000
0000
0003
,
0000
0100
0010
0100
,
0001
0001
1000
1000
,
0010
0010
0100
0100
,
0001
1000
0001
0000
1000
0001
1000
0000
,
0020
0030
0200
0300
,
1001
0000
1000
0100
,
0010
0000
0001
1000
,
0002
0000
0103
0020
,
0000
1000
1030
0000
,
0001
2000
0000
3000
,
0001
0010
0100
1000
,
0010
0010
0100
0100
,
0001
1000
0001
0000
,
1000
1000
0001
0001
,
0100
0010
0100
0000
,
0001
0001
1000
1000
,
0010
0100
0010
0000
,
1000
1000
0100
0100
,
0010
0001
0010
0000
,
0001
0001
0100
0100
,
0020
0000
0030
0000
,
1001
0000
1000
0000
,
0001
0010
0100
1000
,
0001
0000
1000
0000
,
0001
1000
0010
0100
,
2002
0000
0000
0000
,
0000
0000
0000
0000
,
0000
0000
3003
0000
,
0001
0000
0000
1000
0000
0000
0001
0000
1000
0000
0000
0000
0000
0000
0000
0000
,
1000
0000
0000
0001
0000
0000
1000
0000
0001
0000
0000
0000
0000
0000
0000
0000
,
0100
0000
0000
0010
0000
0000
0100
0000
0010
0000
0000
0100
0000
0000
0010
0000
,
1000
0000
0000
0001
0000
0000
1000
0000
0001
0000
0000
0000
0000
0000
0000
0000
,
1000
0000
0000
0100
0000
0000
1000
0000
0100
0000
0000
0000
0000
0000
0000
0000
,
0010
0000
0000
0001
0000
0000
0010
0000
0001
0000
0000
0000
0000
0000
0000
0000
,
1000
0000
0000
0001
0000
0000
1000
0000
0001
0000
0000
1000
0000
0000
0001
0000
,
0200
0000
0000
0300
,
0010
1000
0100
1000
,
0001
0010
0001
1000
,
0020
0130
0020
0130
,
0001
1000
0001
0000
1000
0000
0000
0000
,
0100
0010
0001
0010
,
0100
1000
0001
1000
,
0020
0130
0020
0130
,
0001
1000
0001
0000
2000
0000
3000
0000
,
1001
0100
1001
0000
,
1001
0010
1001
0000
,
2000
3001
2000
3001
,
0100
0010
0100
0000
0010
0000
0000
0000
,
1001
0110
1001
0000
,
1001
0110
1001
0000
,
0002
1003
0002
1003
,
0010
0010
0200
0300
,
0001
0000
0000
1000
0000
0000
0001
0000
1000
0000
0000
0001
0000
0000
1000
0000
,
0010
0000
0100
0000
0010
0100
0010
0000
,
0100
0000
0000
0000
;

//--------------- dance-single - forcednature ----------------
#NOTEDATA:;
#STEPSTYPE:dance-single;
#DESCRIPTION:forcednature;
#CREDIT:forcednature;
#DIFFICULTY:Medium;
#METER:12;
#RADARVALUES:0,0,0,0,0;
#NOTES:
0000
0000
0000
0000
,
0000
0000
0000
0000
,
0000
0000
0000
0000
,
0000
0000
0000
0000
,
0000
0000
0000
0000
,
0000
0000
0000
0000
,
0000
0000
0000
0000
,
0000
0000
0000
0000
,
0000
0000
0000
0000
,
1001
1000
0100
0001
,
0100
1000
0001
1000
,
0001
0100
1000
0100
,
0001
1000
0001
0010
,
0100
1000
0100
0000
1000
0010
1000
0000
,
0001
0010
0001
0000
0100
0001
0100
0000
,
0010
0010
1000
0001
,
1000
0001
1000
0001
0100
0010
0100
0000
,
0110
0000
0000
0000
,
1001
0000
1000
0000
0001
1000
0001
0000
,
0100
0010
1000
0100
,
1000
0000
0001
0000
1000
0001
1000
0000
,
0010
0100
0001
0010
,
1000
0000
0010
0000
0001
0010
0001
0000
,
0100
0010
1000
0100
,
0001
0000
0100
0000
1000
0100
1000
0000
,
0001
0000
1000
0000
0001
0000
0000
1000
0000
0000
0000
0000
0000
0000
0000
0000
,
0110
0000
0001
0000
0100
0010
0100
0000
,
0001
0010
0100
0000
1000
0000
0001
0000
,
0100
0000
0010
0000
1000
0100
1000
0000
,
0010
0100
0001
0000
0010
0000
0100
0000
,
1000
0001
1000
0000
0010
1000
0010
0000
,
0100
0001
0100
0000
0001
1000
0001
0000
,
0010
0100
1000
0100
,
0001
0100
1000
0001
,
2002
0000
0000
0000
0000
0000
0000
3003
,
0000
1000
0010
0000
0100
0000
0001
0000
,
0020
0000
0000
0030
,
0000
0001
1000
0000
0002
0000
0203
0000
,
0301
0000
0000
0001
0000
0000
0001
0000
0010
0000
0000
0010
0000
0000
0010
0000
,
0100
0000
0000
0100
0000
0000
0100
0000
1000
0000
0000
1000
0000
0000
1000
0000
,
0001
0100
0010
1000
,
0001
1000
0001
1000
0010
0100
0010
0000
,
2000
0000
0000
0000
3001
0000
0010
0100
,
0010
0001
1000
0010
,
0002
0000
0000
0000
0000
0003
0000
0000
0010
0000
0100
0000
0020
0000
0000
0000
,
0000
1000
0000
0000
1030
0000
0010
0000
,
0100
0002
1000
0013
,
0001
1000
0002
0000
0023
0000
0130
0000
,
1000
0010
1000
0000
0001
0010
0001
0000
,
0100
0010
0100
0000
0001
0000
1001
0000
,
1000
0000
0000
1000
0000
0000
1000
0000
0100
0000
0000
0100
0000
0000
0100
0000
,
0010
0000
0000
0010
0000
0000
0010
0000
0002
0000
0000
0000
0003
0000
0000
0000
,
0100
0000
0000
0100
0000
0000
0001
0000
1000
0000
0000
1000
0000
0000
0100
0000
,
0010
0000
0000
0010
0000
0000
0001
0000
2000
0000
0000
0000
3000
0000
0000
0000
,
0010
0000
0000
0100
0000
0000
0010
0000
1000
0000
0000
0001
0000
0000
1000
0000
,
0100
0000
0000
0010
0000
0000
0001
0000
0020
0000
0000
0000
0030
0000
0000
0000
,
0001
0000
0000
0001
0000
0000
0001
0000
1000
0000
0000
1000
0000
0000
1000
0000
,
0001
1000
0001
1000
0010
0100
0010
0000
,
0110
0000
1000
1000
0001
0000
0100
0100
,
0001
0000
0000
0000
0010
0000
0001
1000
0001
0000
1000
0010
1000
0000
0001
0100
,
0001
0000
0001
0001
1000
0000
0100
0100
,
1000
0000
0000
0000
0010
0000
1000
0001
1000
0000
0001
0010
0001
0000
1000
0100
,
2000
0000
0000
0000
,
0000
0000
0000
0000
,
0000
0000
3000
0000
,
0010
0000
0000
0010
0000
0000
0010
0000
1000
0000
0000
0000
0100
0000
0010
0000
,
0001
0000
0000
0001
0000
0000
0001
0000
0100
0000
0000
0000
0010
0000
1000
0000
,
0001
0000
0000
0001
0000
0000
0010
0000
0100
0000
0000
0100
0000
0000
1000
0000
,
0010
0000
0000
0100
0000
0000
0010
0000
0200
0000
0000
0000
0300
0000
0000
0000
,
0001
0000
0000
0001
0000
0000
1000
0000
0100
0000
0000
0001
0000
0000
0100
0000
,
1000
0000
0000
1000
0000
0000
0001
0000
0100
0000
0000
1000
0000
0000
0100
0000
,
0001
0000
0000
0001
0000
0000
0010
0000
0100
0000
0000
0100
0000
0000
1000
0000
,
0020
0000
0030
0000
,
1000
0100
0010
0001
0010
0000
0001
0000
,
0100
0010
0100
0001
1000
0000
0100
0000
,
1100
0001
0101
1000
,
0010
0100
0010
0000
1000
0000
0001
0000
,
0010
0100
1000
0100
1000
0000
0001
0000
,
0100
0010
0100
0001
1000
0000
0100
0000
,
0011
0001
1010
1000
,
0001
0000
0001
0000
0001
0000
0000
0001
0000
0000
0010
0000
0200
0000
0000
0000
,
1300
0000
0000
0100
0000
0000
0001
0000
0100
0000
0000
0000
1000
0000
0000
0000
,
0001
0000
0000
0100
0000
0000
1000
0000
0100
0000
0000
0000
0001
0000
0000
0000
,
0010
0100
1000
0000
0010
0100
0001
0000
,
1000
0000
1000
0000
1000
0000
0000
1000
0000
0000
0010
0000
0200
0000
0000
0000
,
0301
0000
0000
0001
0000
0000
0010
0000
1000
0000
0000
0010
0000
0000
0001
0000
,
1000
0000
0000
1000
0000
0000
0010
0000
0001
0000
0000
0010
0000
0000
1000
0000
,
0001
1000
0001
0000
0100
0010
0100
0010
,
0200
0000
0020
0330
,
1000
0000
0000
1000
0000
0000
1000
0000
0001
0000
0000
0001
0000
0000
0001
0000
,
1000
0001
1000
0001
0100
0010
0100
0000
,
0110
0000
0000
0000
;

//--------------- dance-single - forcednature ----------------
#NOTEDATA:;
#STEPSTYPE:dance-single;
#DESCRIPTION:forcednature;
#CREDIT:forcednature;
#DIFFICULTY:Hard;
#METER:15;
#RADARVALUES:0,0,0,0,0;
#NOTES:
0000
0000
0000
0000
,
0000
0000
0000
0000
,
0000
0000
0000
0000
,
0000
0000
0000
0000
,
0000
0000
0000
0000
,
0000
0000
0000
0000
,
0000
0000
0000
0000
,
0000
0000
0000
0000
,
0000
0000
0000
0000
,
1000
1000
0001
1000
1000
0001
0010
0100
,
2000
0000
3010
0100
0010
1000
0001
0100
,
0001
0001
1000
0001
0001
1000
0100
0010
,
0002
0000
0103
0010
0100
0001
1000
0010
,
0100
0100
0001
1000
0100
0100
0010
0001
,
1000
1000
0010
0100
0001
0001
0010
0100
,
1000
0100
0001
0100
1000
0100
0010
0001
,
0100
0100
0010
0010
1000
0001
0100
0000
,
1001
0000
0000
0000
,
0001
1000
0001
1000
0100
0010
0001
1000
,
0010
0100
0010
0000
1010
0000
0110
0000
,
0010
0100
0010
0100
0001
1000
0100
0010
,
0001
1000
0001
0100
1000
0100
0001
0000
,
1000
0001
1000
0001
0010
0100
1000
0001
,
0100
0010
0100
0000
0101
0000
0110
0000
,
0100
0010
0100
0010
1000
0001
0010
0100
,
1000
0000
1000
0000
1000
0000
0000
1000
0000
0000
0020
0000
0230
0000
0302
0000
,
1003
0001
0010
0000
0110
0000
0100
1000
,
0001
0100
0001
0000
0110
0000
1000
0010
,
0100
0001
1000
0000
1001
0000
0001
0010
,
0100
1000
0010
0000
1001
0000
1000
0001
,
0010
0100
0010
0100
1000
1000
0001
0100
,
0010
1000
0010
0100
0001
0001
1000
0100
,
0010
0001
0010
0001
1000
1000
0100
1000
,
0001
0100
1000
0100
0010
0010
0100
0000
,
0220
0000
0000
0000
0000
0000
0000
0330
,
0000
0000
0001
1000
0001
0000
1000
0000
0001
0000
0010
0000
0100
0000
1000
0000
,
0002
0000
0000
0003
,
0000
0000
1000
0001
1000
0000
0001
0000
1000
0000
0020
0000
0230
0000
0302
0000
,
1003
0000
0000
1000
0000
0000
0001
0000
0100
0000
0000
0100
0000
0000
0010
0000
,
1000
0000
0000
1000
0000
0000
0001
0000
0010
0000
0000
0010
0000
0000
0100
0000
,
1000
0010
0100
0010
0001
0010
0100
0010
,
1000
0000
0001
0000
1000
0000
0001
0000
1000
0001
1000
0001
1000
0001
1000
0001
,
2000
0000
0000
0000
3010
0100
0010
1000
,
0001
1000
0100
0010
0100
0001
0100
0010
,
0002
0000
0000
0000
0000
0003
1000
0001
1000
0000
0001
0000
0200
0000
0000
0000
,
0000
0010
0010
0000
0001
0001
0000
0310
,
0020
0000
2030
0000
3001
0001
0100
0001
,
0000
0000
0100
0010
0100
0000
0001
0000
1000
0000
0100
0000
1000
0000
0001
0000
,
0100
0010
0100
1000
0100
0010
0100
0001
,
1000
0001
0010
0100
1000
0100
0001
0100
,
1000
0000
0000
1001
0000
0000
0001
0000
0100
0000
0000
0110
0000
0000
0010
0000
,
1000
0000
0000
1001
0000
0000
0001
0000
0010
0000
0200
0000
2300
0000
3020
0000
,
0130
0000
0000
0101
0000
0000
0001
0000
1000
0000
0000
1100
0000
0000
0100
0000
,
0010
0000
0000
0011
0000
0000
0001
0000
1000
0000
0002
0000
0203
0000
2300
0000
,
3100
0000
0010
0100
0000
0010
0100
0000
0001
0000
0100
0010
0000
1000
0010
0000
,
0100
0000
0001
1000
0000
0001
1000
0000
0001
0000
0020
0000
0230
0000
2300
0000
,
3010
0000
0100
0001
0000
0100
0001
0000
0010
0000
0100
1000
0000
0100
1000
0000
,
0001
0000
1000
0000
0001
0000
1000
0000
0001
1000
0001
1000
0001
1000
0001
1000
,
0001
0000
0000
0000
1000
0100
0010
0100
0010
0000
0000
0000
0001
0100
0010
0100
,
0010
0000
0000
0000
1000
0001
1000
0001
0100
0000
0010
0100
0010
0000
1000
0001
,
1000
0000
0000
0000
0001
0100
0010
0100
0010
0000
0000
0000
1000
0100
0010
0100
,
0010
0000
0000
0000
0001
1000
0001
1000
0100
0000
0010
0100
0010
0000
0001
0000
,
2002
0000
0000
0000
,
0000
0000
0000
0000
,
0000
0000
3003
0000
,
1000
0000
0000
1001
0000
0000
0001
0000
0010
0000
0000
0000
0100
0000
1000
0000
,
0001
0000
0000
1001
0000
0000
1000
0000
0010
0000
0000
0000
0100
0000
0001
0000
,
0101
0000
0000
0101
0000
0000
1000
0000
1100
0000
0000
1100
0000
0000
0001
0000
,
1001
0000
0000
1001
0000
0000
1000
0000
1000
0000
0020
0000
0230
0000
0302
0000
,
0103
0000
0010
0100
0000
0010
0100
0000
0001
0000
1000
0100
0000
0010
0001
0000
,
0100
0000
0010
0100
0000
0010
0100
0000
0001
0000
1000
0100
0000
0010
0001
0000
,
1000
0000
0010
0100
0000
0010
1000
0000
0001
0000
0010
0100
0000
0010
0001
0000
,
2000
0000
3002
0000
,
1003
0100
1000
0000
0001
0000
0010
0000
0100
0000
1000
0000
0001
0000
0100
0000
,
0010
1000
0010
0000
0100
0000
0001
0000
1000
0000
0100
0000
0010
0000
0001
0000
,
1000
0010
0100
0000
0001
0000
1000
0000
0001
0010
0100
0000
1000
0000
0001
0000
,
1000
0010
1000
0000
0001
0100
0001
0000
1000
0100
0010
0000
0001
0000
1000
0000
,
0001
0100
0001
0000
1000
0000
0010
0000
0100
0000
0001
0000
1000
0000
0100
0000
,
0010
0001
0010
0000
0100
0000
1000
0000
0001
0000
0100
0000
0010
0000
1000
0000
,
0001
0010
0100
0000
1000
0000
0001
0000
1000
0010
0100
0000
0001
0000
1000
0000
,
0001
1000
0001
1000
0001
0000
1000
0100
0000
0010
0002
0000
2003
0000
3002
0000
,
0103
0000
0010
1000
0001
0000
2000
0000
3100
0000
0010
0000
0001
0000
1000
0000
,
0010
0000
0100
0001
1000
0000
0002
0000
0013
0000
0100
0000
1000
0000
0010
0000
,
0100
0001
0100
0000
0001
0000
0010
0000
0100
1000
0100
0000
1000
0000
0010
0000
,
0100
0000
0100
0000
0100
0000
0000
0100
0000
0000
0001
0000
1000
0000
0001
0000
,
0010
0000
0100
1000
0000
0100
1000
0000
0001
1000
0001
1000
0001
0000
0100
0000
,
0010
0000
0100
0001
0000
0100
0001
0000
1000
0001
1000
0001
1000
0000
0001
0000
,
0010
0100
0010
0100
0020
0000
0000
0000
,
0031
0000
1000
0001
1000
0000
0010
0100
0001
0000
1000
0000
0002
0000
0000
0000
,
1003
0000
0010
0100
0000
0010
0100
0000
0001
0000
0010
0100
0000
0010
0100
0000
,
1000
0000
0001
0000
1000
0000
0001
0000
1000
0001
1000
0001
1000
0001
1000
0001
,
1000
0000
0000
0000
;

//--------------- dance-double - forcednature ----------------
#NOTEDATA:;
#STEPSTYPE:dance-double;
#DESCRIPTION:forcednature;
#CREDIT:forcednature;
#DIFFICULTY:Easy;
#METER:9;
#RADARVALUES:0,0,0,0,0;
#NOTES:
00000000
00000000
00000000
00000000
,
00000000
00000000
00000000
00000000
,
00000000
00000000
00000000
00000000
,
00000000
00000000
00000000
00000000
,
00000000
00000000
00000000
00000000
,
00000000
00000000
00000000
00000000
,
00000000
00000000
00000000
00000000
,
00000000
00000000
00000000
00000000
,
00000000
00000000
00000000
00000000
,
00011000
00000000
00010000
00001000
,
00010000
00000000
00000100
00001000
,
00000100
00000000
00000010
00000001
,
00001000
00000000
00000001
00000000
,
00000100
00000100
00000010
00000000
,
00001000
00001000
00000010
00000000
,
00010000
00001000
00010000
00001000
,
01000000
00010000
01000000
00000000
,
10010000
00000000
00000000
00000000
,
10000000
10000000
10000000
00000000
,
00100000
10000000
00100000
00000000
,
01000000
01000000
01000000
00000000
,
00001000
00010000
00001000
00000000
,
00100000
00010000
00100000
00000000
,
00001000
00001000
00010000
00000000
,
00000010
00001000
00000010
00000000
,
00020000
00000000
00030000
00000000
,
00011000
00000000
00010000
00000010
,
00010000
00000000
00001000
00100000
,
00001000
00000000
00010000
00010000
,
00010000
00000000
00000100
00001000
,
00000001
00000000
00000001
00000100
,
00000010
00000000
00000010
00010000
,
00001000
00000000
00001000
01000000
,
00010000
00000000
10000000
00000000
,
20020000
00000000
00000000
00000000
00000000
00000000
00000000
30030000
,
00000000
10000000
01000000
00100000
,
00020000
00000000
00000000
00030000
,
00000000
01000000
00001000
00010000
,
00000100
00000100
00010000
00010000
,
00001000
00001000
00100000
00100000
,
00010000
10000000
00010000
00000000
10000000
00010000
10000000
00000000
,
00200000
00300000
02000000
03000000
,
10010000
00000000
10000000
01000000
,
00010000
00000000
00001000
00010000
,
00002000
00000000
00000000
00003000
00000010
00000000
00000002
00000000
,
00000000
00000000
00000003
00000000
,
00000100
00000020
00000000
00000030
,
00001000
00000001
00001000
00000100
,
00010000
00010000
00001000
00001000
,
00010000
00100000
10000000
00000000
,
00010000
00010000
10000000
10000000
,
01000000
00100000
00010000
00000000
,
01000000
01000000
00001000
00001000
,
00010000
00000010
00001000
00000000
,
00000001
00000001
00000010
00000010
,
00000100
00010000
00001000
00000000
,
01000000
01000000
00010000
00010000
,
00200000
00000000
00300000
00000000
,
00011000
00000000
00000100
00000000
,
00010000
00001000
00010000
00000010
,
00001000
00000000
00000001
00000000
,
00000010
00000100
00010000
00001000
,
00022000
00000000
00000000
00000000
,
00000000
00000000
00000000
00000000
,
00000000
00000000
00033000
00000000
,
00001000
00000000
00000000
00010000
00000000
00000000
00001000
00000000
00010000
00000000
00000000
00000000
00000000
00000000
00000000
00000000
,
00010000
00000000
00000000
00001000
00000000
00000000
00010000
00000000
00001000
00000000
00000000
00000000
00000000
00000000
00000000
00000000
,
01000000
00000000
00000000
00010000
00000000
00000000
01000000
00000000
00010000
00000000
00000000
01000000
00000000
00000000
00010000
00000000
,
10000000
00000000
00000000
00010000
00000000
00000000
10000000
00000000
00010000
00000000
00000000
00000000
00000000
00000000
00000000
00000000
,
00100000
00000000
00000000
00001000
00000000
00000000
00100000
00000000
00001000
00000000
00000000
00000000
00000000
00000000
00000000
00000000
,
00010000
00000000
00000000
00000010
00000000
00000000
00010000
00000000
00000010
00000000
00000000
00000000
00000000
00000000
00000000
00000000
,
00010000
00000000
00000000
00001000
00000000
00000000
00010000
00000000
00001000
00000000
00000000
00010000
00000000
00000000
00001000
00000000
,
00020000
00000000
00000000
00030000
,
00000100
00001000
00000100
00000010
,
00000001
00001000
00000100
00010000
,
00002000
00013000
00002000
00013000
,
00000100
00001000
00000100
00000000
00001000
00000000
00000000
00000000
,
00000010
00010000
00001000
01000000
,
00010000
10000000
00010000
00100000
,
00002000
00013000
00002000
00013000
,
00000010
00001000
00000010
00000000
00000200
00000000
00000300
00000000
,
00011000
00000100
00011000
00000000
,
00011000
01000000
00011000
00000000
,
00002000
00013000
00002000
00013000
,
00000010
00001000
00000010
00000000
00010000
00000000
00000000
00000000
,
00011000
00100000
00011000
00000000
,
00011000
00000010
00011000
00000000
,
02000000
03010000
02000000
03010000
,
02000000
03000000
00002000
00003000
,
00010000
00000000
00000000
00001000
00000000
00000000
00010000
00000000
00001000
00000000
00000000
00010000
00000000
00000000
00001000
00000000
,
00010000
00000000
00001000
00000000
00010000
00001000
00010000
00000000
,
00001000
00000000
00000000
00000000
;

//--------------- dance-double - forcednature ----------------
#NOTEDATA:;
#STEPSTYPE:dance-double;
#DESCRIPTION:forcednature;
#CREDIT:forcednature;
#DIFFICULTY:Medium;
#METER:12;
#RADARVALUES:0,0,0,0,0;
#NOTES:
00000000
00000000
00000000
00000000
,
00000000
00000000
00000000
00000000
,
00000000
00000000
00000000
00000000
,
00000000
00000000
00000000
00000000
,
00000000
00000000
00000000
00000000
,
00000000
00000000
00000000
00000000
,
00000000
00000000
00000000
00000000
,
00000000
00000000
00000000
00000000
,
00000000
00000000
00000000
00000000
,
00011000
00001000
00010000
00001000
,
00000010
00000001
00000010
00001000
,
00010000
00001000
00010000
00100000
,
10000000
00100000
00010000
00001000
,
00010000
00001000
00010000
00000000
00000100
00001000
00000100
00000000
,
00000010
00000001
00000010
00000000
00000001
00000100
00000001
00000000
,
00000100
00001000
00010000
00100000
,
10000000
00010000
10000000
00010000
01000000
00100000
01000000
00000000
,
01100000
00000000
00000000
00000000
,
10010000
00000000
10000000
00000000
00010000
10000000
00010000
00000000
,
00100000
01000000
10000000
01000000
,
00100000
00000000
00001000
00000000
00010000
00001000
00010000
00000000
,
00000100
00010000
00001000
00010000
,
00000010
00000000
00001000
00000000
00000010
00000100
00000010
00000000
,
00001000
00000001
00000010
00001000
,
00010000
00000000
00001000
00000000
00010000
00000100
00010000
00000000
,
00001000
00000000
00010000
00000000
00001000
00000000
00000000
00010000
00000000
00000000
00000000
00000000
00000000
00000000
00000000
00000000
,
00011000
00000000
00100000
00000000
00010000
00100000
00010000
00000000
,
01000000
00010000
01000000
00000000
00100000
00000000
10000000
00000000
,
01000000
00000000
00010000
00000000
00001000
00010000
00001000
00000000
,
01000000
00001000
01000000
00000000
00001000
00000000
00010000
00000000
,
00000010
00001000
00000010
00000000
00000100
00000010
00000100
00000000
,
00000001
00001000
00000001
00000000
00000010
00000001
00000010
00000000
,
00000100
00010000
00001000
00100000
,
00001000
00010000
00100000
10000000
,
20020000
00000000
00000000
00000000
00000000
00000000
00000000
30030000
,
00000000
00010000
10000000
00000000
01000000
00000000
00010000
00000000
,
00002000
00000000
00000000
00003000
,
00000000
00001000
00010000
00000000
00002000
00000000
00003020
00000000
,
00000031
00000000
00000000
00000001
00000000
00000000
00000001
00000000
00000100
00000000
00000000
00000100
00000000
00000000
00000100
00000000
,
00000010
00000000
00000000
00000010
00000000
00000000
00000010
00000000
00010000
00000000
00000000
00010000
00000000
00000000
00010000
00000000
,
00001000
01000000
00010000
00100000
,
00010000
10000000
00010000
10000000
00100000
01000000
00100000
00000000
,
20000000
00000000
00000000
00000000
31000000
00000000
00100000
01000000
,
00100000
00001000
00010000
00000100
,
00000020
00000000
00000000
00000000
00000000
00000030
00000000
00000000
00000001
00000000
00001000
00000000
00000002
00000000
00000000
00000000
,
00000000
00000100
00000000
00000000
00000103
00000000
00000001
00000000
,
00000010
00002000
00000000
00003000
,
00010000
00001000
00020000
00000000
00230000
00000000
10300000
00000000
,
00100000
01000000
00100000
00000000
10000000
00010000
10000000
00000000
,
01000000
00100000
00010000
00000000
01000000
00000000
00001000
00000000
,
00010000
00000000
00000000
00010000
00000000
00000000
00010000
00000000
00000010
00000000
00000000
00000010
00000000
00000000
00000010
00000000
,
00001000
00000000
00000000
00001000
00000000
00000000
00001000
00000000
00000200
00000000
00000000
00000000
00000300
00000000
00000000
00000000
,
00000010
00000000
00000000
00000010
00000000
00000000
00000001
00000000
00001000
00000000
00000000
00001000
00000000
00000000
00000010
00000000
,
00010000
00000000
00000000
00010000
00000000
00000000
00001000
00000000
02000000
00000000
00000000
00000000
03000000
00000000
00000000
00000000
,
00010000
00000000
00000000
00100000
00000000
00000000
01000000
00000000
10000000
00000000
00000000
00100000
00000000
00000000
01000000
00000000
,
00001000
00000000
00000000
00010000
00000000
00000000
00001000
00000000
00200000
00000000
00000000
00000000
00300000
00000000
00000000
00000000
,
00001000
00000000
00000000
00001000
00000000
00000000
00010000
00000000
00000100
00000000
00000000
00000100
00000000
00000000
00001000
00000000
,
00000001
00001000
00000001
00001000
00000010
00000100
00000010
00000000
,
00001001
00000000
00000001
00000001
00000100
00000000
00001000
00001000
,
00010000
00000000
00000000
00000000
00100000
00000000
10000000
00000000
00010000
00000000
10000000
01000000
10000000
00000000
00010000
01000000
,
00010000
00000000
10000000
10000000
01000000
00000000
00010000
00010000
,
00001000
00000000
00000000
00000000
00000010
00000000
00000010
00000000
00000001
00000000
00001000
00000100
00001000
00000000
00000001
00000100
,
00000020
00000000
00000000
00000000
,
00000000
00000000
00000000
00000000
,
00000000
00000000
00000030
00000000
,
00010000
00000000
00000000
00010000
00000000
00000000
00001000
00000000
00100000
00000000
00000000
00000000
00010000
00000000
00100000
00000000
,
00001000
00000000
00000000
00001000
00000000
00000000
00010000
00000000
00000010
00000000
00000000
00000000
00001000
00000000
00000010
00000000
,
00010000
00000000
00000000
00010000
00000000
00000000
00000100
00000000
00001000
00000000
00000000
00001000
00000000
00000000
00000100
00000000
,
00000010
00000000
00000000
00000001
00000000
00000000
00001000
00000000
00000002
00000000
00000000
00000000
00000003
00000000
00000000
00000000
,
00000100
00000000
00000000
00000010
00000000
00000000
00000100
00000000
00001000
00000000
00000000
00001000
00000000
00000000
00010000
00000000
,
00100000
00000000
00000000
01000000
00000000
00000000
00100000
00000000
10000000
00000000
00000000
10000000
00000000
00000000
00010000
00000000
,
00100000
00000000
00000000
01000000
00000000
00000000
10000000
00000000
01000000
00000000
00000000
00010000
00000000
00000000
00001000
00000000
,
00020000
00000000
00030000
00000000
,
00001000
00010000
00000100
00010000
00000100
00000000
00001000
00000000
,
00000001
00000100
00000010
00001000
00000010
00000000
00010000
00000000
,
00011000
00000100
00011000
01000000
,
00010000
01000000
00100000
00000000
10000000
00000000
00010000
00000000
,
00100000
01000000
10000000
01000000
10000000
00000000
00010000
00000000
,
01000000
00001000
00010000
00001000
00010000
00000000
00000010
00000000
,
00011000
00100000
00011000
00000010
,
00010000
00000000
00010000
00000000
00010000
00000000
00000000
00010000
00000000
00000000
00001000
00000000
00020000
00000000
00000000
00000000
,
00031000
00000000
00000000
00000010
00000000
00000000
00001000
00000000
00010000
00000000
00000000
00000000
00001000
00000000
00000000
00000000
,
00010000
00000000
00000000
00001000
00000000
00000000
00000100
00000000
00001000
00000000
00000000
00000000
00010000
00000000
00000000
00000000
,
00000010
00001000
00000010
00000000
00000100
00000001
00000100
00000000
,
00000010
00000000
00000010
00000000
00000010
00000000
00000000
00000010
00000000
00000000
00001000
00000000
00000002
00000000
00000000
00000000
,
00000103
00000000
00000000
00000100
00000000
00000000
00001000
00000000
00010000
00000000
00000000
00001000
00000000
00000000
01000000
00000000
,
00010000
00000000
00000000
00010000
00000000
00000000
00100000
00000000
01000000
00000000
00000000
10000000
00000000
00000000
01000000
00000000
,
00100000
00010000
00100000
00000000
00001000
00010000
00001000
00010000
,
00002000
00000000
00020000
00033000
,
00010000
00000000
00000000
00010000
00000000
00000000
00001000
00000000
00100000
00000000
00000000
00100000
00000000
00000000
01000000
00000000
,
10000000
00010000
10000000
00010000
01000000
00100000
01000000
00000000
,
01100000
00000000
00000000
00000000
;

//--------------- dance-double - forcednature ----------------
#NOTEDATA:;
#STEPSTYPE:dance-double;
#DESCRIPTION:forcednature;
#CREDIT:forcednature;
#DIFFICULTY:Hard;
#METER:15;
#RADARVALUES:0,0,0,0,0;
#NOTES:
00000000
00000000
00000000
00000000
,
00000000
00000000
00000000
00000000
,
00000000
00000000
00000000
00000000
,
00000000
00000000
00000000
00000000
,
00000000
00000000
00000000
00000000
,
00000000
00000000
00000000
00000000
,
00000000
00000000
00000000
00000000
,
00000000
00000000
00000000
00000000
,
00000000
00000000
00000000
00000000
,
00001000
00001000
00010000
00001000
00001000
00010000
00000010
00001000
,
00000020
00000000
00000130
00000001
00000100
00000010
00001000
00000100
,
00010000
00010000
00001000
00010000
00010000
00001000
00100000
00010000
,
00200000
00000000
01300000
10000000
01000000
00100000
00010000
01000000
,
00001000
00001000
00010000
00000100
00001000
00001000
00000001
00000100
,
00000010
00000010
00001000
00000100
00010000
00010000
00001000
01000000
,
00010000
00100000
01000000
00100000
10000000
00100000
00010000
00100000
,
00001000
00001000
00010000
00010000
00000100
00001000
00000001
00000000
,
00001001
00000000
00000000
00000000
,
00001000
00000001
00001000
00000001
00000100
00000010
00010000
00001000
,
00010000
00000100
00001000
00000000
00001100
00000000
00001010
00000000
,
00010000
00001000
00010000
00001000
00100000
00010000
00100000
01000000
,
10000000
00010000
10000000
00100000
01000000
00001000
01000000
00000000
,
00010000
10000000
00010000
10000000
01000000
00100000
00001000
00010000
,
00001000
00100000
00010000
00000000
00110000
00000000
01010000
00000000
,
00001000
00010000
00001000
00010000
00000010
00001000
00000100
00000010
,
00000001
00000000
00000001
00000000
00000001
00000000
00000000
00000001
00000000
00000000
00000020
00000000
00002030
00000000
00023000
00000000
,
00030100
00001000
00000100
00000000
00011000
00000000
00100000
00010000
,
00100000
01000000
10000000
00000000
10100000
00000000
00100000
01000000
,
00001000
00010000
00001000
00000000
00101000
00000000
00100000
00010000
,
01000000
00001000
00010000
00000000
00011000
00000000
00000010
00001000
,
00000001
00000100
00000001
00000100
00001000
00001000
00010000
00001000
,
00010000
00100000
00010000
00100000
10000000
10000000
00100000
01000000
,
00010000
10000000
01000000
10000000
00010000
00010000
00100000
00001000
,
00010000
00000010
00001000
00000010
00010000
00010000
00001000
00000000
,
00022000
00000000
00000000
00000000
00000000
00000000
00000000
00033000
,
00000000
00000000
00001000
00010000
00001000
00000000
00010000
00000000
00001000
00000000
00000010
00000000
00000001
00000000
00000010
00000000
,
00000200
00000000
00000000
00000300
,
00000000
00000000
00001000
00000001
00001000
00000000
00000001
00000000
00000100
00000000
00002000
00000000
00023000
00000000
00032000
00000000
,
00013000
00000000
00000000
00010000
00000000
00000000
00100000
00000000
10000000
00000000
00000000
10000000
00000000
00000000
00100000
00000000
,
01000000
00000000
00000000
01000000
00000000
00000000
00010000
00000000
00100000
00000000
00000000
00100000
00000000
00000000
00001000
00000000
,
00010000
00001000
01000000
00010000
01000000
00001000
00100000
00001000
,
00010000
00000000
00010000
00000000
00001000
00000000
00001000
00000000
00010000
00001000
00010000
00001000
00010000
00001000
00010000
00001000
,
00020000
00000000
00000000
00000000
00031000
00000010
00000001
00000010
,
00000100
00000010
00001000
00010000
01000000
00010000
00001000
00010000
,
00000200
00000000
00000000
00000000
00000000
00000300
00001000
00000001
00001000
00000000
00000010
00000000
00020000
00000000
00000000
00000000
,
00000000
00000100
00000100
00000000
00000010
00000010
00000000
00031000
,
00002000
00000000
00203000
00000000
00301000
00001000
00010000
00001000
,
00000000
00000000
01000000
00010000
01000000
00000000
00010000
00000000
10000000
00000000
00100000
00000000
10000000
00000000
00010000
00000000
,
00100000
01000000
10000000
01000000
00010000
00001000
00010000
00000010
,
00001000
00000010
00000100
00000001
00000010
00000100
00010000
00001000
,
00100000
00000000
00000000
00100000
00000000
00000000
00010000
00000000
01000000
00000000
00000000
01000000
00000000
00000000
00100000
00000000
,
10000000
00000000
00000000
10000000
00000000
00000000
01000000
00000000
00010000
00000000
00002000
00000000
00023000
00000000
00032000
00000000
,
00003010
00000000
00000000
00000010
00000000
00000000
00000001
00000000
00000100
00000000
00000000
00000100
00000000
00000000
00001000
00000000
,
00010000
00000000
00000000
00010000
00000000
00000000
00100000
00000000
00010000
00000000
00002000
00000000
00023000
00000000
00032000
00000000
,
01003000
00000000
00010000
01000000
00000000
00010000
01000000
00000000
00100000
00000000
10000000
01000000
00000000
00100000
00010000
00000000
,
01000000
00000000
00001000
00010000
00000000
00001000
00010000
00000000
00000100
00000000
00002000
00000000
00003200
00000000
00000320
00000000
,
00000031
00000000
00001000
00000010
00000000
00001000
00000010
00000000
00000100
00000000
00000001
00000010
00000000
00000001
00000010
00000000
,
00001000
00000000
00010000
00000000
00001000
00000000
00010000
00000000
00001000
00010000
00001000
00010000
00001000
00010000
00001000
00010000
,
00001000
00000000
00000000
00000000
01000000
00100000
00010000
00001000
00010000
00000000
00000000
00000000
00000010
00000100
00001000
00010000
,
00001000
00000000
00000000
00000000
01000000
00010000
00100000
00001000
00100000
00000000
00000100
00010000
00000100
00000000
00010000
00001000
,
00010000
00000000
00000000
00000000
00000100
00000010
00001000
00010000
00001000
00000000
00000000
00000000
00000010
00001000
00000100
00010000
,
00000100
00000000
00000000
00000000
00000010
00000001
00000100
00000010
00001000
00000000
00000100
00010000
00000100
00000000
00100000
00000000
,
00022000
00000000
00000000
00000000
,
00000000
00000000
00000000
00000000
,
00000000
00000000
00033000
00000000
,
00010000
00000000
00000000
01000000
00000000
00000000
10000000
00000000
11000000
00000000
00000000
00000000
01000000
00000000
00100000
00000000
,
00010000
00000000
00000000
01000000
00000000
00000000
00001000
00000000
00011000
00000000
00000000
00000000
00010000
00000000
00000010
00000000
,
00001010
00000000
00000000
00001010
00000000
00000000
00000100
00000000
00000011
00000000
00000000
00000011
00000000
00000000
00000100
00000000
,
00001001
00000000
00000000
00001001
00000000
00000000
00000001
00000000
00000001
00000000
00000020
00000000
00002030
00000000
00023000
00000000
,
00031000
00000000
00010000
00001000
00000000
00010000
00001000
00000000
01000000
00000000
00010000
01000000
00000000
00010000
00100000
00000000
,
00001000
00000000
00010000
00001000
00000000
00010000
00001000
00000000
00100000
00000000
00010000
00100000
00000000
01000000
10000000
00000000
,
00010000
00000000
01000000
00010000
00000000
01000000
00001000
00000000
00010000
00000000
00000100
00001000
00000000
00000100
00000010
00000000
,
00000002
00000000
00002003
00000000
,
00003001
00000100
00000001
00000000
00001000
00000000
00000100
00000000
00000010
00000000
00000001
00000000
00001000
00000000
00000010
00000000
,
00010000
00001000
00010000
00000000
00000100
00000000
00001000
00000000
00000010
00000000
00010000
00000000
00001000
00000000
01000000
00000000
,
00010000
01000000
00010000
00000000
10000000
00000000
01000000
00000000
00100000
00010000
00100000
00000000
00001000
00000000
00010000
00000000
,
00000010
00001000
00000010
00000000
00000100
00000001
00000100
00000000
00000010
00000000
00001000
00000000
00000100
00000000
00000001
00000000
,
00000100
00001000
00000100
00000000
00000010
00000000
00000001
00000000
00000100
00000000
00000010
00000000
00010000
00000000
00001000
00000000
,
00010000
00000100
00010000
00000000
00001000
00000000
00100000
00000000
00010000
00000000
00100000
00000000
01000000
00000000
10000000
00000000
,
00010000
01000000
00010000
00000000
00100000
00000000
00001000
00000000
00010000
00001000
00010000
00000000
00000100
00000000
00001000
00000000
,
00000001
00001000
00000001
00001000
00000001
00000000
00001000
00000010
00000000
00000100
00000002
00000000
00002003
00000000
00003002
00000000
,
00000013
00000000
00000000
00001000
00000000
00000000
00000010
00000000
00000001
00000000
00001000
00000001
00001000
00000000
00000001
00000000
,
00000100
00000000
00000000
00001000
00000000
00000000
00010000
00000000
00001000
00000000
01000000
00010000
01000000
00000000
00100000
00000000
,
10000000
00010000
10000000
00000000
00010000
00000000
00100000
00000000
00001000
00010000
00001000
00000000
00010000
00000000
00000100
00000000
,
00000010
00000000
00000010
00000000
00000010
00000000
00000000
00000010
00000000
00000000
00000001
00000000
00001000
00000000
00000001
00000000
,
00000100
00000000
00000010
00000100
00000000
00000010
00001000
00000000
00000100
00000000
00010000
00001000
00010000
00000000
00001000
00000000
,
01000000
00000000
00010000
00100000
00000000
01000000
10000000
00000000
00010000
00000000
10000000
00010000
10000000
00000000
00100000
00000000
,
01000000
00001000
00010000
00001000
02000000
00000000
00000000
00000000
,
03010000
00000000
10000000
00010000
10000000
00000000
01000000
00100000
00010000
00000000
01000000
00000000
00002000
00000000
00000000
00000000
,
00103000
00000000
00010000
00100000
00000000
00001000
00010000
00000000
00000010
00000000
00001000
00000010
00000000
00010000
00001000
00000000
,
00010000
00000000
00001000
00000000
00010000
00000000
00001000
00000000
00010000
00001000
00010000
00001000
00010000
00001000
00010000
00001000
,
00010000
00000000
00000000
00000000
;
