#VERSION:0.83;
#TITLE:The Biggest Roaster;
#SUBTITLE:;
#ARTIST:D.J. Spugna;
#TITLETRANSLIT:;
#SUBTITLETRANSLIT:;
#ARTISTTRANSLIT:;
#GENRE:FILTER HOUSE;
#CREDIT:;
#MUSIC:The Biggest Roaster.ogg;
#BANNER:The Biggest Roaster.png;
#BACKGROUND:The Biggest Roaster-bg.png;
#CDTITLE:;
#SAMPLESTART:14.222;
#SAMPLELENGTH:15.000;
#SELECTABLE:YES;
#OFFSET:0.000;
#BPMS:0.000=135.000;
#STOPS:;
#TIMESIGNATURES:0.000=4=4;
#BGCHANGES:0.000=The Biggest Roaster.mp4=1.000=0=0=0=StretchNoLoop====,
99999.000=-nosongbg-=1.000=0=0=0=StretchNoLoop====
;
#FGCHANGES:;

//--------------- dance-single - Extraordiberry ----------------
#NOTEDATA:;
#STEPSTYPE:dance-single;
#DESCRIPTION:Extraordiberry;
#DIFFICULTY:Beginner;
#METER:2;
#RADARVALUES:0,0,0,0,0;
#CREDIT:Extraordiberry;
#NOTES:
0000
0000
0000
0000
,
0000
0000
0000
0000
,
0000
0000
0000
0000
,
1000
0000
0000
0000
,
0000
0000
0000
0000
,
0001
0000
0000
0000
,
0000
0000
0000
0000
,
1000
0000
1000
0000
,
0001
0000
1001
0000
,
1000
0000
0000
0000
,
0100
0000
0000
0000
,
1000
0000
0000
0000
,
0001
0000
0000
0000
,
0100
0000
0000
0000
,
0010
0000
0000
0000
,
0100
0000
0000
0000
,
0001
0000
1001
0000
,
1000
0000
0000
0000
,
0100
0000
0000
0000
,
0001
0000
0000
0000
,
0100
0000
0000
0000
,
1000
0000
0000
0000
,
0010
0000
0000
0000
,
0100
0000
0000
0000
,
0001
0000
1001
0000
,
1000
0000
0000
0000
,
0000
0000
0000
0000
,
0001
0000
0000
0000
,
0000
0000
0000
0000
,
0100
0000
0000
0000
,
0000
0000
0000
0000
,
0010
0000
0000
0000
,
0000
0000
0000
1000
,
0001
0000
0000
0000
,
1000
0000
0000
0000
,
0100
0000
0000
0000
,
0010
0000
0000
0000
,
0100
0000
0000
0000
,
1000
0000
0000
0000
,
0001
0000
0000
0000
,
1001
0000
0000
0000
,
1000
0000
0000
0000
,
0001
0000
1001
0000
,
1000
0000
0000
0000
,
0100
0000
1001
0000
,
0001
0000
0000
0000
,
1000
0000
1001
0000
,
0001
0000
0000
0000
,
0100
0000
1001
0000
,
0110
0000
0000
0000
;

//--------------- dance-single - Extraordiberry ----------------
#NOTEDATA:;
#STEPSTYPE:dance-single;
#DESCRIPTION:Extraordiberry;
#DIFFICULTY:Easy;
#METER:5;
#RADARVALUES:0,0,0,0,0;
#BPMS:0.000=135.000;
#STOPS:34.000=0.2222222222222222
,34.500=0.2222222222222222
,65.000=0.2222222222222222
,65.500=0.2222222222222222
,96.000=0.2222222222222222
,96.500=0.2222222222222222
,167.000=0.2222222222222222
,167.500=0.2222222222222222
,174.000=0.2222222222222222
,174.500=0.2222222222222222
,181.000=0.2222222222222222
,181.500=0.2222222222222222
,188.000=0.2222222222222222
,188.500=0.2222222222222222
;
#TIMESIGNATURES:0.000=4=4,
32.000=3=4,
35.000=4=4,
63.000=3=4,
66.000=4=4,
94.000=3=4,
97.000=4=4,
165.000=3=4,
168.000=4=4,
172.000=3=4,
175.000=4=4,
179.000=3=4,
182.000=4=4,
186.000=3=4,
189.000=4=4
;
#CREDIT:Extraordiberry;
#NOTES:
0000
0000
0000
0000
,
0000
0000
0000
0000
,
0000
0000
0000
1000
,
1000
0000
0000
0000
,
0000
0000
0000
0000
,
0001
0000
0100
0000
,
0001
0000
0010
0000
,
0001
0001
0100
0100
,
0110
0000
0000
0000
0000
0000
0000
0000
2002
3003
2002
3003
1000
0000
0000
0000
,
0000
0100
0000
0001
,
0000
0100
0000
1000
,
0000
1000
0000
0010
,
0100
0010
0000
1000
,
0000
0100
0000
0010
,
0000
0000
0000
0001
,
0000
0001
0000
1000
,
0000
0000
0000
0000
2002
3003
2002
3003
1000
0000
0000
0000
0000
0000
0000
0000
,
0010
0000
0001
0000
,
0010
0000
1000
0000
,
1000
0000
0001
0000
,
0000
0000
0001
0000
,
0010
0000
0100
0000
,
1000
0000
0001
0100
,
1000
0010
0001
0000
,
2002
3003
2002
3003
2000
0000
0000
0000
0000
0000
0000
0000
0000
0000
0000
0000
,
0000
0000
0000
3000
,
0000
0002
0000
0000
,
0000
0000
0000
0003
,
0000
1000
0000
0000
,
0000
0100
0000
0000
,
0000
1000
0000
1000
,
0000
0001
0000
0000
,
0110
1000
0000
0001
,
0000
0100
0000
0010
,
0000
0100
0000
0001
,
0000
1000
0000
0100
,
0100
0010
0000
0001
,
0000
1000
0000
0010
,
0000
1000
0000
0100
,
0000
0010
0000
0000
,
0000
1000
0100
0001
,
0100
0000
0000
0000
1000
0000
0000
0000
0000
0000
0000
0000
2002
3003
2002
3003
,
0001
0100
1000
0100
,
0001
0000
0000
0000
0000
0000
0000
0000
2002
3003
2002
3003
0001
0000
0000
0000
,
0010
1000
0010
0001
,
0000
0000
0000
0000
2002
3003
2002
3003
1000
0000
0000
0000
0010
0000
0000
0000
,
0001
0100
1000
0001
,
2002
3003
2002
3003
0100
0000
0000
0000
0000
0000
0000
0000
0000
0000
0000
0000
;

//--------------- dance-single - Extraordiberry ----------------
#NOTEDATA:;
#STEPSTYPE:dance-single;
#DESCRIPTION:Extraordiberry;
#DIFFICULTY:Medium;
#METER:8;
#RADARVALUES:0,0,0,0,0;
#BPMS:0.000=135.000;
#STOPS:34.000=0.2222222222222222
,34.500=0.2222222222222222
,65.000=0.2222222222222222
,65.500=0.2222222222222222
,96.000=0.2222222222222222
,96.500=0.2222222222222222
,167.000=0.2222222222222222
,167.500=0.2222222222222222
,174.000=0.2222222222222222
,174.500=0.2222222222222222
,181.000=0.2222222222222222
,181.500=0.2222222222222222
,188.000=0.2222222222222222
,188.500=0.2222222222222222
;
#TIMESIGNATURES:0.000=4=4,
32.000=3=4,
35.000=4=4,
63.000=3=4,
66.000=4=4,
94.000=3=4,
97.000=4=4,
165.000=3=4,
168.000=4=4,
172.000=3=4,
175.000=4=4,
179.000=3=4,
182.000=4=4,
186.000=3=4,
189.000=4=4
;
#CREDIT:Extraordiberry;
#NOTES:
0000
0000
0000
0000
,
0000
0000
0000
0000
,
0000
0000
0000
1000
,
1000
0000
0000
0000
,
0000
0000
0000
0000
,
0001
0100
0110
0000
,
1000
0100
0110
0000
,
0001
0001
0001
0001
,
1000
0000
0000
0000
0000
0000
0000
0000
2002
3003
2002
3003
1000
0000
0000
0000
,
0100
0010
0000
0010
0001
0000
1000
0100
,
0010
0001
0010
0011
,
0000
1000
0001
0001
,
0100
0000
0001
0100
0010
0000
0110
0000
,
0001
0100
0000
0100
0010
1000
0000
1000
,
0001
0000
0100
0010
1000
0000
1010
0000
,
0000
0000
0010
0000
1000
0000
1000
0001
,
1000
0000
0000
0000
2002
3003
2002
3003
1000
0000
0000
0000
0100
0000
0010
0000
,
0000
0001
0010
0100
0000
1000
0100
0001
,
0000
0100
1000
0000
1100
0000
0000
0000
,
0001
1000
1000
0001
,
0100
0000
0000
0000
0001
0000
0100
0010
,
0000
1000
0010
0100
0000
0001
0100
1000
,
0000
0001
0010
0000
1000
0000
0100
0000
,
0001
0000
0010
0000
1000
0001
1000
0000
,
2002
3003
2002
3003
0002
0000
0000
0000
0000
0000
0000
0000
0000
0000
0000
0000
,
0000
0000
0000
0000
,
0000
2003
0000
0000
,
0000
0000
0000
0010
,
0001
3100
1000
0001
,
0000
0100
1000
0100
,
0000
0101
0001
1000
,
0001
2000
0000
0000
0000
3000
0000
0001
,
0001
0000
1000
0000
0100
0000
0010
0100
,
1000
0000
0001
0000
0100
0000
0010
0100
,
0001
0000
1000
0000
0100
0000
0010
0001
,
0000
0001
1000
0000
0002
0000
0100
0000
,
1003
0000
0001
0000
0010
0000
0100
1000
,
0001
0000
1000
0010
1000
0000
1000
0100
,
1000
0000
0000
0000
0001
0000
0000
0000
0100
0000
0000
0000
0010
0000
0000
1000
,
0000
0000
0001
0000
0010
0000
0000
0100
0000
0000
0110
0000
0000
0000
0000
0000
,
0000
0000
1000
0000
0100
0000
0001
0100
,
1000
0000
0000
0000
0001
0000
0000
0000
0100
0000
0000
0000
2002
3003
2002
3003
,
0001
0000
0100
0000
1000
0100
0001
0000
,
1000
0000
0001
0000
1000
0000
0000
0000
2002
3003
2002
3003
1000
0000
0100
0000
,
0001
0000
1000
0010
0001
0000
1000
0000
,
0001
0000
0000
0000
2002
3003
2002
3003
0002
0000
0000
0000
0203
0000
0000
0000
,
2300
0000
3020
0000
0031
1000
0001
0000
,
2002
3003
2002
3003
0110
0000
0000
0000
0000
0000
0000
0000
0000
0000
0000
0000
;

//--------------- dance-single - Extraordiberry ----------------
#NOTEDATA:;
#STEPSTYPE:dance-single;
#DESCRIPTION:Extraordiberry;
#DIFFICULTY:Hard;
#METER:12;
#RADARVALUES:0,0,0,0,0;
#BPMS:0.000=135.000;
#STOPS:34.000=0.2222222222222222
,34.500=0.2222222222222222
,65.000=0.2222222222222222
,65.500=0.2222222222222222
,96.000=0.2222222222222222
,96.500=0.2222222222222222
,167.000=0.2222222222222222
,167.500=0.2222222222222222
,174.000=0.2222222222222222
,174.500=0.2222222222222222
,181.000=0.2222222222222222
,181.500=0.2222222222222222
,188.000=0.2222222222222222
,188.500=0.2222222222222222
;
#TIMESIGNATURES:0.000=4=4,
32.000=3=4,
35.000=4=4,
63.000=3=4,
66.000=4=4,
94.000=3=4,
97.000=4=4,
165.000=3=4,
168.000=4=4,
172.000=3=4,
175.000=4=4,
179.000=3=4,
182.000=4=4,
186.000=3=4,
189.000=4=4
;
#CREDIT:Extraordiberry;
#NOTES:
0000
0000
0000
0000
,
0000
0000
0000
0000
,
0000
0000
0000
1000
,
2000
0000
0000
0000
,
3000
0000
0000
0000
,
0001
0100
0010
0000
0010
0100
0001
0000
,
1000
0100
0010
0000
0010
0100
1000
0000
,
0001
0001
0100
0100
1000
1000
0100
0100
,
0001
0000
0000
1000
0001
1000
0001
0000
2002
3003
0220
0330
1000
0000
0001
0000
,
0010
0200
0000
0310
0001
1000
0010
0100
,
0001
0000
0010
0000
0200
0000
0000
0000
0310
0000
0001
0000
1000
0010
0000
0000
,
0010
1000
0000
0000
1000
0000
0001
0000
0010
0000
0000
0000
0010
0000
0001
0000
,
1000
0010
0001
0010
1000
0001
1001
0000
,
0001
0020
0000
0130
1000
0020
0000
0130
,
0001
0000
1000
0000
0100
0000
0010
0000
0001
0000
0100
0000
0001
0100
0000
0000
,
0100
0001
0000
0000
0001
0000
1000
0000
0100
0000
0000
0000
0100
0000
0100
0000
,
0010
0000
0010
0000
0220
0330
2002
3003
1000
0000
0001
0000
0100
0000
2000
0000
,
0000
3001
0010
2000
0000
3001
0010
2000
,
0000
0000
3010
0000
0001
0000
1000
0000
0010
0100
0000
0000
0100
0010
0000
0000
,
0010
0100
0001
0000
0001
1000
0100
0010
,
0001
0001
0100
0000
0001
0010
1000
0002
,
0000
0103
1000
0002
0000
0103
1000
0002
,
0000
0013
1000
0001
2000
0000
3200
0000
,
0302
0000
0023
0000
1030
1000
0001
0001
,
2002
3003
0220
0330
2000
0000
0000
0000
0000
0000
0000
0000
0000
0000
0000
0000
,
0000
0100
0000
3200
0000
0000
0000
0000
0000
0000
0000
0000
0000
0000
0000
0000
,
0000
0010
0000
0310
0001
0000
1000
0001
0000
0001
0000
1000
0000
0000
0000
0000
,
0000
0000
0001
0000
0100
0000
1000
0100
,
0001
1000
0100
0010
0100
0000
0100
1000
,
0100
0000
0100
0010
0100
0001
0100
1000
,
0100
0000
1000
0001
0100
0010
1000
0001
,
0010
0200
0000
0000
0000
0300
0000
1001
,
1001
0000
0000
0000
0001
0000
0100
0000
0010
0000
1000
0001
0000
0001
0000
0010
,
0000
0100
0010
0100
0000
0000
0010
0000
0001
0000
1000
0010
0000
0100
0010
0100
,
0000
0010
0000
0010
0000
0000
1000
0000
0001
0000
0010
0100
0000
0100
1000
0000
,
0100
0010
0000
0010
0001
0000
1000
0001
0000
0000
0100
0000
1000
0000
0100
0000
,
0001
0000
1000
0000
0100
0000
0000
0000
0010
0000
0000
0001
0000
0001
0000
0000
,
0011
0000
0000
0000
0001
0100
0001
0000
0100
0010
0100
0000
0010
0000
1000
0000
,
1010
0000
0000
0000
1000
0000
0100
0000
0010
0000
0001
0000
0100
0000
0000
0010
,
0000
0000
1000
0000
1100
0000
0000
0110
0000
0000
0011
0000
0000
0000
0000
0000
,
0000
0000
0001
0100
1000
0100
0001
0010
,
1000
0000
0010
0000
0001
0000
0100
0000
0010
0000
1000
0000
2002
3003
0220
0330
,
1000
0100
0001
0100
1000
0010
0001
1000
,
0100
0000
0100
0000
0001
0000
0001
0000
0202
0303
2020
3030
0001
0000
0010
0000
,
1000
0001
0100
1000
0010
0001
1000
0100
,
0001
0000
1000
0000
2200
3300
0022
0033
1000
0000
0010
0000
0001
0000
0010
0000
,
1000
0100
0001
0010
1000
1000
0001
0001
,
2002
3003
0220
0330
1001
0000
0000
0000
0000
0000
0000
0000
0000
0000
0000
0000
;

//--------------- dance-double - Extraordiberry ----------------
#NOTEDATA:;
#STEPSTYPE:dance-double;
#DESCRIPTION:Extraordiberry;
#DIFFICULTY:Easy;
#METER:5;
#RADARVALUES:0,0,0,0,0;
#BPMS:0.000=135.000;
#STOPS:34.000=0.2222222222222222
,34.500=0.2222222222222222
,65.000=0.2222222222222222
,65.500=0.2222222222222222
,96.000=0.2222222222222222
,96.500=0.2222222222222222
,167.000=0.2222222222222222
,167.500=0.2222222222222222
,174.000=0.2222222222222222
,174.500=0.2222222222222222
,181.000=0.2222222222222222
,181.500=0.2222222222222222
,188.000=0.2222222222222222
,188.500=0.2222222222222222
;
#TIMESIGNATURES:0.000=4=4,
32.000=3=4,
35.000=4=4,
63.000=3=4,
66.000=4=4,
94.000=3=4,
97.000=4=4,
165.000=3=4,
168.000=4=4,
172.000=3=4,
175.000=4=4,
179.000=3=4,
182.000=4=4,
186.000=3=4,
189.000=4=4
;
#CREDIT:Extraordiberry;
#NOTES:
00000000
00000000
00000000
00000000
,
00000000
00000000
00000000
00000000
,
00000000
00000000
00000000
00010000
,
00001000
00000000
00000000
00000000
,
00000000
00000000
00000000
00000000
,
00010000
00000000
00001000
00000000
,
01000000
00000000
00100000
00000000
,
10000000
01000000
00100000
00001000
,
00010000
00000000
00000000
00000000
00000000
00000000
00000000
00000000
00022000
00033000
00022000
00033000
00001000
00000000
00000000
00000000
,
00000000
00010000
00000000
00100000
,
00000000
10000000
00000000
00010000
,
00000000
10000000
00000000
01000000
,
00100000
01000000
00000000
00010000
,
00000000
00001000
00000000
00000010
,
00000000
00000000
00000001
00001000
,
00000000
00000010
00000000
00010000
,
00000000
00000000
00000000
00000000
00022000
00033000
00022000
00033000
00001000
00000000
00000000
00000000
00000000
00000000
00000000
00000000
,
00010000
00000000
01000000
00000000
,
10000000
00000000
00010000
00000000
,
01000000
00000000
00001000
00010000
,
00001000
00000000
00010000
00000000
,
00001000
00000000
00000100
00000000
,
00000001
00000000
00000010
00001000
,
00000010
00001000
00010000
00000000
,
00022000
00033000
00022000
00033000
00002000
00000000
00000000
00000000
00000000
00000000
00000000
00000000
00000000
00000000
00000000
00000000
,
00000000
00000000
00000000
00003000
,
00000000
00020000
00000000
00000000
,
00000000
00000000
00000000
00030000
,
00000000
00001000
00000000
01000000
,
00000000
00010000
00000000
00000000
,
00000000
10000000
00000000
01000000
,
00000000
00010000
00000000
00000000
,
00001000
00010000
00000000
00000100
,
00000000
00010000
00000000
00001000
,
00000000
00010000
00000000
00000010
,
00000000
00001000
00000000
00000001
,
00000001
00001000
00000000
00000100
,
00000000
00010000
00000000
00001000
,
00000000
01000000
00000000
00010000
,
00000000
10000000
00000000
00000000
,
00000000
10000000
01000000
00100000
,
01000000
00000000
00000000
00000000
00010000
00000000
00000000
00000000
00000000
00000000
00000000
00000000
00022000
00033000
00022000
00033000
,
00001000
00000010
00000001
00001000
,
00000010
00000000
00000000
00000000
00000000
00000000
00000000
00000000
00022000
00033000
00022000
00033000
00010000
00000000
00000000
00000000
,
00100000
10000000
01000000
00010000
,
00000000
00000000
00000000
00000000
00022000
00033000
00022000
00033000
00001000
00000000
00000000
00000000
00000010
00000000
00000000
00000000
,
00000100
00010000
00001000
00010000
,
00022000
00033000
00022000
00033000
01000000
00000000
00000000
00000000
00000000
00000000
00000000
00000000
00000000
00000000
00000000
00000000
;

//--------------- dance-double - Extraordiberry ----------------
#NOTEDATA:;
#STEPSTYPE:dance-double;
#DESCRIPTION:Extraordiberry;
#DIFFICULTY:Medium;
#METER:8;
#RADARVALUES:0,0,0,0,0;
#BPMS:0.000=135.000;
#STOPS:34.000=0.2222222222222222
,34.500=0.2222222222222222
,65.000=0.2222222222222222
,65.500=0.2222222222222222
,96.000=0.2222222222222222
,96.500=0.2222222222222222
,167.000=0.2222222222222222
,167.500=0.2222222222222222
,174.000=0.2222222222222222
,174.500=0.2222222222222222
,181.000=0.2222222222222222
,181.500=0.2222222222222222
,188.000=0.2222222222222222
,188.500=0.2222222222222222
;
#TIMESIGNATURES:0.000=4=4,
32.000=3=4,
35.000=4=4,
63.000=3=4,
66.000=4=4,
94.000=3=4,
97.000=4=4,
165.000=3=4,
168.000=4=4,
172.000=3=4,
175.000=4=4,
179.000=3=4,
182.000=4=4,
186.000=3=4,
189.000=4=4
;
#CREDIT:Extraordiberry;
#NOTES:
00000000
00000000
00000000
00000000
,
00000000
00000000
00000000
00000000
,
00000000
00000000
00000000
00010000
,
00001000
00000000
00000000
00000000
,
00000000
00000000
00000000
00000000
,
00010000
00100000
10000000
00000000
,
10000000
01000000
00010000
00000000
,
00001000
00001000
00001000
00001000
,
00010000
00000000
00000000
00000000
00000000
00000000
00000000
00000000
00022000
00033000
00022000
00033000
00010000
00000000
00000000
00000000
,
00000100
00001000
00000000
00001000
00000100
00000000
00000010
00000100
,
00001000
00000100
00001000
00001100
,
00000000
00010000
00001000
00001000
,
00010000
00100000
10000000
10010000
,
00010000
01000000
00000000
01000000
00010000
01000000
00000000
01000000
,
00100000
00000000
01000000
00100000
10000000
00000000
10100000
00000000
,
00000000
00000000
00010000
00000000
00100000
00000000
00001000
00010000
,
00001000
00000000
00000000
00000000
00022000
00033000
00022000
00033000
00010000
00000000
00000000
00000000
00001000
00000000
00000010
00000000
,
00000000
00000100
00000010
00000100
00000000
00001000
00000001
00001000
,
00000000
00000010
00000100
00000000
00000110
00000000
00000000
00000000
,
00000001
00000100
00001000
00001000
,
00010000
00000000
00000000
00000000
00001000
00000000
00010000
00100000
,
00000000
01000000
00100000
01000000
00000000
00010000
10000000
00010000
,
00000000
00100000
01000000
00000000
20000000
00000000
30200000
00000000
,
00320000
00000000
00032000
00000000
00013000
00001000
00010000
00000000
,
00022000
00033000
00022000
00033000
00002000
00000000
00000000
00000000
00000000
00000000
00000000
00000000
00000000
00000000
00000000
00000000
,
00000000
00000000
00000000
00000000
,
00003000
00020000
00000000
00000000
,
00000000
00000000
00030000
00001000
,
00000010
00000001
00001000
00000010
,
00000000
00000100
00001000
00010000
,
00000000
00100000
10000000
00010000
,
00100000
00002000
00000000
00000000
00000000
00003000
00000000
00010000
,
00010000
00000000
00001000
00000000
00010000
00000000
00000100
00001000
,
00000100
00000000
00000010
00000000
00000001
00000000
00001000
00000010
,
00001000
00000000
00000001
00000000
00000100
00000000
00000010
00001000
,
00000000
00001000
00000001
00000000
00000100
00000000
00001000
00000000
,
00010000
00000000
00100000
00000000
10000000
00000000
00010000
00100000
,
00010000
00000000
00100000
00001000
00010000
00000000
00001000
01000000
,
00010000
00000000
00000000
00000000
00100000
00000000
00000000
00000000
10000000
00000000
00000000
00000000
00010000
00000000
00000000
00100000
,
00000000
00000000
00001000
00000000
00010000
00000000
00000000
00010000
00000000
00000000
00010000
00000000
00000000
00000000
00000000
00000000
,
00000000
00001000
00000010
00000001
,
00001000
00000000
00000000
00000000
00000010
00000000
00010000
00000000
00001000
00000000
00000000
00000000
00022000
00033000
00022000
00033000
,
00010000
00100000
10000000
01000000
,
00010000
00000000
00001000
00000000
00010000
00000000
00000000
00000000
00022000
00033000
00022000
00033000
00001000
00000000
00000010
00000000
,
00000100
00000000
00001000
00000001
00000100
00000000
00000010
00010000
,
00001000
00000000
00000000
00000000
00022000
00033000
00022000
00033000
00010000
00000000
00100000
00000000
01000000
00000000
00100000
00000000
,
10000000
00010000
10000000
00000000
01000000
00100000
00001000
00000000
,
00022000
00033000
00022000
00033000
00010010
00000000
00000000
00000000
00000000
00000000
00000000
00000000
00000000
00000000
00000000
00000000
;

//--------------- dance-double - Extraordiberry ----------------
#NOTEDATA:;
#STEPSTYPE:dance-double;
#DESCRIPTION:Extraordiberry;
#DIFFICULTY:Hard;
#METER:12;
#RADARVALUES:0,0,0,0,0;
#BPMS:0.000=135.000;
#STOPS:34.000=0.2222222222222222
,34.500=0.2222222222222222
,65.000=0.2222222222222222
,65.500=0.2222222222222222
,96.000=0.2222222222222222
,96.500=0.2222222222222222
,167.000=0.2222222222222222
,167.500=0.2222222222222222
,174.000=0.2222222222222222
,174.500=0.2222222222222222
,181.000=0.2222222222222222
,181.500=0.2222222222222222
,188.000=0.2222222222222222
,188.500=0.2222222222222222
;
#TIMESIGNATURES:0.000=4=4,
32.000=3=4,
35.000=4=4,
63.000=3=4,
66.000=4=4,
94.000=3=4,
97.000=4=4,
165.000=3=4,
168.000=4=4,
172.000=3=4,
175.000=4=4,
179.000=3=4,
182.000=4=4,
186.000=3=4,
189.000=4=4
;
#CREDIT:Extraordiberry;
#NOTES:
00000000
00000000
00000000
00000000
,
00000000
00000000
00000000
00000000
,
00000000
00000000
00000000
00010000
,
00002000
00000000
00000000
00000000
,
00003000
00000000
00000000
00000000
,
00010000
00001000
01000000
00000000
01000000
00001000
00010000
00000000
,
00001000
00010000
00000100
00000000
00000100
00010000
00001000
00000000
,
00010000
00010000
00100000
00100000
10000000
10000000
01000000
01000000
,
00010000
00000000
00000000
00001000
00010000
00001000
00010000
00000000
00022000
00033000
00022000
00033000
00010000
00000000
00001000
00000000
,
00000010
00000002
00000000
00000013
00000100
00001000
00000100
00010000
,
00001000
00000000
00000010
00000000
00000002
00000000
00000000
00000000
00001003
00000000
00000001
00000000
00000100
00000010
00000000
00000000
,
00000010
00000100
00000000
00000000
00000100
00000000
00000001
00000000
00000010
00000000
00000000
00000000
00000010
00000000
00000001
00000000
,
00000100
00001000
00010000
00100000
10000000
00010000
10010000
00000000
,
00010000
00200000
00000000
00301000
00010000
02000000
00000000
13000000
,
00010000
00000000
01000000
00000000
00100000
00000000
10000000
00000000
00010000
00000000
00100000
00000000
01000000
00100000
00000000
00000000
,
00100000
01000000
00000000
00000000
01000000
00000000
10000000
00000000
00100000
00000000
00000000
00000000
00100000
00000000
00100000
00000000
,
10000000
00000000
10000000
00000000
22000000
33000000
00220000
00330000
00010000
00000000
10000000
00000000
01000000
00000000
00020000
00000000
,
00000000
00031000
00100000
00020000
00000000
00031000
00000100
00020000
,
00000000
00000000
00031000
00000000
00000010
00000000
00000001
00000000
00000100
00000001
00000000
00000000
00000001
00000100
00000000
00000000
,
00000100
00000001
00001000
00000000
00001000
00000100
00000010
00000001
,
00000100
00000100
00000010
00000000
00001000
00000001
00000010
00002000
,
00000000
00013000
00000100
00002000
00000000
00013000
00100000
00002000
,
00000000
00013000
01000000
10000000
00200000
00000000
00302000
00000000
,
00023000
00000000
00230000
00000000
00301000
00001000
00010000
00010000
,
00022000
00033000
00022000
00033000
00002000
00000000
00000000
00000000
00000000
00000000
00000000
00000000
00000000
00000000
00000000
00000000
,
00000000
00013000
00000000
00020000
00000000
00000000
00000000
00000000
00000000
00000000
00000000
00000000
00000000
00000000
00000000
00000000
,
00000000
00030100
00000000
00000100
00001000
00000000
00000001
00000100
00000000
00000100
00000000
00000010
00000000
00000000
00000000
00000000
,
00000000
00000000
00000100
00000000
00001000
00000000
00010000
00001000
,
00000010
00000100
00001000
00000001
00001000
00000000
00001000
00000010
,
00001000
00000000
00001000
00000001
00001000
00000010
00001000
00010000
,
00001000
00000000
00010000
01000000
00100000
10000000
00010000
00100000
,
01000000
20000000
00000000
00000000
00000000
30000000
00000000
10010000
,
10010000
00000000
00000000
00000000
00010000
00000000
10000000
00000000
01000000
00000000
00100000
00010000
00000000
00010000
00000000
00100000
,
00000000
00001000
00010000
00001000
00000000
00000000
00010000
00000000
00000010
00000000
00001000
00000010
00000000
00010000
00001000
00010000
,
00000000
00001000
00000000
00001000
00000000
00000000
00010000
00000000
00000100
00000000
00001000
00000100
00000000
00000100
00000010
00000000
,
00000001
00000010
00000000
00000010
00000100
00000000
00001000
00000001
00000000
00000000
00000100
00000000
00001000
00000000
00010000
00000000
,
00001000
00000000
00000010
00000000
00000001
00000000
00001000
00000000
00000010
00000000
00000000
00010000
00000000
00010000
00000000
00000000
,
00011000
00000000
00000000
00000000
00001000
00010000
00001000
00000000
00010000
00001000
00010000
00000000
00100000
00000000
10000000
00000000
,
00010000
00000000
00000000
00000000
10000000
00000000
01000000
00000000
00010000
00000000
00001000
00000000
00000010
00000000
00000000
00000001
,
00000000
00000000
00000100
00000000
00000101
00000000
00000000
00000110
00000000
00000000
00001010
00000000
00000000
00000000
00000000
00000000
,
00000000
00000000
00000001
00000100
00001000
00010000
00001000
00000010
,
00000001
00000000
00000100
00000000
00001000
00000000
00010000
00000000
00100000
00000000
10000000
00000000
20020000
30030000
02200000
03300000
,
00010000
10000000
00010000
00100000
00010000
00001000
00000100
00000010
,
00000001
00000000
00000001
00000000
00001000
00000000
00001000
00000000
00002002
00003003
00000220
00000330
00000001
00000000
00000100
00000000
,
00001000
00010000
00000010
00001000
00010000
01000000
00001000
00010000
,
00100000
00000000
10000000
00000000
22000000
33000000
00220000
00330000
10000000
00000000
00100000
00000000
00001000
00000000
00010000
00000000
,
00100000
00001000
00010000
00000100
00000010
00000010
00000100
00000100
,
00000220
00000330
00022000
00033000
01100000
00000000
00000000
00000000
00000000
00000000
00000000
00000000
00000000
00000000
00000000
00000000
;
