#TITLE:The Barber;
#SUBTITLE:;
#ARTIST:Project Moon;
#TITLETRANSLIT:;
#SUBTITLETRANSLIT:;
#ARTISTTRANSLIT:;
#GENRE:;
#CREDIT:Minxyz;
#MUSIC:The Barber.ogg;
#BANNER:The Barber BN.jpg;
#BACKGROUND:The Barber BG.jpg.png;
#CDTITLE:;
#SAMPLESTART:0.000;
#SAMPLELENGTH:0.000;
#SELECTABLE:YES;
#OFFSET:-0.030;
#BPMS:0.000=180.023
,136.000=90.000
,168.000=180.214
,240.000=198.957
,248.000=216.941
,256.000=240.000
,264.000=125.277
,268.000=132.749
,272.000=140.000
,276.000=280.000
,280.000=140.000
,330.000=90.011
;
#STOPS:;
#DISPLAYBPM:90.000:280.000;
#BGCHANGES:;
#FGCHANGES:;

//--------------- dance-single - Minxyz ----------------
#NOTES:
     dance-single:
     Minxyz:
     Beginner:
     4:
     0,0,0,0,0:
0000
0000
0000
0000
,
0000
0000
0000
0000
,
0000
0000
0000
0000
,
0000
0000
0000
0000
,
0000
0000
0000
0000
,
0000
0000
0000
0000
,
0000
0000
0000
0000
,
0000
0000
0000
0000
,
0001
0000
0000
0000
,
0001
0000
0000
0000
,
1000
0000
0000
0000
,
1000
0000
0000
0000
,
0010
0000
1000
0000
,
0100
0000
0010
0000
,
0001
0000
1001
0000
,
1001
0000
0010
0001
,
0010
0000
0000
0000
,
0100
0000
0000
0000
,
1000
0000
0000
0000
,
0010
0000
0000
0000
,
0100
0000
0000
0000
,
0001
0000
0000
0000
,
0010
0000
0100
0000
,
0010
0000
0100
1000
,
0100
0000
1000
0000
,
0001
0000
0000
0000
,
0100
0000
0000
0000
,
1010
0000
0101
0000
,
0001
0000
0010
0000
,
0100
0000
0000
0000
,
1000
0000
0100
0000
,
0010
0001
1000
0010
,
0200
0000
0000
0000
,
0000
0000
0300
0000
,
0101
0000
1010
0000
,
1001
0000
0000
0000
0110
0000
0010
0100
,
0010
0000
0011
0000
,
1100
0000
0000
0000
0001
1000
0001
1000
,
0001
0000
0000
0000
0100
0000
0010
1000
,
0010
0000
0100
0000
,
1010
0000
0011
0000
,
1001
0000
1001
0000
0100
0010
0100
0010
,
0100
0000
0000
0100
,
0001
0000
0000
0001
,
1000
0000
0000
1000
,
0010
0000
0000
1000
,
0100
0000
0000
0100
,
0010
0000
0001
0000
,
1001
0000
1000
0000
,
0010
0000
0200
0000
,
0310
0000
0100
0000
,
1000
0000
0100
0010
,
1000
0000
1000
0000
,
0100
0000
0001
0100
,
0010
0000
0001
0000
,
1000
0000
0010
0100
,
0010
0000
0110
0000
,
1001
0000
1000
0000
,
0011
0000
0000
0000
,
1100
0000
0000
0000
,
0101
0000
0000
0000
,
1010
0000
0000
0000
,
1100
0000
0000
0000
,
0110
0000
0000
0000
,
1001
0000
0000
0000
,
1001
0000
0000
0000
,
1000
0000
0100
0000
,
1000
0000
0010
0000
,
0100
0000
0001
0000
,
2000
0000
0000
0000
,
0000
0000
3000
0010
,
0010
0000
1010
0000
,
0101
0000
1100
0000
,
0011
0000
0010
0000
,
0001
0000
1000
0100
,
0000
0010
0000
0001
,
0000
0100
0000
1000
,
0000
0100
0000
0010
,
0000
1000
0000
0100
,
0000
0001
0000
0100
,
0000
0010
0000
0001
,
0000
1000
0000
0010
,
0100
0010
2020
0000
,
0000
0000
3030
0000
;

//--------------- dance-single - Minxyz ----------------
#NOTES:
     dance-single:
     Minxyz:
     Easy:
     7:
     0,0,0,0,0:
0000
0000
0000
0000
,
0000
0000
0000
0000
,
0000
0000
0000
0000
,
0000
0000
0000
0000
,
0000
0000
0000
0000
,
0000
0000
0000
0000
,
0000
0000
0000
0000
,
0000
0000
0000
0000
,
0002
0000
1000
0000
,
0013
0100
1000
0010
,
2000
0000
0001
0000
,
3010
0100
0001
0010
,
0100
0000
1100
0000
,
0001
1000
0010
0100
,
0010
0000
1010
0000
,
0101
0101
2001
0000
,
3001
0000
0011
0000
,
0010
0001
1000
0100
,
1001
0000
1010
0000
,
0010
1000
0001
0100
,
0110
0000
0101
0000
,
0001
0010
0100
1000
,
0110
0000
1001
0000
,
1000
0001
0100
0010
,
1000
0000
0100
0000
,
0010
0001
1000
0001
,
2000
0000
3010
0000
,
0102
0003
2100
3000
,
1010
0000
0010
0000
,
0100
0001
1000
0010
,
1000
0000
0110
0000
,
1001
1001
0110
0110
,
2002
0000
0000
0000
,
0000
0000
3003
0000
,
0001
0010
0100
1000
,
0010
0100
0010
0000
0100
0001
0100
0000
,
0001
0100
0010
1000
,
0100
0010
0100
0000
0010
0001
0011
0000
,
1001
0000
1100
0000
0011
0000
0010
0001
,
0100
0000
0000
0010
0000
0000
0000
0100
0000
0000
0001
0000
,
1000
0100
1000
0000
0010
0100
0010
0000
,
1000
0000
0100
0000
0010
0001
1000
0010
,
0200
0000
0302
0000
,
2003
0000
3020
0000
,
2030
0000
3200
0000
,
0320
0000
0032
0000
,
2003
0000
3002
0000
,
0203
0000
0320
0000
,
0130
0000
0000
0001
0000
0000
0010
0000
,
0100
0000
1002
0000
,
1003
0000
1010
0000
,
0010
0100
0001
0010
,
0100
0000
1100
0000
,
0100
0010
0001
0100
,
0010
0000
0101
0000
,
0100
0010
1000
0100
,
0010
1000
0010
0001
,
0100
0000
0110
0000
,
0001
0000
1000
0000
,
0001
0000
1000
0000
,
0010
0000
0100
0000
,
0010
0000
0100
0000
,
0001
0000
1000
0000
,
0001
0000
1000
0000
,
0100
0000
0010
0000
,
0100
0000
0010
0000
,
0001
0000
0000
0100
0000
0000
0010
0000
0000
1000
0000
0100
,
0010
0000
0000
0001
0000
0000
0010
0000
0000
0100
0000
1000
,
0100
0000
0000
0010
0000
0000
0001
0000
0000
0100
0000
0010
,
2000
0000
0000
0000
,
3000
0000
2002
3003
,
0220
0000
0000
0330
0000
0000
0001
0000
0000
0100
0000
0100
,
0010
1000
0100
0000
,
0010
0000
0000
0000
0000
0000
0001
0000
0000
0010
0000
0010
,
0100
1000
0010
0100
,
1000
0100
0001
0010
,
0100
0000
0000
1000
0000
1000
0000
0000
0000
0010
0000
0000
,
0100
1000
0100
0001
,
0010
0000
0000
0100
0000
0100
1000
0000
0000
0100
0000
0000
,
0010
1000
0010
0001
,
0100
0000
0000
0010
0000
0010
0000
0000
0000
0100
0000
0000
,
0001
0000
0000
0010
0000
0000
0100
0000
1000
0000
0000
0000
,
0001
0000
0100
0000
0000
0000
2002
0000
0000
0000
0000
0000
,
0000
0000
3003
0000
;

//--------------- dance-single - Minxyz ----------------
#NOTES:
     dance-single:
     Minxyz:
     Medium:
     12:
     0,0,0,0,0:
0000
0000
0000
0000
,
0000
0000
0000
0000
,
0000
0000
0000
0000
,
0000
0000
0000
0000
,
0000
0000
0000
0000
,
0000
0000
0000
0000
,
0000
0000
0000
0000
,
0000
0000
0000
0000
,
0001
0010
0100
0000
,
1000
0000
0000
0010
0000
0000
0100
0000
0100
0010
0000
0000
,
1000
0100
0010
0000
,
0001
0000
0000
0100
0000
0000
0010
0000
0010
0100
0000
0000
,
0001
0000
0000
1000
0000
0010
0100
0000
0000
0001
0000
0010
,
0100
0000
0000
1000
0000
0100
0010
0000
0000
0001
0000
0000
,
1001
1010
0110
0101
,
1000
0000
1000
0100
0000
0010
0002
0000
0000
1003
0000
0000
,
0001
0010
0001
0201
,
0310
0000
0000
1000
0000
0000
0100
0000
0100
0010
0000
0000
,
0001
0100
0001
0021
,
0130
0000
0000
1000
0000
0000
0010
0000
0010
0100
0000
0000
,
0001
0010
0100
1000
,
0010
0000
0000
0100
0000
0000
0001
0000
0001
1000
0000
0000
,
0100
0000
0000
0010
0000
0001
0100
0000
0000
0010
0000
1000
,
0100
0010
0011
2100
,
3010
0000
0000
0100
0000
0001
1000
0000
0000
0001
0000
1000
,
0100
0010
0001
0100
,
0020
2030
3002
0203
,
0301
0000
0010
1000
0000
0000
1000
0000
0010
0001
0000
0000
,
1000
0010
0100
0101
,
1010
0000
0000
0010
0000
0100
0001
0000
1000
0100
0000
0000
,
0110
0001
0101
0100
,
1100
0110
0101
1001
,
0002
0000
0000
0000
,
0000
0000
0003
0100
,
0020
0030
0000
0000
0000
0000
0110
0000
0000
0000
0000
0000
0001
0000
1000
0000
0000
0000
0100
0000
0000
0010
0000
0000
,
0001
0000
0100
0000
0010
1000
0100
0001
,
0100
0000
0000
0000
0000
0000
1000
0000
0000
0000
0000
0000
0001
0000
1000
0000
0000
0000
0100
0000
0000
0010
0000
0000
,
0001
0000
0000
0000
0000
0000
1000
0000
0000
0100
0000
0000
1000
0000
0000
0010
0000
1000
0100
0000
0000
0010
0000
0001
,
0100
0000
0000
0010
0000
0000
1010
0000
0000
1000
0000
0000
1100
0000
0000
0100
0000
0000
0010
0000
0001
1000
0000
0000
,
0010
0000
0000
0100
0000
0000
0001
0000
0010
0000
0000
0100
0000
0000
1000
0000
0000
0100
0000
0000
0001
0000
0000
0000
,
0200
0000
1300
0000
0001
0100
0001
0000
,
1000
0000
0000
0000
0000
0010
0000
0000
0100
0000
0000
0000
0001
0000
0000
0100
0000
0000
1000
0000
0000
0100
0000
0000
,
0102
0003
0000
0000
0000
0000
0100
0000
0000
0000
0000
0000
2010
0000
0000
0000
0000
0000
3010
0000
0000
0000
0000
0000
,
2100
3100
0012
0013
,
2100
3100
2010
3010
,
0102
0103
2001
3001
,
1000
0000
0010
0000
,
0100
0000
0000
0001
0000
1000
0100
0000
0000
0010
0000
0000
,
0001
0000
0000
0011
0000
0000
0000
1001
0000
0000
0000
1000
,
0100
0000
0000
0000
0010
0000
0000
0000
0001
0000
0000
0000
0100
0000
0000
0010
0000
0000
1000
0000
0000
0100
0000
0000
,
0010
0000
0000
0001
0000
1000
0010
0000
0000
1000
0000
0001
,
0100
0010
1010
1100
,
1001
0000
0000
1000
0000
0001
0100
0000
0000
0001
0000
1000
,
0010
0000
0000
0100
0000
0000
0101
0000
0000
0021
0030
0000
,
0100
0000
0000
1000
0000
0010
0100
0000
0000
0001
0000
0010
,
0100
1000
1100
0101
,
1001
0000
1000
0100
0000
0000
1001
0000
0001
0100
0000
0000
,
0010
0000
0000
1000
0000
0001
1000
0000
0001
1000
0000
0000
,
0120
0000
1030
0000
,
1200
0000
0310
0001
,
0210
0000
0301
0000
,
0021
0000
0130
1000
,
0120
0000
0031
0000
,
0201
0000
0310
1000
,
0210
0000
1300
0000
,
1020
0000
0130
0001
,
0100
0000
0000
1000
0000
0000
0010
0000
0000
0100
0000
0001
,
0010
0000
0000
0001
0000
0000
0100
0000
0000
0010
0000
1000
,
0010
0000
0000
1000
0000
0000
0100
0000
0000
0010
0000
0001
,
0100
0000
0110
0000
,
2002
0000
0000
0000
3003
0000
1010
0000
0000
1000
0000
0000
,
1200
0000
0300
0000
0000
0000
0010
0000
0000
0000
0000
0000
0012
0000
0000
0003
0000
0000
0100
0000
0000
0001
0000
0000
,
0100
0000
0000
0120
0030
0000
1000
0000
0000
1000
0000
0010
,
0100
0000
0000
1000
0000
0000
0100
0000
0001
1000
0000
0100
,
0010
0001
0200
0310
,
1010
1100
0101
0011
,
1001
0000
0000
1000
0000
1000
0100
0000
0001
0100
0000
0000
,
1100
0000
0000
0012
0003
0000
1010
0000
0010
1000
0010
0000
,
0100
0000
0001
0010
0001
0010
0100
0000
0000
1010
0000
0000
,
1000
0001
1000
0001
0000
0000
0010
0100
0010
0100
0000
0000
,
0010
0001
0000
0100
0000
0010
0000
1000
0000
0010
1000
0010
,
0100
0001
0100
0001
0010
0100
1000
0000
0010
0000
0001
0000
,
1000
0000
0100
0000
0001
0000
2002
0000
0000
0000
0000
0000
,
0000
0000
3003
0000
;

//--------------- dance-single - Minxyz ----------------
#NOTES:
     dance-single:
     Minxyz:
     Hard:
     14:
     0,0,0,0,0:
0000
0000
0000
0000
,
0000
0000
0000
0000
,
0000
0000
0000
0000
,
0000
0000
0000
0000
,
0000
0000
0000
0000
,
0000
0000
0000
0000
,
0000
0000
0000
0000
,
0000
0000
0000
0000
,
0001
0000
0000
1000
0000
1000
0100
0000
0000
0010
0000
0010
,
0001
0000
0001
0100
0000
0100
0010
0000
0010
1000
0000
0000
,
0001
0000
0000
1000
0000
1000
0010
0000
0000
0100
0000
0100
,
0001
0000
0001
0010
0000
0010
0100
0000
0100
1000
0000
0000
,
1000
0000
0000
1000
0000
0010
0100
0000
0000
0001
0000
0010
,
0100
0000
1000
0100
0000
0010
0001
0000
1000
0100
0000
0000
,
0010
0001
0010
0001
0000
0000
1000
0100
1000
0100
0000
0000
,
1000
0000
0010
0000
0100
0000
0001
0000
0100
0000
0010
0000
2000
0000
0000
0000
0000
0000
0000
0000
0000
3000
0000
0000
,
1000
0000
0000
0001
0000
0001
0010
0000
0000
0100
0000
0100
,
1000
0000
1000
0010
0000
0010
0100
0000
0100
0001
0000
0000
,
1000
0000
0000
0001
0000
0001
0100
0000
0000
0010
0000
0010
,
1000
0000
1000
0100
0000
0100
0010
0000
0010
0001
0000
0000
,
1000
0000
0000
0001
0000
0001
0100
0000
0000
0010
0000
0010
,
1000
0000
1000
0100
0000
0100
0010
0000
0010
0001
0000
0000
,
1000
0000
0000
0001
0000
0001
0010
0000
0000
0100
0000
0100
,
1000
0010
0100
1001
,
2000
3010
0200
0301
,
0020
0031
2000
3100
,
2000
0000
3002
0000
,
1003
0000
0100
0010
0000
0000
0001
0000
0100
0010
0000
0000
,
2000
3100
0020
0031
,
0100
0000
0001
1000
0000
0001
0100
0000
0010
1000
0000
0000
,
0100
0000
0000
0010
0000
0001
1000
0000
0000
0010
0000
1000
,
0001
1001
1010
0101
,
0200
0000
0000
0000
,
0000
0000
0300
0001
,
1000
0000
0000
0010
0000
0000
1000
0000
0000
0000
0000
0001
0100
0000
0010
0000
0000
0100
0001
0000
0000
0010
0000
0000
,
0200
0000
0000
0000
0000
0000
2300
0000
0000
0000
0000
0000
3010
0000
0000
1000
0000
0100
0000
0000
0001
0100
0000
0000
,
1002
0003
0000
0100
0000
0000
0001
0000
0000
0000
0000
1000
0010
0000
0100
0000
0000
0010
1000
0000
0000
0100
0000
0000
,
0020
0000
0000
0000
0000
0000
0032
0000
0000
0000
0000
0000
0103
0000
0010
0100
0000
0010
1000
0000
0001
0100
0000
0000
,
0001
0000
0000
1000
0000
0100
0010
0000
0000
0001
0000
0010
0100
0000
0000
1000
0000
0100
0010
0000
0001
0100
0000
0000
,
0010
0000
0000
0100
0000
0001
0100
0000
0010
0000
0000
1000
0000
0000
0001
0000
0000
0010
0000
0000
0100
0000
0000
1000
,
0010
0000
0000
0100
0000
0000
0010
0000
0000
0001
0000
0000
0010
0000
0000
1000
0000
0000
0100
0000
0010
0100
0000
0000
,
1000
0000
0001
0000
0000
0100
0000
0000
0010
0000
0000
1000
0100
0000
0100
0010
0000
0010
0001
0000
0001
1000
0000
1000
,
0100
1000
0010
0001
,
0010
1000
0100
0001
,
0100
1000
0001
0010
,
1000
0010
0001
0100
,
1000
0100
0001
1000
,
0010
0000
0100
0000
0000
0010
1000
0000
0000
1000
0000
0100
,
0010
0001
0000
1000
0000
0001
0000
1000
0000
0001
0000
1000
,
0100
0000
0000
0000
0000
0000
0000
0000
0010
0000
0000
0000
0000
0000
0000
0000
0001
0000
0000
0000
0000
0000
0000
0000
1000
0000
0000
0000
0000
0000
0001
0000
0000
0000
0000
0000
0100
0000
0000
0010
0000
0000
0100
0000
0000
0010
0000
0000
,
0100
0000
0000
0001
0000
1000
0100
0000
0000
1000
0000
0001
,
0010
0000
0000
0001
0000
0100
0010
0000
1000
0100
0000
0000
,
0010
0000
0000
0001
0000
1000
0010
0000
0000
1000
0000
0001
,
0100
0000
0000
0001
0000
0010
0100
0000
1000
0010
0000
0000
,
0100
0000
0000
0001
0000
1000
0100
0000
0000
1000
0000
0001
,
0010
0000
0010
0001
0000
0100
0010
0000
1000
0100
0000
0000
,
1000
0001
1000
0001
0000
0000
0100
0010
0100
0010
0000
0000
,
1000
0000
0010
0100
0000
0000
0001
0000
0010
0100
0000
0000
,
1000
0010
0001
0010
,
1000
0100
0010
0001
,
1000
0100
0001
0100
,
1000
0010
0100
0001
,
0010
0001
0100
0010
,
1000
0100
0001
0100
,
0100
1000
0010
0100
,
0001
0010
1000
0010
,
0001
0000
1000
0100
0000
0010
0001
0000
0100
0010
0000
0010
,
1000
0000
0001
0010
0000
0100
1000
0000
0010
0100
0000
0100
,
0001
0010
0001
0010
0100
0010
0100
1000
0100
1000
0100
0010
,
0001
0000
0000
0000
0100
0000
0000
0000
0010
0000
0000
0000
,
2002
0000
0000
0003
0000
0000
3010
0000
0000
1000
0000
0010
,
1000
0000
0000
0000
0000
0000
0000
0000
0000
0000
0000
0000
0001
0000
0000
0000
0000
0000
0000
0000
0010
0000
0000
0000
0001
0000
0000
0000
0000
0000
0000
0000
0001
0000
0000
0000
0010
0000
0000
0100
0000
0000
0010
0000
0000
0100
0000
0000
,
0010
0000
0000
0001
0100
0001
0100
0000
0000
0001
0000
0100
,
0001
0000
0000
1000
0000
0100
1000
0100
0010
0001
0010
0100
,
1000
0000
0000
0010
0100
0010
0100
0000
0000
0001
0000
0001
,
0100
0000
0100
1000
0000
1000
0100
0000
0100
0010
0000
0010
,
1000
0000
1000
0001
0000
0001
1001
0000
0000
1000
0000
1000
,
0100
0000
0100
0001
0000
0001
0100
0000
0100
1000
0100
0000
,
0010
0000
0001
0000
1000
0100
0010
0000
0000
0001
1000
0001
,
0010
0100
0010
0001
1000
0010
0100
0010
1000
0001
0010
0100
,
0010
0100
0000
1000
0000
1000
0100
0000
0000
0010
0001
0010
,
0001
1000
0010
0100
0001
0010
0001
0000
0100
0000
1000
0000
,
0100
0000
0001
0000
0010
0000
2000
0000
0000
0000
0000
0000
,
0000
0000
3000
0000
;

//--------------- dance-single - Minxy ----------------
#NOTES:
     dance-single:
     Minxy:
     Challenge:
     18:
     0,0,0,0,0:
0000
0000
0000
0000
,
0000
0000
0000
0000
,
0000
0000
0000
0000
,
0000
0000
0000
0000
,
0000
0000
0000
0000
,
0000
0000
0000
0000
,
0000
0000
0000
0000
,
0000
0000
0000
0000
,
0010
0000
0000
1000
0000
0100
0010
0000
0000
0001
0000
0100
,
0010
0000
1000
0001
0000
1000
0010
0100
0010
1000
0000
0000
,
1000
0000
0000
1000
0100
0010
0001
0000
0000
1000
0010
0100
,
0001
0000
1000
0001
0010
0100
0010
0000
0001
0100
0000
0000
,
0100
0000
0000
0001
0000
0010
0100
0000
0000
1000
0000
0010
,
0100
0000
0001
0010
0000
0100
1000
0000
0100
0010
0000
0000
,
0001
0100
0010
1000
0000
0100
1000
0100
0010
0001
0000
0010
,
0001
0100
0010
0100
0010
1000
0200
0000
0000
0300
0000
0000
,
0100
0000
0000
1000
0010
0100
1000
0000
0000
0100
0001
0010
,
1000
0000
0010
0001
0000
0100
1000
0000
0100
0001
0000
0000
,
0010
0000
0000
0001
0100
0010
0001
0000
0000
0010
1000
0100
,
0001
0000
0100
1000
0100
0010
0001
0000
0100
0010
0000
0000
,
0010
0000
0000
1000
0100
0010
1000
0000
0000
0010
0001
0100
,
1000
0000
0100
0001
0000
0010
1000
0000
0010
0001
0000
0000
,
0100
0000
0000
0001
0010
0100
0001
0000
0000
0100
1000
0010
,
0001
0000
0010
1000
0010
0100
0001
0000
0010
0100
0000
0000
,
1100
0000
0000
0100
0000
0100
0010
0000
0000
0001
0000
0001
,
0100
1100
0110
0101
,
1000
0010
0100
0010
,
1000
0001
0100
0010
0000
0000
0100
0001
1000
0100
0000
0000
,
0010
0000
0000
0001
0100
0010
1000
0000
0000
1000
0100
0010
,
0001
0000
0010
0100
0000
1000
0100
0000
0010
0100
0000
0000
,
0010
0000
0000
0001
0010
0100
1000
0000
0000
1000
0010
0100
,
0101
1010
1100
0110
,
0200
0000
0000
0000
,
0000
0000
0000
0000
0000
0000
0300
0000
0010
0001
0000
0000
,
0012
0003
0000
0110
0000
0000
1100
0000
0000
1010
0000
1000
0100
0000
0010
0000
0000
0001
0000
0000
1000
0010
0000
0000
,
0110
0000
0000
0101
0000
0001
0010
0000
0000
0001
0000
0000
1000
0000
0000
0010
0000
0100
0000
0000
0010
1000
0000
0000
,
1010
0000
0000
0110
0000
0000
0101
0000
0000
0110
0000
0100
0010
0000
1000
0000
0000
0010
0100
0000
0000
0010
0000
0000
,
2000
0000
0000
0000
0000
0000
0000
0000
0000
3000
0000
0000
0001
0010
0001
0010
0001
0010
0001
1000
0100
1000
0100
1000
,
0100
0000
0000
0110
0000
0010
0001
0000
0000
1001
0000
1000
0100
0000
0000
0110
0000
0100
0001
0000
0100
1000
0000
0000
,
1010
0000
0000
0010
0000
0100
0001
0000
0100
0000
0000
0110
0000
0000
1100
0000
0000
0110
0000
0000
0101
0000
0000
0000
,
0002
0000
0000
0003
1000
0010
0001
0010
,
1000
0000
0100
0000
0000
1000
0000
0000
0001
0000
0000
0100
0010
0100
0010
0100
0010
0100
0010
1000
0010
1000
0010
1000
,
0002
0000
0003
0020
0000
0030
2000
0000
3000
0200
0000
0300
,
0002
0000
0003
0020
0000
0030
2000
0000
3000
0200
0000
0300
,
0002
0000
0003
0020
0000
0030
0002
0000
0003
0200
0000
0300
,
2000
0000
3000
0020
0000
0030
0002
0000
0003
0200
0000
0300
,
0101
1100
1010
0011
,
1001
0000
0001
0100
0010
0100
0001
0000
0000
0010
0000
0100
,
1000
0100
0000
0001
0000
1000
0000
0010
0000
0001
0000
1000
,
0100
0000
0000
0000
0000
0000
0000
0000
0010
0000
0000
0000
0000
0000
0000
0000
0100
0000
0000
0000
0000
0000
0000
0000
0010
0000
0000
0001
0000
0000
0010
0000
0000
0001
0000
0000
1000
0000
0000
0100
0000
0000
1000
0000
0000
0100
0000
0000
,
0010
0000
0000
0110
0000
0010
0100
1000
0010
0100
0001
0100
,
1000
0100
0010
0001
0010
1000
0010
0001
1000
0100
0000
0000
,
0010
0000
0000
1000
0100
0010
0001
0000
0000
1000
0010
0100
,
0001
0000
0100
0010
1000
0100
0001
0100
1000
0010
0000
0000
,
0210
0000
0000
0301
0000
0010
0100
0000
0000
1000
0010
1000
,
0010
0000
0100
0001
0000
0001
1000
0000
1000
0001
0000
0000
,
1000
0100
1000
1100
0000
0000
0010
0001
0010
0011
0000
0000
,
0101
0000
0000
0110
0000
0000
1010
0000
1000
0100
0000
0000
,
0010
0001
0010
0100
,
1000
0000
0000
0010
0000
0100
0001
0000
0000
0010
0000
0000
,
0100
1000
0100
0010
,
0001
0000
0000
0100
0000
0010
1000
0000
0000
0100
0000
0000
,
0010
0001
0010
0100
,
1000
0000
0000
0010
0000
0100
0001
0000
0000
0010
0000
0000
,
0100
1000
0100
0010
,
0001
0000
0000
0100
0000
0010
1000
0000
0000
0100
0000
0000
,
2000
3000
0010
0000
1000
0000
0001
0000
0010
0000
0001
0000
1000
0000
0100
0000
1000
0000
0001
0000
0100
0000
0001
0000
,
2000
3000
0100
0000
1000
0000
0001
0000
0100
0000
0001
0000
1000
0000
0010
0000
1000
0000
0001
0000
0010
0000
0001
0000
,
2000
3000
0010
0000
1000
0000
0001
0000
0010
0000
0001
0000
1000
0000
0100
0000
1000
0000
0001
0000
0100
0000
0001
0000
,
2000
3000
0001
0000
1000
0000
0001
0000
1000
0000
0001
0000
1000
0000
0001
0000
1000
0000
0001
0000
1000
0000
0001
0000
,
2000
0000
0000
0000
0000
3000
1010
0000
0000
1000
0100
0010
,
0001
0000
0000
0000
0000
0000
0000
0000
0000
0000
0000
0000
1000
0000
0000
0000
0010
0000
0000
0000
0100
0000
0000
0000
0001
0000
0000
0000
0100
0000
0000
0000
0001
0000
0000
0000
1000
0000
0000
0100
0000
0000
1000
0000
0000
0100
0000
0000
,
1000
0000
0000
0001
0010
0100
1000
0000
0000
1000
0010
0100
,
0001
0000
0000
0000
0010
0000
0010
0000
0000
0000
0100
0000
0010
0000
0100
1000
0100
0000
0010
0000
0001
0010
0001
0000
,
1000
0000
0000
0000
0000
0000
0010
0000
1000
0000
0100
0000
0020
0000
0000
0000
0030
0000
0001
0000
0100
0001
0100
0000
,
0010
0000
1000
0010
1000
0000
0001
0000
0100
0001
0100
0000
0010
0000
1000
0010
1000
0000
0100
0000
1000
0100
1000
0000
,
0100
0000
0010
0100
0010
0000
0001
0000
0000
0000
1000
0000
0100
0000
0000
0010
0100
0000
1000
0000
0010
0100
0010
0000
,
0100
0000
0001
1000
0001
0000
0010
0000
0001
1000
0001
0000
0100
0000
0010
0100
0010
0000
1000
0000
0010
1000
0010
0000
,
0100
0000
0001
1000
0001
0000
0100
0000
0001
1000
0001
0000
1000
0000
0000
0000
0000
0000
0010
0000
0100
0010
0100
0000
,
0001
0000
0100
1000
0100
0000
0010
0000
0100
0001
0100
0000
0001
0000
0010
0100
0010
0000
0100
0000
0010
1000
0010
0000
,
0100
0000
0010
0000
0010
0000
0001
0000
1000
0000
1000
0000
0010
0000
0001
0000
0001
0000
0010
0000
0100
0001
0100
0000
,
0010
0000
1000
0100
1000
0000
0100
0000
0010
0100
0010
0000
0011
0000
0000
0000
1010
0000
0000
0000
1100
0000
0000
0000
,
0101
0000
1001
0000
0110
0000
0220
0000
0000
0000
0000
0000
,
0000
0000
0330
0000
;
