#VERSION:0.83;
#TITLE:Tetoris;
#SUBTITLE:Cosmowave Hardbass Remix;
#ARTIST:Hiiragi Magnetite ft. Kasane Teto;
#TITLETRANSLIT:;
#SUBTITLETRANSLIT:;
#ARTISTTRANSLIT:;
#GENRE:;
#ORIGIN:;
#CREDIT:;
#BANNER:Tank_Touhou_Banner.png;
#BACKGROUND:Tank_Touhou_BG.png;
#PREVIEWVID:;
#JACKET:Tank_Touhou_Jacket.png;
#CDIMAGE:;
#DISCIMAGE:;
#LYRICSPATH:;
#CDTITLE:;
#MUSIC:Tetoris (Cosmowave Remix).ogg;
#OFFSET:0.000000;
#SAMPLESTART:39.528999;
#SAMPLELENGTH:10.941000;
#SELECTABLE:YES;
#DISPLAYBPM:170.000000;
#BPMS:0.000=170.000,
346.000=136.000,
348.000=170.000;
#STOPS:;
#DELAYS:;
#WARPS:349.000=1.000,
350.500=0.500,
352.000=1.000,
353.500=0.500,
354.500=0.500,
356.500=1.500,
358.500=0.500,
360.000=1.000,
361.500=0.500,
362.500=0.500,
364.000=1.000,
365.500=0.500,
366.500=0.500,
368.000=1.000,
370.000=1.000,
372.000=1.000,
374.000=1.000;
#TIMESIGNATURES:0.000=4=4;
#TICKCOUNTS:0.000=4;
#COMBOS:0.000=1;
#SPEEDS:0.000=1.000=0.000=0;
#SCROLLS:0.000=1.000,
346.000=1.250,
348.000=0.000,
349.000=0.500,
350.000=0.000,
350.500=0.500,
351.000=0.000,
352.000=0.500,
353.000=0.000,
353.500=0.500,
354.000=0.000,
354.500=0.500,
355.000=0.000,
356.500=0.500,
358.000=0.000,
358.500=0.500,
359.000=0.000,
360.000=0.500,
361.000=0.000,
361.500=0.500,
362.000=0.000,
362.500=0.500,
363.000=0.000,
364.000=0.500,
365.000=0.000,
365.500=0.500,
366.000=0.000,
366.500=0.500,
367.000=0.000,
368.000=0.500,
369.000=0.000,
370.000=0.500,
371.000=0.000,
372.000=0.500,
373.000=0.000,
374.000=0.500,
375.000=0.000;
#FAKES:348.000=0.021,
350.000=0.021,
351.000=0.021,
353.000=0.021,
354.000=0.021,
355.000=0.021,
358.000=0.021,
359.000=0.021,
361.000=0.021,
362.000=0.021,
363.000=0.021,
365.000=0.021,
366.000=0.021,
367.000=0.021,
369.000=0.021,
371.000=0.021,
373.000=0.021,
375.000=0.021;
#LABELS:0.000=Song Start;
#BGCHANGES:;
#KEYSOUNDS:;
#ATTACKS:
;

//---------------dance-single - XO----------------
#NOTEDATA:;
#CHARTNAME:;
#STEPSTYPE:dance-single;
#DESCRIPTION:XO;
#CHARTSTYLE:;
#DIFFICULTY:Medium;
#METER:12;
#RADARVALUES:0.513739,0.656768,0.288005,0.210166,0.035028,462.000000,425.000000,37.000000,27.000000,0.000000,0.000000,0.000000,0.000000,18.000000,0.513739,0.656768,0.288005,0.210166,0.035028,462.000000,425.000000,37.000000,27.000000,0.000000,0.000000,0.000000,0.000000,18.000000;
#CREDIT:Agent A;
#DISPLAYBPM:170.000000;
#NOTES:
0000
0000
0000
0000
,
0000
0000
0000
0000
,
0000
0000
0000
0000
,
0000
0000
0000
0000
,
0000
0000
0000
0000
,
0000
0000
0000
0000
,
0000
0000
0000
0000
,
0000
0000
0000
0000
,
0000
0000
0000
0000
,
1000
0000
0001
0000
1000
0010
0100
0010
,
1000
0000
0001
0000
1000
0100
0010
0100
,
1000
0000
0001
0000
1000
0010
0100
0001
,
0101
0000
0001
0010
0100
1000
2000
0000
,
3001
0000
1000
0000
0001
0100
0010
0100
,
0001
0000
1000
0000
0001
0010
0100
0010
,
0001
0000
1000
0000
0001
0100
0010
1000
,
1010
0010
0100
0010
1000
0010
0100
0001
,
0010
0000
0001
0000
0010
0001
1000
0000
,
0020
0230
0302
2003
,
3010
0000
1000
0000
0010
1000
0001
0000
,
0020
0230
2300
3002
,
0103
0000
0000
0001
0010
0100
1000
0010
,
0100
0001
1000
1000
0100
1000
0001
0001
,
1000
0000
0000
0010
0100
0000
0001
1000
,
0001
0000
0000
0001
0000
0000
0001
0000
0010
0000
0100
0000
0010
0000
0001
0000
,
1000
0000
0000
1000
0000
0000
1000
0000
0010
0000
0100
0000
0010
0000
0000
0000
,
0110
0000
0100
0001
0010
0000
0100
1000
,
0010
0110
1001
0000
,
1000
0000
0100
0010
0001
0000
0100
0010
,
1000
0000
0100
1000
0010
0000
0100
0001
,
0101
0000
0001
0010
0100
0000
1000
0000
,
1001
1100
0101
0000
,
0001
0000
0010
0000
0000
0000
0001
0000
1000
0000
0000
0010
0000
0000
0001
0000
,
0010
0000
0000
0000
1000
0000
0100
0000
1000
0000
0000
0100
0000
0000
0001
0000
,
0100
0000
0010
0001
0100
0020
0000
0030
,
0110
0000
0101
0000
1100
0000
1000
0001
,
1000
0000
0001
0100
0010
0000
0100
0001
,
1000
0000
0100
0010
0001
0000
1000
0010
,
0100
0000
0001
1000
0100
0000
1100
0000
,
1010
0000
0011
0000
1001
0000
1000
0010
,
0100
0010
0000
0100
1000
0000
0100
0001
,
1000
0000
0100
1000
0001
0000
0010
0001
,
1000
0000
0010
1000
0001
0000
0010
0000
,
0110
1100
1001
0000
,
0001
0000
1000
0000
0001
0100
0010
0100
,
0001
0000
1000
0000
0001
0010
0100
0010
,
0001
0001
0100
0010
0010
0100
0001
0001
,
1000
0100
1000
0100
0010
0001
0002
0000
,
1003
0000
0001
0000
1000
0010
0100
0010
,
1000
0000
0001
0000
1000
0100
0010
0100
,
1000
1000
0010
0100
0100
0010
1000
1000
,
0001
0010
0120
0000
,
0130
0000
1000
0000
0100
1000
0001
0000
,
0200
0320
2030
3002
,
0103
0000
0001
0000
0100
0001
1000
0000
,
0200
0320
0032
2003
,
3010
0000
0000
1000
0100
0010
0001
0100
,
0010
1000
0001
0001
0010
0001
1000
1000
,
0001
0000
0000
0100
0010
0000
1000
0001
,
1000
0000
0000
1000
0000
0000
1000
0000
0100
0000
0010
0000
0100
0000
1000
0000
,
0001
0000
0000
0001
0000
0000
0001
0000
0100
0000
0010
0000
0100
0000
0000
0000
,
0110
0000
0010
1000
0100
0000
0010
0001
,
0100
0110
1001
0000
,
0000
0000
0000
0000
,
0000
0000
0000
0000
0000
0000
1000
0010
,
0110
0100
0001
1000
0100
0010
0100
1000
,
0001
0100
0010
0100
0001
0100
0010
1000
,
1000
0000
0100
0000
0000
0000
1000
0000
0001
0000
0000
0100
0000
0000
1000
0000
,
0100
0000
0000
0000
0001
0000
0010
0000
0001
0000
0000
0010
0000
0000
1000
0000
,
0010
0000
0100
1000
0010
0200
0000
0300
,
0110
0000
1010
0000
0011
0000
0001
0001
,
1000
0000
0100
0010
1000
0000
0010
0001
,
1000
0000
0010
0100
1000
0000
0100
0001
,
1000
0000
0100
0010
0001
0000
0011
0000
,
1001
1010
1001
0001
,
1000
0010
0000
0001
0020
0000
1030
0100
,
0010
0000
0000
0000
0100
0000
1000
0000
0001
0000
0000
0100
0010
0000
1000
0000
,
0100
0000
0010
0001
0100
0000
0101
0000
,
2000
3200
2300
3000
,
0001
0000
0010
0100
0001
0000
0100
1000
,
0001
0000
0100
0010
0001
0000
0010
1000
,
0001
0000
0010
0100
1000
0000
1100
0000
,
1001
0101
1001
1000
,
0001
0100
0000
1000
0200
0000
0301
0010
,
0100
0000
0010
0001
1000
0000
0010
1000
,
0010
0000
0100
0001
0010
0000
0100
0000
,
2000
3010
1010
0000
,
M000
0000
00M0
M000
,
0000
000M
00M0
0M00
,
0000
0000
M000
000M
,
0000
M000
00M0
0M00
,
0000
000M
00M0
M000
,
0000
0M00
0000
00M0
,
0000
000M
0000
M000
;

//---------------dance-single - XO----------------
#NOTEDATA:;
#CHARTNAME:;
#STEPSTYPE:dance-single;
#DESCRIPTION:XO;
#CHARTSTYLE:;
#DIFFICULTY:Hard;
#METER:14;
#RADARVALUES:0.671641,0.912178,0.288005,0.093407,0.303573,604.000000,567.000000,37.000000,12.000000,0.000000,0.000000,0.000000,0.000000,18.000000,0.671641,0.912178,0.288005,0.093407,0.303573,604.000000,567.000000,37.000000,12.000000,0.000000,0.000000,0.000000,0.000000,18.000000;
#CREDIT:Agent A;
#DISPLAYBPM:170.000000;
#NOTES:
// measure 0
0000
0000
0000
0000
,  // measure 1
0000
0000
0000
0000
,  // measure 2
0000
0000
0000
0000
,  // measure 3
0000
0000
0000
0000
,  // measure 4
0000
0000
0000
0000
,  // measure 5
0000
0000
0000
0000
,  // measure 6
0000
0000
0000
0000
,  // measure 7
0000
0000
0000
0000
,  // measure 8
0000
0000
0000
0000
,  // measure 9
1000
0000
0001
0000
1000
0000
0100
0010
0100
0000
1000
0010
0100
0000
0001
0000
,  // measure 10
1000
0000
0001
0000
1000
0000
0010
0100
0010
0000
1000
0100
0010
0000
0001
0000
,  // measure 11
0100
0000
0001
0000
0100
0000
0010
1000
0010
0000
0100
0001
1000
0000
0100
0000
,  // measure 12
1100
0000
0100
0010
0001
0010
0100
1000
,  // measure 13
0001
0000
1000
0000
0001
0000
0010
0100
0010
0000
0001
0100
0010
0000
1000
0000
,  // measure 14
0001
0000
1000
0000
0001
0000
0100
0010
0100
0000
0001
0010
0100
0000
1000
0000
,  // measure 15
0010
0000
1000
0000
0010
0000
0100
0001
0100
0000
0010
1000
0001
0000
0010
0000
,  // measure 16
0100
1000
0100
0010
0100
1000
0100
0010
,  // measure 17
0001
0100
0001
0010
0001
1000
0010
1000
,  // measure 18
0100
0000
1000
0010
0100
0000
0001
0010
0100
0000
1000
0010
0100
0000
0001
1000
,  // measure 19
0001
0100
0001
0010
0100
0010
0001
1000
,  // measure 20
0010
0000
0100
0001
0010
0000
0100
1000
0010
0000
0100
0001
0010
0000
0100
0010
,  // measure 21
0001
0000
0000
1000
0001
0001
0100
0010
,  // measure 22
0100
0001
0010
0001
0100
0010
0100
0001
,  // measure 23
0101
0000
0000
0001
0010
0100
1000
0100
,  // measure 24
1000
0000
0000
1000
0000
0000
1000
0000
1000
0000
0010
0000
1000
0000
0100
0000
,  // measure 25
0010
0000
0000
0010
0000
0000
0010
0000
0100
0000
1000
0000
0020
0000
0000
0000
,  // measure 26
0130
0000
0100
0001
0010
0000
0100
1000
,  // measure 27
1100
1001
0101
0000
,  // measure 28
0001
0000
0100
0001
0000
0100
0001
0000
1000
0000
0100
0010
0000
0100
0010
0000
,  // measure 29
0002
0000
0000
0000
1003
0010
0100
0001
1000
0000
0000
0100
0000
0000
0010
0000
,  // measure 30
0001
0000
0001
0100
0010
0000
0100
0000
0101
0000
0000
0000
1100
0000
0000
0000
,  // measure 31
2001
3000
0010
0000
1000
0000
0010
0000
0100
0000
0010
0000
1000
0000
0001
0000
,  // measure 32
0010
0000
0100
0000
0000
0000
1000
0000
0010
0000
0100
0001
0000
0100
1000
0000
,  // measure 33
0100
0000
0000
0000
0010
0000
1000
0000
0100
0000
0001
0100
0000
1000
0001
0000
,  // measure 34
0100
0000
0001
0010
0100
1000
0000
0000
,  // measure 35
1001
1010
0011
0000
,  // measure 36
0001
0000
0100
0010
1000
0000
0100
0010
,  // measure 37
0100
0000
0000
0000
1000
0000
0010
0000
0100
0000
0000
0001
0010
0000
0100
0000
,  // measure 38
0010
0000
0001
1000
0010
0100
0001
0000
,  // measure 39
0101
0000
1100
0000
1010
0000
1000
0100
,  // measure 40
1000
0000
0020
0000
0000
0000
0031
0000
0010
0000
0000
1000
0100
0000
0010
0000
,  // measure 41
0002
0000
0000
0000
0103
0000
0010
0000
0001
0000
0000
0010
1000
0000
0001
0000
,  // measure 42
0010
0000
0100
1000
0001
0000
0100
0000
,  // measure 43
0101
1010
1001
0000
,  // measure 44
0001
0000
1000
0000
0001
0000
0010
0100
0010
0000
0001
0100
0010
0000
1000
0000
,  // measure 45
0001
0000
1000
0000
0001
0000
0100
0010
0100
0000
0001
0010
0100
0000
1000
0000
,  // measure 46
0010
1000
0010
1000
0010
0000
0100
0001
0100
0001
1000
0000
0100
0010
0100
0010
,  // measure 47
0001
0100
0010
0100
0001
0100
0010
1000
,  // measure 48
1000
0000
0001
0000
1000
0000
0100
0010
0100
0000
1000
0010
0100
0000
0001
0000
,  // measure 49
1000
0000
0001
0000
1000
0000
0010
0100
0010
0000
1000
0100
0010
0000
0001
0000
,  // measure 50
0100
0001
0100
0001
0100
0000
0010
1000
0010
1000
0001
0000
0010
0100
0010
0001
,  // measure 51
1000
0001
1000
0002
,  // measure 52
1003
0010
1000
0100
1000
0001
0100
0001
,  // measure 53
0010
0000
0001
0100
0010
0000
1000
0100
0010
0000
0001
0100
0010
0000
1000
0001
,  // measure 54
1000
0010
1000
0100
0010
0100
1000
0001
,  // measure 55
0100
0000
0010
1000
0100
0000
0010
0001
0100
0000
0010
1000
0100
0000
0010
0100
,  // measure 56
1000
0000
0000
0001
1000
1000
0010
0100
,  // measure 57
0010
1000
0100
1000
0010
0100
0010
1000
,  // measure 58
1010
0000
0000
1000
0100
0010
0001
0010
,  // measure 59
0001
0000
0000
0001
0000
0000
0001
0000
0001
0000
0100
0000
0001
0000
0010
0000
,  // measure 60
0100
0000
0000
0100
0000
0000
0100
0000
0010
0000
0001
0000
0200
0000
0000
0000
,  // measure 61
0310
0000
0010
1000
0100
0000
0010
0001
,  // measure 62
0011
1001
1010
0000
,  // measure 63
0000
0000
0000
0000
,  // measure 64
0000
0000
0000
0000
0000
0000
1000
0001
,  // measure 65
1000
0000
0100
0010
0100
0000
0010
0000
0011
0000
0000
0000
1010
0000
0000
0000
,  // measure 66
1002
0003
0100
0000
0001
0000
0100
0000
0010
0000
0100
0000
0001
0000
1000
0000
,  // measure 67
0100
0000
0010
0000
0000
0000
0001
0000
0100
0000
0010
1000
0000
0010
0001
0000
,  // measure 68
0010
0000
0000
0000
0100
0000
0001
0000
0010
0000
1000
0010
0000
0001
1000
0000
,  // measure 69
0010
0000
1000
0100
0010
0001
0000
0000
,  // measure 70
1001
0101
1100
0000
,  // measure 71
1000
1000
0001
0100
0010
0010
0001
0010
,  // measure 72
0100
0000
0100
0000
0001
0000
1000
0000
0010
0000
0000
0100
0001
0000
1000
0000
,  // measure 73
0100
0000
0010
0001
0011
0000
1010
0000
,  // measure 74
2000
0000
3200
0000
0310
0100
1000
0010
,  // measure 75
0100
0000
0001
0000
0000
0000
0100
0000
1000
0000
0000
0100
0010
0000
1000
0000
,  // measure 76
0100
0000
0000
0000
0010
0000
0001
0000
1000
0000
0010
1000
0010
0000
0100
0000
,  // measure 77
0001
0010
0001
1000
0010
0000
1000
0000
,  // measure 78
1010
0000
0101
0000
1001
0000
1000
1000
,  // measure 79
0001
0001
1000
0010
0100
0100
1000
0100
,  // measure 80
0010
0000
0010
0000
1000
0000
0001
0000
0100
0000
0000
0010
1000
0000
0001
0000
,  // measure 81
0010
0000
0100
1000
1100
0000
0101
0000
,  // measure 82
0002
0000
0023
0000
0130
0010
0001
0100
,  // measure 83
0010
0000
1000
0000
0000
0000
0010
0000
0001
0000
0000
0010
0100
0000
0001
0000
,  // measure 84
0010
0000
0000
0000
0100
0000
1000
0000
0001
0000
0100
0001
0100
0000
0010
0000
,  // measure 85
1000
0100
1000
0001
0100
0000
0001
0000
,  // measure 86
0101
1010
1001
0000
,  // measure 87
M000
0000
0M00
00M0
,  // measure 88
0000
0M00
M000
000M
,  // measure 89
0000
0000
0M00
00M0
,  // measure 90
0000
0M00
000M
00M0
,  // measure 91
0000
0M00
M000
00M0
,  // measure 92
0000
000M
0000
0M00
,  // measure 93
0000
M000
0000
000M
;

//---------------dance-single - GH, XO----------------
#NOTEDATA:;
#CHARTNAME:Hold That (L)ine Piece!;
#STEPSTYPE:dance-single;
#DESCRIPTION:GH, XO;
#CHARTSTYLE:;
#DIFFICULTY:Challenge;
#METER:16;
#RADARVALUES:0.680537,0.912178,0.186814,0.233518,0.365844,612.000000,588.000000,24.000000,30.000000,0.000000,0.000000,0.000000,0.000000,36.000000,0.680537,0.912178,0.186814,0.233518,0.365844,612.000000,588.000000,24.000000,30.000000,0.000000,0.000000,0.000000,0.000000,36.000000;
#CREDIT:Agent A;
#DISPLAYBPM:170.000000;
#NOTES:
0000
0000
0000
0000
,
0000
0000
0000
0000
,
0000
0000
0000
0000
,
0000
0000
0000
0000
,
0000
0000
0000
0000
,
0000
0000
0000
0000
,
0000
0000
0000
0000
,
0000
0000
0000
0000
,
0000
0000
0000
0000
,
0001
0000
1000
0000
0010
0000
0100
0001
0010
0000
0001
0100
0010
0000
1000
0000
,
0001
0000
1000
0000
0100
0000
0010
0001
0100
0000
0001
0010
0100
0000
1000
0000
,
0010
0000
1000
0000
0100
0000
0010
0001
0010
0000
0100
1000
0001
0000
0100
0000
,
0101
0000
0001
0100
1000
0100
0001
0000
,
1000
0000
0001
0000
0100
0000
0010
1000
0100
0000
1000
0010
0100
0000
0001
0000
,
1000
0000
0001
0000
0010
0000
0100
1000
0010
0000
1000
0100
0010
0000
0001
0000
,
0100
0000
0001
0000
0010
0000
0100
1000
0100
0000
0010
0001
1000
0000
0001
0000
,
0100
0010
0100
1000
0100
0010
0100
0001
,
1000
0100
1000
0010
1000
0100
0010
0001
,
1000
0000
0100
1000
0020
0000
0100
0001
0000
0000
0100
1000
0000
0000
0100
0001
,
0030
0100
1000
0010
1000
0100
0010
0001
,
1000
0000
0010
1000
0200
0000
0010
0001
0000
0000
0010
1000
0000
0000
0010
0001
,
0300
0000
0000
0010
1000
1000
0100
0010
,
0100
0100
1000
0010
0100
0010
1000
0100
,
1100
0000
0000
1000
0100
0010
0001
0100
,
0010
0000
1000
0001
0000
1000
0001
0000
1000
0000
0100
0000
1000
0000
0010
0000
,
0100
0000
0001
0100
0000
0001
0100
0000
0010
0000
1000
0000
0200
0000
0000
0000
,
0310
0000
0010
0001
0100
0000
0010
1000
,
1010
1100
1001
0000
,
1000
0000
0010
1000
0000
0100
0010
0000
0001
0000
0010
0100
0000
1000
0010
0000
,
2000
0000
0000
0000
3001
0100
0010
1000
0001
0000
0010
0100
0000
1000
0010
0000
,
1000
0000
1000
0010
0100
0000
0010
0000
1010
0000
0000
0000
0011
0000
0000
0000
,
1002
0003
0100
0000
0001
0000
0100
0000
0010
0000
0100
0000
0001
0000
1000
0000
,
0100
0000
0010
0000
0000
0000
0001
0000
0100
0000
0010
1000
0000
0010
0001
0000
,
0010
0000
0000
0000
0100
0000
0001
0000
0010
0000
1000
0010
0001
0000
1000
0000
,
0010
0000
0100
0001
1000
0000
0100
0000
0010
0000
0001
0000
0000
0000
0000
0000
,
1001
0000
0101
0000
1100
0000
1000
0001
,
1000
1000
0010
0100
0001
0001
0010
0100
,
0010
0000
0010
0000
0001
0000
0100
0000
0010
0000
1000
0100
0010
0000
0100
0000
,
1000
0000
0010
1000
0001
0000
0010
0100
1000
0000
0010
0000
1000
0000
0000
0000
,
0002
0023
0230
0000
,
F3FF
0000
0020
0000
0000
0000
0031
0000
1000
0000
0010
0001
0010
0000
0100
0000
,
2000
0000
0000
0000
3100
0000
0001
0000
1000
0000
0100
0010
0001
0000
1000
0000
,
0010
0100
0010
1000
0100
0000
0010
0000
,
0002
0203
0320
FF3F
,
1000
0000
0001
0000
0100
0000
0010
1000
0100
0000
1000
0010
0100
0000
0001
0000
,
1000
0000
0001
0000
0010
0000
0100
1000
0010
0000
1000
0100
0010
0000
0001
0000
,
0100
0001
1000
0100
0010
0000
0100
1000
0001
0100
0010
0000
1000
0010
0100
0001
,
0010
0100
0010
0001
0010
0100
0010
0001
,
0001
0000
1000
0000
0010
0000
0100
0001
0010
0000
0001
0100
0010
0000
1000
0000
,
0001
0000
1000
0000
0100
0000
0010
0001
0100
0000
0001
0010
0100
0000
1000
0000
,
0010
1000
0001
0010
0100
0000
0010
0001
1000
0010
0100
0000
0001
1000
0100
0010
,
0001
0100
0001
0000
,
0001
0010
0001
0100
0001
0010
0100
1000
,
0001
0000
0010
0001
0200
0000
0010
1000
0000
0000
0010
0001
0000
0000
0010
1000
,
0300
0010
0001
0100
0001
0010
0100
1000
,
0001
0000
0100
0001
0020
0000
0100
1000
0000
0000
0100
0001
0000
0000
0100
1000
,
0030
0000
0000
0100
0001
0001
0010
0100
,
0010
0000
0001
0010
0001
0000
1000
0000
0010
0000
0100
0000
0001
0000
0010
0000
,
0011
0000
0000
0001
0010
0100
1000
0010
,
0100
0000
0001
1000
0000
0001
1000
0000
0001
0000
0010
0000
0001
0000
0100
0000
,
0010
0000
1000
0010
0000
1000
0010
0000
0100
0000
0001
0000
0020
0000
0000
0000
,
0130
0000
0100
1000
0010
0000
0100
0001
,
0101
0011
1001
0000
,
0000
0000
0000
0000
,
0000
0000
0000
0000
0000
0000
0001
1000
,
0001
0000
0001
0100
0010
0000
0100
0000
0101
0000
0000
0000
1100
0000
0000
0000
,
1000
0010
0001
0010
1000
0010
0001
0010
,
1000
0000
0100
0000
0000
0000
1000
0000
0010
0000
0100
0001
0000
0100
1000
0000
,
0100
0000
0000
0000
0010
0000
1000
0000
0100
0000
0001
0100
1000
0000
0001
0000
,
0100
0000
0010
1000
0001
0000
0010
0000
0100
0000
1000
0000
0000
0000
0000
0000
,
1001
0000
1010
0000
0011
1000
0001
1000
,
0001
0001
1000
0010
0100
0100
1000
0100
,
0010
0000
1000
0100
0010
0000
0001
0000
0100
0000
0010
1000
0001
0000
0010
0000
,
0100
0000
1000
0001
0200
0000
0001
1000
0000
0000
1000
0001
0300
0000
0010
0000
,
2000
0000
3200
0000
0320
0000
FF3F
0001
,
1000
0000
0020
0000
0000
0000
0031
0000
0010
0000
0100
0010
0100
0000
0001
0000
,
0010
0000
0000
0000
0100
0000
1000
0000
0001
0000
0100
1000
0100
0000
0010
0000
,
1000
0100
1000
0001
0100
0000
0001
0000
,
0201
0000
0000
0000
0000
0000
0000
0300
1200
0000
0000
0000
0000
0000
0000
0000
F3FF
0000
0000
0000
0000
0000
0000
0000
0001
0000
0000
0000
0001
0000
0000
0000
,
1000
1000
0001
0100
0010
0010
0001
0010
,
0100
0000
0001
0010
0100
0000
1000
0000
0010
0000
0100
0001
1000
0000
0100
0000
,
0010
0000
0001
1000
0020
0000
1000
0001
0000
0000
0001
1000
0030
0000
0100
0000
,
0002
0000
0023
0000
0230
0000
F3FF
1000
,
0001
0000
0200
0000
0000
0000
1300
0000
0100
0000
0010
0100
0010
0000
1000
0000
,
0100
0000
0000
0000
0010
0000
0001
0000
1000
0000
0010
0001
0010
0000
0100
0000
,
0001
0010
0001
1000
0010
0000
1000
0000
,
1200
0000
0000
0000
0000
0000
0000
0300
0201
0000
0000
0000
0000
0000
0000
0000
F3FF
0000
0000
0000
0000
0000
0000
0000
0000
0000
0000
0000
0000
0000
0000
0000
,
M000
0000
0M00
00M0
,
0000
000M
0M00
00M0
,
0000
0000
M000
00M0
,
0000
0M00
000M
M000
,
0000
000M
00M0
M000
,
0000
0M00
0000
000M
,
0000
M000
0000
000M
;

//---------------dance-single - XO----------------
#NOTEDATA:;
#CHARTNAME:;
#STEPSTYPE:dance-single;
#DESCRIPTION:XO;
#CHARTSTYLE:;
#DIFFICULTY:Easy;
#METER:7;
#RADARVALUES:0.273549,0.364871,0.062271,0.031136,0.000000,246.000000,238.000000,8.000000,4.000000,0.000000,0.000000,0.000000,0.000000,18.000000,0.273549,0.364871,0.062271,0.031136,0.000000,246.000000,238.000000,8.000000,4.000000,0.000000,0.000000,0.000000,0.000000,18.000000;
#CREDIT:Agent A;
#DISPLAYBPM:170.000000;
#NOTES:
0000
0000
0000
0000
,
0000
0000
0000
0000
,
0000
0000
0000
0000
,
0000
0000
0000
0000
,
0000
0000
0000
0000
,
0000
0000
0000
0000
,
0000
0000
0000
0000
,
0000
0000
0000
0000
,
0000
0000
0000
0000
,
0001
0000
1000
0100
,
0010
0000
0001
0100
,
0010
0000
1000
0001
,
1000
0000
1000
0000
,
0001
0000
1000
0010
,
0100
0000
0001
0010
,
0100
0000
1000
0001
,
1000
0000
1000
0000
,
0010
0100
0001
0000
,
0010
0100
1000
0100
,
0010
0000
0001
0000
,
0100
0010
1000
0010
,
0100
0000
0001
0000
,
1000
0100
0010
0001
,
1000
0000
0010
1000
,
1010
0000
0001
0100
,
0101
0000
0001
0010
,
0011
0000
1100
0000
,
1000
1000
0001
0000
,
1000
0010
0100
0000
,
0001
0010
0100
0000
,
0010
0001
1000
0000
,
0001
0001
1000
0000
,
0010
0100
0010
0000
,
1000
0100
1000
0000
,
0010
0100
0010
0100
,
0001
0001
0001
0000
,
1000
0010
1000
0000
,
0100
0010
0100
0000
,
1000
0001
0100
0010
,
0100
0100
0100
0000
,
0001
1000
0100
0010
,
0100
0000
1000
0000
,
0001
0100
0010
0100
,
0001
0001
0002
0000
,
1003
0000
0001
0010
,
0100
0000
1000
0010
,
0100
0100
0001
0001
,
1000
1000
0001
0001
,
1000
0000
0001
0100
,
0010
0000
1000
0100
,
0010
0010
0001
0001
,
1000
1000
0001
0000
,
0100
0010
1000
0000
,
0100
0010
0001
0010
,
0100
0000
1000
0000
,
0010
0100
0001
0100
,
0010
0000
1000
0000
,
0001
0010
0100
1000
,
0001
0000
0100
0001
,
0101
0000
1000
0010
,
1010
0000
1000
0100
,
1100
0000
0011
0000
,
0001
0001
1000
0000
,
0000
0000
0000
0000
,
0000
0000
0000
1000
,
0100
1000
0001
0001
,
1000
1000
0001
0000
,
0100
0010
0200
0000
,
1300
0100
0001
0000
,
0010
0100
0020
0000
,
1030
0010
0001
0000
,
0001
0100
0001
0000
,
0010
0100
0010
0000
,
0001
1000
0010
0100
,
0010
0010
0010
0000
,
1000
0001
0010
0100
,
0010
0000
0001
0000
,
1000
0010
0001
0010
,
1000
0100
2000
0000
,
3001
0010
0001
0000
,
0100
0010
0100
0000
,
0001
1000
0100
0010
,
0100
0100
0100
0000
,
1000
0001
0100
0010
,
0100
0000
0001
0000
,
1000
0100
0001
0100
,
1000
0010
1000
0000
,
M000
0000
00M0
M000
,
0000
000M
00M0
0M00
,
0000
0000
M000
000M
,
0000
M000
00M0
0M00
,
0000
000M
00M0
M000
,
0000
0M00
0000
00M0
,
0000
000M
0000
M000
;

//---------------dance-single - ----------------
#NOTEDATA:;
#CHARTNAME:;
#STEPSTYPE:dance-single;
#DESCRIPTION:;
#CHARTSTYLE:;
#DIFFICULTY:Beginner;
#METER:3;
#RADARVALUES:0.150118,0.291897,0.077839,0.194598,0.000000,135.000000,125.000000,10.000000,25.000000,0.000000,0.000000,0.000000,0.000000,18.000000,0.150118,0.291897,0.077839,0.194598,0.000000,135.000000,125.000000,10.000000,25.000000,0.000000,0.000000,0.000000,0.000000,18.000000;
#CREDIT:Agent A;
#DISPLAYBPM:170.000000;
#NOTES:
0000
0000
0000
0000
,
0000
0000
0000
0000
,
0000
0000
0000
0000
,
0000
0000
0000
0000
,
0000
0000
0000
0000
,
0000
0000
0000
0000
,
0000
0000
0000
0000
,
0000
0000
0000
0000
,
0000
0000
0000
0000
,
0001
0000
0001
0000
,
0100
0000
0100
0000
,
0001
0000
0001
0000
,
1000
0000
0000
0000
,
1000
0000
1000
0000
,
0010
0000
0010
0000
,
1000
0000
1000
0000
,
0001
0000
0000
0000
,
2000
0000
0000
3010
,
0200
0000
0000
0301
,
2000
0000
0000
3100
,
0020
0000
0000
0031
,
1000
0000
0010
0000
,
1000
0000
0001
0000
,
0010
0000
0001
0000
,
1001
0000
0000
0000
,
1001
0000
0000
0000
,
1001
0000
1001
0000
,
1001
0000
0000
0000
,
1000
0000
0001
0000
,
0100
0000
0001
0000
,
2000
0000
0000
0000
,
3200
0000
0000
0000
,
1300
0000
0001
0000
,
0010
0000
0001
0000
,
2000
0000
0000
0000
,
3020
0000
0000
0000
,
1030
0000
1000
0000
,
0001
0000
0001
0000
,
0010
0000
0010
0000
,
0002
0000
0000
0003
,
0100
0000
0100
0000
,
0001
0000
0001
0000
,
2000
0000
0000
0000
,
3002
0000
0000
0000
,
1003
0000
1000
0000
,
0010
0000
0010
0000
,
2000
0000
0000
0000
,
3001
0000
1000
0000
,
0001
0000
0001
0000
,
0100
0000
0100
0000
,
0002
0000
0000
0000
,
1003
0000
0001
0000
,
0002
0000
0000
0103
,
0020
0000
0000
1030
,
0002
0000
0000
0013
,
0200
0000
0000
1300
,
0001
0000
0100
0000
,
0001
0000
1000
0000
,
0100
0000
1000
0000
,
1001
0000
0000
0000
,
1001
0000
0000
0000
,
1001
0000
1001
0000
,
1001
0000
0000
0000
,
0000
0000
0000
0000
,
0000
0000
0000
0000
,
0002
0000
0000
0000
,
0023
0000
0000
0000
,
0031
0000
1000
0000
,
0100
0000
1000
0000
,
0002
0000
0000
0000
,
0203
0000
0000
0000
,
0301
0000
0001
0000
,
1000
0000
1000
0000
,
0100
0000
0100
0000
,
2000
0000
0000
3000
,
0010
0000
0010
0000
,
1000
0000
1000
0000
,
0002
0000
0000
0000
,
2003
0000
0000
0000
,
3001
0000
0010
0000
,
0100
0000
0000
0000
,
0010
0000
0001
0000
,
1000
0000
0000
0000
,
0010
0000
0100
0000
,
0001
0000
1000
0000
,
0100
0000
0010
0000
,
0002
0000
0000
0003
,
M000
0000
00M0
M000
,
0000
000M
00M0
0M00
,
0000
0000
M000
000M
,
0000
M000
00M0
0M00
,
0000
000M
00M0
M000
,
0000
0M00
0000
00M0
,
0000
000M
0000
M000
;
