#VERSION:0.83;
#TITLE:Tetoris;
#SUBTITLE:;
#ARTIST:Hiiragi Magnetite;
#TITLETRANSLIT:;
#SUBTITLETRANSLIT:;
#ARTISTTRANSLIT:;
#GENRE:TETO-SPIN TRIPLE;
#ORIGIN:;
#CREDIT:;
#BANNER:Tetoris (BVG).png;
#BACKGROUND:Tetoris (BVG)-bg.png;
#PREVIEWVID:;
#JACKET:Tetoris (BVG)-jacket.png;
#CDIMAGE:;
#DISCIMAGE:;
#LYRICSPATH:;
#CDTITLE:;
#MUSIC:Tetoris (BVG).ogg;
#OFFSET:-0.003000;
#SAMPLESTART:39.492931;
#SAMPLELENGTH:12.000000;
#SELECTABLE:YES;
#DISPLAYBPM:170.000000;
#BPMS:0.000=170.000,
108.000=340.000,
109.000=170.000,
256.000=340.000,
257.000=170.000;
#STOPS:108.000=0.265,
108.500=0.265,
109.000=0.353,
256.000=0.265,
256.500=0.265,
257.000=0.353;
#DELAYS:;
#WARPS:174.000=6.000;
#TIMESIGNATURES:0.000=4=4;
#TICKCOUNTS:0.000=4;
#COMBOS:0.000=1;
#SPEEDS:0.000=1.000=0.000=0;
#SCROLLS:0.000=1.000,
180.000=3.000,
182.000=1.000;
#FAKES:;
#LABELS:0.000=Song Start;
#BGCHANGES:0.000=Tetoris (BVG).mp4=1.000=0=0=0=StretchNoLoop====,
99999=-nosongbg-=1.000=0=0=0 // don't automatically add -songbackground-
;
#KEYSOUNDS:;
#ATTACKS:
;

//---------------dance-single - ----------------
#NOTEDATA:;
#CHARTNAME:;
#STEPSTYPE:dance-single;
#DESCRIPTION:;
#CHARTSTYLE:;
#DIFFICULTY:Hard;
#METER:15;
#RADARVALUES:0.727536,0.887964,0.193929,0.607083,0.324621,604.000000,581.000000,23.000000,72.000000,12.000000,0.000000,0.000000,0.000000,4.000000,0.727536,0.887964,0.193929,0.607083,0.324621,604.000000,581.000000,23.000000,72.000000,12.000000,0.000000,0.000000,0.000000,4.000000;
#CREDIT:BlindedVanguard573;
#DISPLAYBPM:170.000000;
#NOTES:
// measure 0
0000
0000
0000
0000
,  // measure 1
0000
0000
0000
0000
,  // measure 2
0000
0000
0000
0000
,  // measure 3
0000
0000
0000
0000
,  // measure 4
0000
0000
0000
0000
,  // measure 5
0001
0000
0100
0000
0100
0000
0010
1000
0010
0000
0100
0001
0100
0000
0001
0000
,  // measure 6
1000
0000
0100
0000
0100
0000
0010
0001
0010
0000
0100
1000
0100
0000
1000
0000
,  // measure 7
0001
0000
1000
0000
1000
0000
0010
0100
0010
0000
1000
0001
1000
0000
0100
0000
,  // measure 8
1000
0000
0100
0001
0100
0010
0001
0000
,  // measure 9
1000
0000
0010
0000
0010
0000
0100
0001
1000
0000
0100
1000
0001
0000
1000
0000
,  // measure 10
0001
0000
0010
0000
0010
0000
0100
1000
0001
0000
0100
0001
1000
0000
0001
0000
,  // measure 11
1000
0000
0100
0000
0100
0000
0010
0001
1000
0000
0010
1000
0001
0000
0010
0000
,  // measure 12
0100
0000
0010
1000
0010
0100
1000
0000
,  // measure 13
0001
0000
0100
0000
0100
0000
0010
1000
0100
0000
0010
0001
1000
0000
0001
0000
,  // measure 14
1000
0000
0100
0000
0100
0000
0010
0001
0100
0000
0010
1000
0001
0000
1000
0000
,  // measure 15
0001
0000
0010
0000
0010
0000
0100
1000
0010
0000
0100
0001
1000
0000
0100
0000
,  // measure 16
0010
0001
1000
0001
1000
1000
0001
0001
,  // measure 17
0020
0000
0031
0100
0010
0100
1000
0000
,  // measure 18
0100
0000
0001
0000
1000
0000
0010
1000
0100
0000
0010
0001
0100
0000
0010
0000
,  // measure 19
1000
0001
1000
0100
0010
0100
0001
0000
,  // measure 20
0100
0000
1000
0000
0001
0000
0010
0001
0100
0000
0010
1000
0100
0000
0010
0001
,  // measure 21
2000
0000
3001
1000
0001
0100
0010
1000
,  // measure 22
0100
0001
0100
0010
0001
1000
0100
1000
,  // measure 23
0002
0000
0103
0010
1000
0100
1000
0001
,  // measure 24
0011
0000
0000
1001
0000
0000
0011
0000
0001
0000
0010
0000
0100
0000
1000
0000
,  // measure 25
1010
0000
0000
1001
0000
0000
1010
0000
1000
0000
0100
0000
0010
0000
0000
0000
,  // measure 26
1002
0000
0013
0001
2000
0000
3100
1000
,  // measure 27
2002
3003
2002
3003
2002
0000
3003
0000
0102
0000
0000
0000
1003
0000
0100
0000
,  // measure 28
0010
0000
0001
1000
0010
0000
1000
0000
0002
0000
0000
0000
1003
0000
0100
0000
,  // measure 29
0010
0000
0001
1000
0010
0000
0100
0000
0002
0000
0000
0000
1003
0000
0001
0000
,  // measure 30
0200
2300
3020
0032
,  // measure 31
2003
0000
3001
0000
1000
0100
0000
0010
,  // measure 32
2000
0000
3010
0001
0100
0000
0010
1000
,  // measure 33
0001
0000
0010
0100
1000
0000
0001
0000
0100
0000
0000
0000
0010
0000
1000
0000
,  // measure 34
0002
0023
2030
3200
,  // measure 35
0302
0000
1003
0000
2100
0000
3001
0100
,  // measure 36
0010
0000
1000
0001
0010
0000
0001
0000
2000
0000
0000
0000
3001
0000
0100
0000
,  // measure 37
0010
0000
1000
0001
0010
0000
0100
0000
2000
0000
0000
0000
3001
0000
1000
0000
,  // measure 38
0200
0302
0023
2030
,  // measure 39
3002
0000
1003
0000
0001
0100
0000
0010
,  // measure 40
0002
0000
0013
1000
0100
0000
0010
0001
,  // measure 41
1000
0000
0010
0100
0001
0000
1000
0000
0100
0000
0000
0000
0010
0000
0001
0000
,  // measure 42
2000
3020
0032
0203
,  // measure 43
2300
3000
MMMM
0000
,  // measure 44
0000
0000
0000
0000
,  // measure 45
0M00
00M0
0M00
00M0
0M00
00M0
0000
00M0
0M00
00M0
0M00
00M0
0M00
0000
0000
0000
0000
0000
0000
0000
0000
0000
0000
0000
,  // measure 46
0001
0000
1000
0000
1000
0000
0010
1000
0100
0000
1000
0001
0100
0000
0010
0000
,  // measure 47
1000
0000
0001
0000
0001
0000
0010
0001
0100
0000
0010
1000
0001
0000
1000
0000
,  // measure 48
0001
0010
0001
0010
0100
0000
1000
0010
1000
0010
0100
0000
0001
0010
0001
0010
,  // measure 49
0100
1000
0001
1000
0001
0001
1000
1000
,  // measure 50
0001
0000
1000
0000
1000
0000
0100
1000
0010
0000
1000
0001
0010
0000
0100
0000
,  // measure 51
1000
0000
0001
0000
0001
0000
0100
0001
0010
0000
0100
1000
0001
0000
1000
0000
,  // measure 52
0001
0100
0001
0100
0010
0000
1000
0100
1000
0100
0010
0000
0001
1000
0001
1000
,  // measure 53
0100
0000
0001
0000
0100
1000
0001
0000
,  // measure 54
1000
0000
0010
0000
1000
0000
0100
0000
0010
0000
0100
1000
0001
0000
0100
0000
,  // measure 55
0010
0000
1000
0000
0001
0000
0100
0001
0010
0000
0100
1000
0010
0000
0100
0000
,  // measure 56
0001
1000
0001
0010
0100
0010
1000
0000
,  // measure 57
0010
0000
0001
0000
1000
0000
0100
1000
0010
0000
0100
0001
0010
0000
0100
1000
,  // measure 58
0002
0000
1003
0001
1000
0010
0100
0001
,  // measure 59
0010
0000
0100
1000
0001
0000
0100
0000
0010
0000
0100
0000
0001
0000
1000
0000
,  // measure 60
0002
0000
0013
0100
1000
0010
1000
0001
,  // measure 61
0101
0000
0000
1001
0000
0000
0101
0000
0001
0000
0100
0000
0010
0000
1000
0000
,  // measure 62
1100
0000
0000
1001
0000
0000
1100
0000
1000
0000
0010
0000
0100
0000
0000
0000
,  // measure 63
1002
0000
0103
0001
2000
0000
3010
1000
,  // measure 64
2002
3003
2002
3003
2002
0000
3003
0000
2100
0000
0000
0000
3001
0000
0100
0000
,  // measure 65
0010
0000
1000
0001
0010
0000
0001
0000
2000
0000
0000
0000
3001
0000
0100
0000
,  // measure 66
0010
0000
1000
0001
0010
0000
0100
0000
2000
0000
0000
0000
3001
0000
1000
0000
,  // measure 67
0200
0302
0023
2030
,  // measure 68
3002
0000
1003
0000
0001
0100
0000
0010
,  // measure 69
0002
0000
0013
1000
0100
0000
0010
0001
,  // measure 70
1000
0000
0010
0100
0001
0000
1000
0000
0100
0000
0000
0000
0010
0000
0001
0000
,  // measure 71
2000
3020
0032
0203
,  // measure 72
2300
0000
3000
0000
0001
0100
0010
1000
,  // measure 73
0001
0000
0010
0001
0100
0000
0010
0000
1000
0000
0100
0000
0010
0000
0001
0000
,  // measure 74
1000
0000
0010
1000
0100
0000
0010
0000
0001
0000
1000
0000
0100
0000
0010
0000
,  // measure 75
0001
0100
0010
1000
0200
0000
0302
0000
,  // measure 76
0023
0000
1030
0000
0001
0010
0100
0010
,  // measure 77
1000
0000
0010
0100
1000
0000
0001
0000
1000
0000
0010
0000
0100
0000
0001
0000
,  // measure 78
1000
0000
0100
1000
0010
0000
0100
0000
0001
0000
1000
0000
0100
0000
0010
0000
,  // measure 79
0001
1000
0010
0100
2000
0000
3020
0000
,  // measure 80
0032
0000
0003
0000
1000
0100
0010
0100
,  // measure 81
0001
0000
0100
0010
0001
0000
1000
0000
0001
0000
0100
0000
0010
0000
1000
0000
,  // measure 82
0001
0000
0010
0001
0100
0000
0010
0000
1000
0000
0001
0000
0010
0000
0100
0000
,  // measure 83
1000
0001
0100
0010
0002
0000
0203
0000
,  // measure 84
2300
3000
0000
0000
;

//---------------dance-single - ----------------
#NOTEDATA:;
#CHARTNAME:;
#STEPSTYPE:dance-single;
#DESCRIPTION:;
#CHARTSTYLE:;
#DIFFICULTY:Beginner;
#METER:3;
#RADARVALUES:0.207179,0.247892,0.016863,0.000000,0.000000,172.000000,170.000000,2.000000,0.000000,0.000000,0.000000,0.000000,0.000000,0.000000,0.207179,0.247892,0.016863,0.000000,0.000000,172.000000,170.000000,2.000000,0.000000,0.000000,0.000000,0.000000,0.000000,0.000000;
#CREDIT:BlindedVanguard573;
#DISPLAYBPM:170.000000;
#NOTES:
0000
0000
0000
0000
,
0000
0000
0000
0000
,
0000
0000
0000
0000
,
0000
0000
0000
0000
,
0000
0000
0000
0000
,
1000
0000
1000
0000
,
0001
0000
0001
0000
,
0010
0000
0010
0000
,
0100
0000
0100
0100
,
0100
0000
1000
0000
,
0001
0000
0010
0000
,
0001
0000
0100
0000
,
0010
0000
1000
1000
,
1000
0000
0100
0000
,
0010
0000
0001
0000
,
1000
0000
0010
0000
,
0100
0100
0100
0100
,
0100
0000
0010
0000
,
1000
1000
1000
1000
,
1000
0000
0100
0000
,
0010
0010
0010
0010
,
0010
0000
0001
0000
,
0100
0000
0010
0000
,
1000
0000
0001
0000
,
0010
0010
0010
0000
,
0100
0100
0100
0000
,
1000
0000
0001
0000
,
1001
0000
0000
0000
,
0000
0000
0010
0000
,
0000
0000
0100
0000
,
1000
0000
0001
0001
,
0001
0000
0100
0000
,
0000
0000
0010
0000
,
0000
0000
1000
0000
,
0001
0000
0010
0010
,
0010
0000
0100
0000
,
1000
0000
0001
0000
,
0010
0000
0001
0000
,
1000
0000
0010
0010
,
0010
0000
0100
0000
,
0001
0000
1000
0000
,
0100
0000
0010
0000
,
0001
0000
0100
0100
,
0100
0000
0000
0000
,
0000
0000
0000
0000
,
0000
0000
0000
0000
,
0001
0000
0000
0000
,
0010
0000
0000
0000
,
0100
0100
0100
0100
,
0100
0000
1000
0000
,
0001
0000
0000
0000
,
0100
0000
0000
0000
,
0010
0010
0010
0010
,
0010
0000
1000
0000
,
0100
0000
0010
0000
,
0001
0001
0001
0001
,
0001
0000
0100
0000
,
0010
0010
0010
0010
,
0010
0000
1000
0000
,
0100
0000
0010
0000
,
0001
0000
1000
0000
,
0010
0010
0010
0000
,
0100
0100
0100
0000
,
0001
0000
1000
0000
,
1001
0000
0000
0000
,
0000
0000
0010
0000
,
0000
0000
0100
0000
,
0001
0000
1000
1000
,
1000
0000
0100
0000
,
0000
0000
0010
0000
,
0000
0000
0001
0000
,
1000
0000
0010
0010
,
0010
0000
0100
0000
,
0001
0000
1000
0000
,
0010
0000
1000
0000
,
0001
0000
0010
0010
,
0010
0000
0100
0000
,
1000
0000
0001
0000
,
0100
0000
0010
0000
,
1000
0000
0100
0100
,
0100
0000
0010
0000
,
0001
0000
0100
0000
,
0010
0000
1000
1000
,
1000
0000
0001
0001
,
0001
0000
0000
0000
;

//---------------dance-single - ----------------
#NOTEDATA:;
#CHARTNAME:;
#STEPSTYPE:dance-single;
#DESCRIPTION:;
#CHARTSTYLE:;
#DIFFICULTY:Easy;
#METER:7;
#RADARVALUES:0.377018,0.461741,0.168634,0.151771,0.000000,313.000000,293.000000,20.000000,18.000000,0.000000,0.000000,0.000000,0.000000,0.000000,0.377018,0.461741,0.168634,0.151771,0.000000,313.000000,293.000000,20.000000,18.000000,0.000000,0.000000,0.000000,0.000000,0.000000;
#CREDIT:BlindedVanguard573;
#DISPLAYBPM:170.000000;
#NOTES:
// measure 0
0000
0000
0000
0000
,  // measure 1
0000
0000
0000
0000
,  // measure 2
0000
0000
0000
0000
,  // measure 3
0000
0000
0000
0000
,  // measure 4
0000
0000
0000
0000
,  // measure 5
0001
0100
0001
0001
,  // measure 6
1000
0100
1000
1000
,  // measure 7
0001
0010
0001
0001
,  // measure 8
1000
0010
0100
1001
,  // measure 9
0001
0100
0010
0010
,  // measure 10
1000
0100
0010
0010
,  // measure 11
0001
0010
0100
0100
,  // measure 12
1000
0010
0100
1001
,  // measure 13
1000
0010
0100
0100
,  // measure 14
0001
0010
0100
0100
,  // measure 15
1000
0100
0010
0010
,  // measure 16
0001
1000
1000
1000
,  // measure 17
0001
0100
0010
1000
,  // measure 18
0001
0011
1000
1010
,  // measure 19
0001
0010
0100
1000
,  // measure 20
0001
0101
1000
1100
,  // measure 21
2000
3000
0001
0010
,  // measure 22
0100
1000
0100
0010
,  // measure 23
0002
0003
0100
0010
,  // measure 24
1000
1000
0010
1000
,  // measure 25
0001
0001
0010
0001
,  // measure 26
1000
0000
0001
0000
,  // measure 27
2002
3003
2002
3003
2002
0000
3003
0000
0001
0000
0000
0000
0010
0000
0000
0000
,  // measure 28
1000
0010
0001
0100
,  // measure 29
1000
0100
0001
0010
,  // measure 30
1000
0100
0001
1000
,  // measure 31
0001
0000
1000
0100
,  // measure 32
0001
0100
1000
0010
,  // measure 33
0001
0010
1000
0100
,  // measure 34
0001
0010
1000
0001
,  // measure 35
1000
1001
1000
0010
,  // measure 36
0001
0010
1000
0100
,  // measure 37
0001
0100
1000
0010
,  // measure 38
0001
0100
1000
0001
,  // measure 39
1000
0000
0001
0100
,  // measure 40
1000
0100
0001
0010
,  // measure 41
1000
0010
0001
0100
,  // measure 42
1000
0010
0001
1000
,  // measure 43
0000
0000
0000
0000
,  // measure 44
0000
0000
0000
0000
,  // measure 45
0000
0000
0000
0000
,  // measure 46
0001
0010
0001
0001
,  // measure 47
1000
0010
1000
1000
,  // measure 48
0001
0001
0001
0001
,  // measure 49
0001
0010
0100
1000
,  // measure 50
0001
0100
0001
0001
,  // measure 51
1000
0100
1000
1000
,  // measure 52
0001
0100
1000
0100
,  // measure 53
0001
1000
1001
0000
,  // measure 54
1000
0100
0010
0001
,  // measure 55
1000
1010
0001
0011
,  // measure 56
1000
0010
0100
0001
,  // measure 57
1000
1100
0001
0101
,  // measure 58
0002
0003
1000
0010
,  // measure 59
0100
0001
0100
0010
,  // measure 60
2000
3000
0100
0010
,  // measure 61
0001
0001
0010
0001
,  // measure 62
1000
1000
0010
1000
,  // measure 63
0001
0000
1000
0000
,  // measure 64
2002
3003
2002
3003
2002
0000
3003
0000
1000
0000
0000
0000
0010
0000
0000
0000
,  // measure 65
0001
0010
1000
0100
,  // measure 66
0001
0100
1000
0010
,  // measure 67
0001
0100
1000
0001
,  // measure 68
1000
0000
0001
0100
,  // measure 69
1000
0100
0001
0010
,  // measure 70
1000
0010
0001
0100
,  // measure 71
1000
0010
0001
1000
,  // measure 72
0001
1001
0001
0010
,  // measure 73
1000
0010
0001
0100
,  // measure 74
1000
0100
0001
0010
,  // measure 75
1000
0100
0001
1000
,  // measure 76
0001
0000
1000
0100
,  // measure 77
0001
0100
1000
0010
,  // measure 78
0001
0010
1000
0100
,  // measure 79
0001
0010
1000
0001
,  // measure 80
1000
0000
0001
0100
,  // measure 81
1000
0100
0001
0010
,  // measure 82
1000
0010
0001
0100
,  // measure 83
1000
0010
0001
1000
,  // measure 84
2002
3003
0000
0000
;

//---------------dance-single - ----------------
#NOTEDATA:;
#CHARTNAME:;
#STEPSTYPE:dance-single;
#DESCRIPTION:;
#CHARTSTYLE:;
#DIFFICULTY:Medium;
#METER:12;
#RADARVALUES:0.549265,0.603815,0.463744,0.269814,0.016863,456.000000,401.000000,55.000000,32.000000,0.000000,0.000000,0.000000,0.000000,0.000000,0.549265,0.603815,0.463744,0.269814,0.016863,456.000000,401.000000,55.000000,32.000000,0.000000,0.000000,0.000000,0.000000,0.000000;
#CREDIT:BlindedVanguard573;
#DISPLAYBPM:170.000000;
#NOTES:
// measure 0
0000
0000
0000
0000
,  // measure 1
0000
0000
0000
0000
,  // measure 2
0000
0000
0000
0000
,  // measure 3
0000
0000
0000
0000
,  // measure 4
0000
0000
0000
0000
,  // measure 5
1000
0001
0001
0000
0101
0000
1010
0000
,  // measure 6
1000
0001
0001
0000
0011
0000
1100
0000
,  // measure 7
0001
1000
1000
0000
0101
0000
1010
0000
,  // measure 8
1001
0000
1000
0100
0001
0100
1000
0000
,  // measure 9
0001
0100
0100
0000
1010
0000
1001
0000
,  // measure 10
1000
0100
0100
0000
0011
0000
1001
0000
,  // measure 11
0001
0010
0010
0000
1100
0000
1001
0000
,  // measure 12
0101
0000
0001
0100
1000
0100
0001
0000
,  // measure 13
1000
0010
0010
0000
0101
0000
0011
0000
,  // measure 14
1000
0100
0100
0000
0011
0000
0101
0000
,  // measure 15
0010
1000
1000
0000
1100
0000
1010
0000
,  // measure 16
0001
1000
0001
1000
0001
0001
1000
1000
,  // measure 17
0002
0000
0103
0000
1000
0100
0001
0000
,  // measure 18
0010
1001
0100
1001
,  // measure 19
2000
0000
3001
0000
1000
0100
0001
0000
,  // measure 20
0100
1001
0010
1001
,  // measure 21
0002
0010
2003
0100
,  // measure 22
3001
0100
0010
0000
1000
0010
0100
0001
,  // measure 23
2000
0100
3002
0010
,  // measure 24
1003
0000
0000
1000
0000
0000
1000
0000
0010
0000
0100
0000
0001
0000
1000
0000
,  // measure 25
0001
0000
0000
0001
0000
0000
0001
0000
0010
0000
0100
0000
1000
0000
0000
0000
,  // measure 26
0102
1003
2100
3001
,  // measure 27
2002
3003
2002
3003
2002
0000
3003
0000
0101
0000
0000
0000
0100
0000
0001
0000
,  // measure 28
1000
0000
1000
0100
0010
0000
0010
0001
,  // measure 29
0100
0000
0100
0010
1000
0000
1000
0001
,  // measure 30
1000
0100
0001
0010
,  // measure 31
1000
0000
0001
0000
1000
0010
0000
0100
,  // measure 32
1000
0000
1000
0100
0010
0000
0010
1000
,  // measure 33
0100
0000
0100
0010
0001
0000
0001
1000
,  // measure 34
0001
0100
1000
0010
,  // measure 35
0001
0000
1000
0000
1100
0000
0100
1000
,  // measure 36
0001
0000
0001
0100
0010
0000
0010
1000
,  // measure 37
0100
0000
0100
0010
0001
0000
0001
1000
,  // measure 38
0001
0100
1000
0010
,  // measure 39
0001
0000
1000
0000
0001
0010
0000
0100
,  // measure 40
0001
0000
0001
0100
0010
0000
0010
0001
,  // measure 41
0100
0000
0100
0010
1000
0000
1000
0001
,  // measure 42
1000
0100
0001
0010
,  // measure 43
1000
0001
0000
0000
,  // measure 44
0000
0000
0000
0000
,  // measure 45
0000
0000
0000
0000
,  // measure 46
0001
0100
0100
0000
1010
0000
0101
0000
,  // measure 47
1000
0100
0100
0000
0011
0000
1100
0000
,  // measure 48
0001
0001
0001
1000
1000
1000
0001
0001
,  // measure 49
0001
0011
1001
0101
,  // measure 50
0001
0010
0010
0000
1100
0000
1010
0000
,  // measure 51
1000
0100
0100
0000
0011
0000
0101
0000
,  // measure 52
0001
0001
0001
1000
1000
1000
0001
0001
,  // measure 53
0001
0011
2010
3001
,  // measure 54
2000
0000
3010
0000
0001
0010
1000
0000
,  // measure 55
0100
1001
0010
1001
,  // measure 56
0002
0000
1003
0000
0001
0010
1000
0000
,  // measure 57
0010
1001
0100
1001
,  // measure 58
2000
0100
3002
0010
,  // measure 59
1003
0010
0100
0000
0001
0100
0010
1000
,  // measure 60
0002
0010
2003
0100
,  // measure 61
3001
0000
0000
0001
0000
0000
0001
0000
0100
0000
0010
0000
1000
0000
0001
0000
,  // measure 62
1000
0000
0000
1000
0000
0000
1000
0000
0100
0000
0010
0000
0001
0000
0000
0000
,  // measure 63
2010
3001
0012
1003
,  // measure 64
2002
3003
2002
3003
2002
0000
3003
0000
1010
0000
0000
0000
0010
0000
1000
0000
,  // measure 65
0001
0000
0001
0010
0100
0000
0100
1000
,  // measure 66
0010
0000
0010
0100
0001
0000
0001
1000
,  // measure 67
0001
0010
1000
0100
,  // measure 68
0001
0000
1000
0000
0001
0100
0000
0010
,  // measure 69
0001
0000
0001
0010
0100
0000
0100
0001
,  // measure 70
0010
0000
0010
0100
1000
0000
1000
0001
,  // measure 71
1000
0010
0001
0100
,  // measure 72
2000
0000
3000
0000
0011
0000
0010
0001
,  // measure 73
1000
0000
1000
0010
0100
0000
0100
0001
,  // measure 74
0010
0000
0010
0100
1000
0000
1000
0001
,  // measure 75
1000
0010
0001
0100
,  // measure 76
1000
0000
0001
0000
1000
0100
0000
0010
,  // measure 77
1000
0000
1000
0010
0100
0000
0100
1000
,  // measure 78
0010
0000
0010
0100
0001
0000
0001
1000
,  // measure 79
0001
0010
1000
0100
,  // measure 80
0002
0000
0003
0000
1000
0010
0000
0100
,  // measure 81
1000
0000
1000
0100
0010
0000
0010
1000
,  // measure 82
0100
0000
0100
0010
0001
0000
0001
1000
,  // measure 83
0001
0100
1000
0010
,  // measure 84
0002
0003
0000
0000
;
