#VERSION:0.83;
#TITLE:テレパシ;
#SUBTITLE:feat. 初音ミク;
#ARTIST:DECO*27;
#TITLETRANSLIT:Telepathy;
#SUBTITLETRANSLIT:feat. Hatsune Miku;
#ARTISTTRANSLIT:;
#GENRE:Vocaloid Rock;
#ORIGIN:;
#CREDIT:;
#BANNER:Telepathy feat. Hatsune Miku.png;
#BACKGROUND:Telepathy feat. Hatsune Miku-bg.png;
#PREVIEWVID:;
#JACKET:Telepathy feat. Hatsune Miku-jacket.png;
#CDIMAGE:;
#DISCIMAGE:;
#LYRICSPATH:;
#CDTITLE:cdtitle.png;
#MUSIC:Telepathy feat. Hatsune Miku.ogg;
#OFFSET:0.426000;
#SAMPLESTART:41.720341;
#SAMPLELENGTH:18.731709;
#SELECTABLE:YES;
#BPMS:0.000=205.000;
#STOPS:;
#DELAYS:;
#WARPS:312.000=16.000;
#TIMESIGNATURES:0.000=4=4;
#TICKCOUNTS:0.000=4;
#COMBOS:0.000=1;
#SPEEDS:0.000=1.000=0.000=0,
308.000=0.500=0.000=0,
328.000=1.000=0.000=0;
#SCROLLS:0.000=1.000,
124.000=0.000,
126.000=1.000,
308.000=0.000,
312.000=1.000,
320.000=2.000,
328.000=0.000,
331.000=1.000,
352.000=0.000,
355.000=1.000;
#FAKES:;
#LABELS:0.000=Song Start,
124.000=Healing Miku (Angelic Mix),
312.000=Miku^2;
#BGCHANGES:0.750=Telepathy feat. Hatsune Miku.mp4=1.000=1=0=1===CrossFade==,
480.000=Telepathy-bg.png=1.000=1=0=1===CrossFade==,
99999=-nosongbg-=1.000=0=0=0 // don't automatically add -songbackground-
;
#KEYSOUNDS:;
#ATTACKS:
;

//---------------dance-single - ----------------
#NOTEDATA:;
#CHARTNAME:;
#STEPSTYPE:dance-single;
#DESCRIPTION:;
#CHARTSTYLE:;
#DIFFICULTY:Challenge;
#METER:15;
#RADARVALUES:0.742568,0.827610,0.370247,0.842130,0.326688,716.000000,665.000000,51.000000,116.000000,23.000000,0.000000,0.000000,0.000000,37.000000,0.742568,0.827610,0.370247,0.842130,0.326688,716.000000,665.000000,51.000000,116.000000,23.000000,0.000000,0.000000,0.000000,37.000000;
#CREDIT:;
#OFFSET:0.426000;
#BPMS:0.000000=205.000000
;
#STOPS:;
#DELAYS:;
#WARPS:312.000000=16.000000
;
#TIMESIGNATURES:0.000000=4=4
;
#TICKCOUNTS:0.000000=4
;
#COMBOS:0.000000=1
;
#SPEEDS:0.000000=1.000000=0.000000=0
,308.000000=0.500000=0.000000=0
,328.000000=1.000000=0.000000=0
;
#SCROLLS:0.000000=1.000000
,124.000000=0.000000
,126.000000=1.000000
,307.500000=4.000000
,308.000000=0.000000
,312.000000=1.000000
,320.000000=2.000000
,328.000000=0.000000
,331.000000=1.000000
,352.000000=0.000000
,355.000000=1.000000
;
#FAKES:;
#LABELS:0.000000=Song Start
,124.000000=Healing Miku (Angelic Mix)
,312.000000=Miku^2
;
#NOTES:
0000
0000
0000
0000
,
0000
0000
0000
0000
,
0000
0000
0000
0000
,
1100
0011
0101
1010
,
0002
0000
0023
0000
1030
0010
0100
0020
,
0000
0000
0032
0000
0000
0000
1003
0001
1000
0000
0000
0000
1001
0000
0000
0000
,
0002
0000
0203
0000
1300
0100
0010
0200
,
0000
0000
0302
0000
0000
0000
1003
0001
1000
0000
0010
0000
0100
0000
0001
0000
,
2000
0000
3200
0000
0301
0100
0010
0200
,
0000
0000
2300
0000
0000
0000
3001
1000
0001
0000
0000
0000
1001
0000
0000
0000
,
2000
0000
3020
0000
0031
0010
0100
0020
,
0000
0000
2030
0000
0000
0000
3001
1000
0001
0000
0010
0000
0100
0000
1000
0000
,
0001
0000
0010
0100
,
1000
0000
0010
0100
,
0001
0000
1000
0000
0100
0000
0010
0100
,
0000
0100
0000
0100
0000
0000
0010
0000
,
0001
0000
0000
0000
1000
0000
0000
0000
0010
0000
0000
0010
0100
0000
0010
0000
,
1000
0000
0000
0000
0001
0000
0000
0000
0010
0000
0000
0010
0100
0000
0010
0000
,
0001
0000
1000
0010
0100
0001
1000
0100
,
0000
0100
0000
0100
0010
0001
2000
0000
,
3001
0000
0100
0010
0100
0000
0010
0000
1000
0000
0100
0000
1000
0000
0100
0000
,
0010
0000
0001
1000
0001
0000
0100
0000
0010
0000
0100
0000
0001
0000
1000
0000
,
0200
03M0
0200
0300
0001
0100
0010
1000
,
0000
1001
0000
1001
0000
0001
0002
0000
,
1003
0000
0100
0010
0100
0000
0010
0000
0001
0000
0100
0000
0001
0000
0100
0000
,
0010
0000
1000
0001
1000
0000
0100
0000
0010
0000
0100
0000
1000
0000
0001
0000
,
0200
03M0
0200
0300
1000
0100
0010
0001
,
0000
1001
0001
0200
0000
0301
0100
0010
,
1000
0000
1000
0010
2000
0000
0010
0000
,
3001
1000
0100
0010
0002
0000
0010
0000
,
1003
0010
0100
0001
0020
0000
0031
1000
,
0020
0030
0000
0000
0000
0000
0000
0000
0000
0000
0000
0000
0000
0000
0000
0000
0000
0000
0000
0000
0000
0000
0000
0000
0000
0000
0000
0000
0000
0000
0000
0000
0000
0000
0000
0000
0000
0000
0000
0000
0001
0000
0000
0000
0000
0000
0000
0000
0010
0000
0000
0000
0000
0000
0000
0000
0100
0000
0000
0000
0000
0000
0000
0000
,
1000
0000
1000
0010
1000
0010
0100
0001
,
1000
0000
0001
0010
0001
0010
0100
1000
,
0001
0100
0100
0001
0010
0010
0001
1001
,
0000
0101
0000
1010
2020
0000
3030
0000
,
0002
0000
0023
0000
2030
0000
3001
0100
,
1000
0000
0002
0000
0000
0000
0013
0100
0010
0000
0100
0000
1000
0000
0020
0000
,
0000
1030
0010
0100
0010
1000
0100
0010
,
0200
0001
0320
1000
,
0032
0000
0203
0000
2300
0000
3001
0010
,
1000
0000
0002
0000
0000
0000
1003
0100
0010
0000
0100
0000
0010
0000
0002
0000
,
0000
0000
1003
0000
0010
0M00
0010
0000
0001
0000
0100
00M0
0100
0000
1000
0000
,
1100
0110
0011
2001
,
0MMM
0000
3020
0000
0032
0000
1003
0100
,
0001
0000
2000
0000
0000
0000
3010
0100
0010
0000
0100
0000
0001
0000
0020
0000
,
0000
0031
0010
0100
0010
0001
0100
0010
,
0200
1000
0320
0001
,
2030
0000
3200
0000
0302
0000
1003
0010
,
0001
0000
2000
0000
0000
0000
3001
0100
0010
0000
0100
0000
0010
0000
2000
0000
,
0000
0000
3001
0000
0010
0M00
0010
0000
1000
0000
0100
00M0
0100
0000
0001
0000
,
0101
0110
1010
0001
,
2000
0000
3200
0000
0301
0100
0010
0200
,
0000
0000
2300
0000
0000
0000
3001
1000
0001
0000
0000
0000
1001
0000
0000
0000
,
2000
0000
3020
0000
0031
0010
0100
0020
,
0000
0000
2030
0000
0000
0000
3001
1000
0001
0000
0100
0000
0010
0000
1000
0000
,
0002
0000
0023
0000
1030
0010
0100
0020
,
0000
0000
0032
0000
0000
0000
1003
0001
1000
0000
0000
0000
1001
0000
0000
0000
,
0002
0000
0203
0000
1300
0100
0010
0200
,
0000
0000
0000
0000
0000
0000
0302
0000
0000
0000
0000
0000
0000
0000
0000
0000
0000
0000
1003
0000
0000
0001
0000
0000
1000
0000
0000
0000
0000
0000
0000
0000
0100
0000
0000
0000
0010
0000
0000
0000
0000
0000
0000
0000
0001
0000
0000
0000
,
1000
0000
0000
0000
0000
0001
0100
0000
0000
0010
0000
0000
,
1000
0000
0000
0000
0000
1000
0100
0000
0000
0010
0000
0000
,
0001
0000
0000
1000
0000
0000
0010
0000
0000
0100
0000
0001
,
0000
0000
1000
0000
0000
0001
0010
0000
0100
1000
0100
1000
,
0002
0000
0000
0103
0000
0010
1000
0000
1000
0000
0000
0001
,
0020
0000
0000
0030
,
0110
0000
0000
0000
0000
1000
0001
0000
0100
0000
0000
0020
,
0000
0000
1030
0010
0100
0001
1000
0000
0000
1002
0000
0000
,
1003
0000
0100
0010
0100
0000
1000
0000
0010
0000
1000
0000
0100
0000
1000
0000
,
0010
0000
0100
0010
0100
0000
0001
0000
0010
0000
0100
0000
1000
0000
0001
0000
,
0200
03M0
0200
0300
1000
0010
1000
0100
,
0000
1001
0000
1001
0000
1000
2000
0000
,
3001
0000
0100
0010
0100
0000
0001
0000
0010
0000
0001
0000
0100
0000
0001
0000
,
0010
0000
0100
0010
0100
0000
1000
0000
0010
0000
0100
0000
0001
0000
1000
0000
,
0200
03M0
0200
0300
0001
0010
0001
0100
,
0000
0000
1001
0000
1000
0000
0200
0000
0000
0000
0000
0000
0300
0000
0010
0001
,
1000
0000
1000
0000
0001
0000
0001
0000
1000
0001
1000
0001
2000
0000
0002
0000
,
3003
0000
0000
0000
,
1000
0000
0000
0001
0000
0000
0100
0000
0001
0000
0100
0000
0001
0000
0000
1000
0000
0000
0010
0000
0000
0100
0000
0000
0001
0000
0000
0100
0000
0000
0001
0000
0000
1000
0000
0000
0100
0000
1000
0000
0100
0000
0000
0000
1000
0000
0000
0000
,
0001
1000
0001
0000
0100
0000
0001
0100
0001
0000
0100
0001
0100
0001
0100
0001
0000
1000
0001
1000
0001
0000
1000
0100
,
1000
0000
0000
0000
,
0000
0000
0000
0000
,
0000
0000
0000
0000
,
1001
0000
0001
0100
0001
0100
0010
1000
,
0100
0000
1000
0100
1000
0100
0010
0001
,
0100
0010
0010
1000
0001
0001
0010
0110
,
0000
1100
0000
0002
0000
1003
0010
0110
,
0000
0101
0000
2000
0001
0001
0002
0000
,
3003
0000
0000
0000
,
0001
1000
0001
0000
0000
0000
0022
0000
0000
0000
0033
0000
0000
0000
1010
0000
,
0000
0000
0101
0000
0100
0001
0010
0001
,
0200
1000
0320
0001
,
2030
0000
3200
0000
0302
0000
1003
0010
,
0001
0000
0200
0000
0000
0000
0310
0100
0001
0000
1000
0000
0100
0000
0020
0000
,
0000
0000
0031
0000
0100
00M0
0100
0000
1000
0000
0010
0M00
0010
0000
0001
0000
,
1000
0010
1010
0000
0001
0010
0011
0000
,
0001
1000
0001
0000
0200
0000
0000
0000
0310
0000
0000
0110
0000
0000
0110
0000
,
0000
0000
0000
0000
1001
0000
0000
0001
0010
0000
0100
0000
1000
0000
0002
0000
,
0000
0103
0001
1000
0100
1000
0010
1000
,
0200
0001
0320
1000
,
0032
0000
0203
0000
2300
0000
3001
0010
,
1000
0000
0200
0000
0000
0000
0310
0100
1000
0000
0001
0000
0100
0000
0020
0000
,
0000
0000
1030
0000
0100
00M0
0100
0000
0001
0000
0010
0M00
0010
0000
1000
0000
,
1010
0110
0101
1000
,
0002
0000
0000
0000
1003
0000
0010
0M00
0020
0000
0000
0000
0031
0000
0100
0000
,
00M0
0000
0100
0000
0000
0000
1000
0001
1000
0000
0001
0000
0100
0000
0010
0000
,
2000
0000
0000
0000
3001
0000
0100
00M0
0200
0000
0000
0000
1300
0000
1010
0000
,
0M00
0011
0000
0001
0100
0010
0100
0010
,
2000
0000
0000
0000
3001
0000
0010
0M00
0020
0000
0000
0000
1030
0000
0100
0000
,
00M0
0000
0100
0000
0000
0000
0001
1000
0001
0000
1000
0000
0100
0000
0010
0000
,
0002
0000
0000
0000
1003
0000
0100
00M0
0200
0000
0000
0000
0301
0000
0011
0000
,
0M00
1010
0000
1000
0100
0010
0001
0100
,
0020
0000
1000
0000
0001
0000
1030
0010
,
1000
0000
0200
0000
0000
0000
0310
0001
0010
0000
0001
0000
0100
0000
0010
0000
,
1000
0000
0110
0000
1001
0000
1000
0100
,
0010
0002
0000
0203
0000
0310
1000
0100
,
0020
0000
0001
0000
1000
0000
0031
0010
,
0001
0000
0200
0000
0000
0000
0310
1000
0010
0000
1000
0000
0100
0000
0010
0000
,
0001
0100
0001
0100
0001
0010
0001
0100
,
1100
0000
0101
0000
1000
0010
1000
0100
,
0001
0000
0000
0000
;

//---------------dance-single - ----------------
#NOTEDATA:;
#CHARTNAME:;
#STEPSTYPE:dance-single;
#DESCRIPTION:;
#CHARTSTYLE:;
#DIFFICULTY:Hard;
#METER:13;
#RADARVALUES:0.603595,0.696935,0.428325,0.885688,0.112526,582.000000,523.000000,59.000000,122.000000,0.000000,0.000000,0.000000,0.000000,37.000000,0.603595,0.696935,0.428325,0.885688,0.112526,582.000000,523.000000,59.000000,122.000000,0.000000,0.000000,0.000000,0.000000,37.000000;
#CREDIT:;
#OFFSET:0.426000;
#BPMS:0.000000=205.000000
;
#STOPS:;
#DELAYS:;
#WARPS:312.000000=16.000000
;
#TIMESIGNATURES:0.000000=4=4
;
#TICKCOUNTS:0.000000=4
;
#COMBOS:0.000000=1
;
#SPEEDS:0.000000=1.000000=0.000000=0
,308.000000=0.500000=0.000000=0
,328.000000=1.000000=0.000000=0
;
#SCROLLS:0.000000=1.000000
,124.000000=0.000000
,126.000000=1.000000
,307.500000=4.000000
,308.000000=0.000000
,312.000000=1.000000
,320.000000=2.000000
,328.000000=0.000000
,331.000000=1.000000
,352.000000=0.000000
,355.000000=1.000000
;
#FAKES:;
#LABELS:0.000000=Song Start
,124.000000=Huh?
,312.000000=Miku^2
;
#NOTES:
// measure 0
0000
0000
0000
0000
,  // measure 1
0000
0000
0000
0000
,  // measure 2
0000
0000
0000
0000
,  // measure 3
1100
0011
0101
1010
,  // measure 4
0002
0000
0023
0000
2030
0000
3000
0020
,  // measure 5
0000
2030
0000
3010
0001
0000
0011
0000
,  // measure 6
0002
0000
0203
0000
2300
0000
3000
0200
,  // measure 7
0000
2300
0000
3100
0010
0100
0001
0000
,  // measure 8
2000
0000
3200
0000
0302
0000
0003
0200
,  // measure 9
0000
0302
0000
0103
1000
0000
1100
0000
,  // measure 10
2000
0000
3020
0000
0032
0000
0003
0020
,  // measure 11
0000
0032
0000
0013
0100
0010
1000
0000
,  // measure 12
0001
0000
0010
0100
,  // measure 13
1000
0000
0010
0100
,  // measure 14
0001
0000
1000
0000
0100
0000
0010
0100
,  // measure 15
0000
0100
0000
0100
0000
0000
0010
0000
,  // measure 16
0001
0000
1000
0000
0010
0000
0100
0010
,  // measure 17
1000
0000
0001
0000
0010
0000
0100
0010
,  // measure 18
0001
0000
1000
0000
0001
1000
0001
0100
,  // measure 19
0000
0100
0000
0100
0010
0000
2000
0000
,  // measure 20
3001
0010
0100
0000
0100
0010
0001
0000
,  // measure 21
0001
0100
0010
0000
0010
0100
0001
1000
,  // measure 22
0200
0300
0020
0030
0100
0010
0001
1000
,  // measure 23
0000
1001
0000
1001
0000
0001
0002
0000
,  // measure 24
1003
0010
0100
0000
0100
0010
1000
0000
,  // measure 25
1000
0100
0010
0000
0010
0100
1000
0001
,  // measure 26
0200
0300
0020
0030
0100
0010
1000
0001
,  // measure 27
0000
0011
0000
2200
0000
3300
0000
1000
,  // measure 28
2000
0000
0100
0000
0001
0000
3010
0100
,  // measure 29
0002
0000
0100
0000
1000
0000
0013
0100
,  // measure 30
1000
0000
0001
0100
0020
0000
1030
0001
,  // measure 31
0010
0000
0000
0001
,  // measure 32
0011
0001
0100
0010
,  // measure 33
1010
1000
0100
0010
,  // measure 34
0110
0000
0100
1000
0001
0100
0010
0020
,  // measure 35
0000
2030
0000
0001
0002
0000
3003
0000
,  // measure 36
0002
0000
0023
0000
2030
0000
3010
1000
,  // measure 37
0010
0001
0000
0022
0000
0033
0000
1010
,  // measure 38
0000
1000
0010
0100
0010
1000
0010
0100
,  // measure 39
0002
0010
2003
0100
,  // measure 40
3002
0000
0203
0000
2300
0000
3100
1000
,  // measure 41
0100
0001
0000
0202
0000
0303
0000
1001
,  // measure 42
0000
0001
0010
0100
1000
0010
0100
0001
,  // measure 43
0001
0011
1100
2001
,  // measure 44
0000
0000
3020
0000
0032
0000
0013
0001
,  // measure 45
0010
1000
0000
2020
0000
3030
0000
0011
,  // measure 46
0000
0001
0010
0100
0010
0001
0010
0100
,  // measure 47
2000
0010
3002
0100
,  // measure 48
2003
0000
3200
0000
0302
0000
0103
0001
,  // measure 49
0100
1000
0000
2200
0000
3300
0000
1001
,  // measure 50
0000
1000
0010
0100
0001
0010
0100
1000
,  // measure 51
1000
0110
1001
0001
,  // measure 52
2000
0000
3020
0000
0032
0000
0003
0020
,  // measure 53
0000
0032
0000
0013
1000
0000
1010
0000
,  // measure 54
2000
0000
3200
0000
0302
0000
0003
0200
,  // measure 55
0000
0302
0000
0103
0010
0100
1000
0000
,  // measure 56
0002
0000
0203
0000
2300
0000
3000
0200
,  // measure 57
0000
2300
0000
3100
0001
0000
0101
0000
,  // measure 58
0002
0000
0023
0000
2030
0000
3000
0020
,  // measure 59
0000
2030
0000
3010
0100
0000
0010
0000
,  // measure 60
0001
0000
1000
0010
,  // measure 61
0001
0000
0001
0010
,  // measure 62
1000
0000
0000
0100
0000
0000
0010
0000
0000
0100
0000
0020
,  // measure 63
0000
0000
0031
0000
0000
0100
0010
0000
0000
1000
0000
0000
,  // measure 64
0001
0000
0001
0010
,  // measure 65
1000
0000
1000
0010
,  // measure 66
0001
0000
0000
0010
0000
0100
1000
0000
0001
0000
0000
2002
,  // measure 67
0000
0000
3003
1001
,  // measure 68
1000
0010
0100
0000
0100
0010
0001
0000
,  // measure 69
0001
0010
1000
0000
1000
0010
1000
0100
,  // measure 70
0020
0030
0002
0003
1000
0010
0100
0001
,  // measure 71
0000
1001
0000
1001
0000
1000
2000
0000
,  // measure 72
3001
0010
0100
0000
0100
0010
1000
0000
,  // measure 73
1000
0010
0001
0000
0001
0010
0001
0100
,  // measure 74
0020
0030
2000
3000
0001
0010
0100
1000
,  // measure 75
0000
1010
0000
0202
0000
0000
0303
0000
,  // measure 76
1000
1000
0001
0001
1000
0001
2000
0002
,  // measure 77
3003
0000
0000
0000
,  // measure 78
1000
0000
0000
0001
0000
0000
0100
0000
0001
0000
0100
0000
0001
0000
0000
1000
0000
0000
0010
0000
0000
0100
0000
0000
0001
0000
0000
0100
0000
0000
0001
0000
0000
1000
0000
0000
0100
0000
1000
0000
0100
0000
0000
0000
1000
0000
0000
0000
,  // measure 79
0001
1000
0001
0000
0100
0000
0001
0100
0001
0000
0100
0001
0100
0001
0100
0001
0000
1000
0001
1000
0001
0000
1000
0100
,  // measure 80
1000
0000
0000
0000
,  // measure 81
0000
0000
0000
0000
,  // measure 82
0000
0000
0000
0000
,  // measure 83
1001
0100
0010
0100
,  // measure 84
1001
0010
0100
0010
,  // measure 85
1001
0000
0001
0010
0100
1000
0001
0200
,  // measure 86
0000
1000
0000
0010
0000
0301
1000
0200
,  // measure 87
0000
0001
0000
0010
0020
0000
0000
0000
,  // measure 88
0330
0000
0000
0000
,  // measure 89
0001
0010
0000
2200
0000
3300
0000
0101
,  // measure 90
0000
0000
1010
0000
1000
0100
0010
0001
,  // measure 91
2000
0010
3002
0100
,  // measure 92
2003
0000
3200
0000
0302
0000
0103
0001
,  // measure 93
0100
1000
0000
0220
0000
0330
0000
1001
,  // measure 94
0000
1000
0010
0100
0001
0010
0100
1000
,  // measure 95
1000
1010
0101
1001
,  // measure 96
1000
0000
0001
0000
1000
0000
0000
0000
0100
0000
0000
0100
0000
0000
0100
0000
,  // measure 97
0000
0000
0012
0000
1003
0000
0000
1010
,  // measure 98
0000
1000
0010
0100
0001
1000
0100
0010
,  // measure 99
0002
0010
2003
0100
,  // measure 100
3002
0000
0203
0000
2300
0000
3100
1000
,  // measure 101
0100
0001
0000
0220
0000
0330
0000
1001
,  // measure 102
0000
0001
0010
0100
1000
0010
0100
0001
,  // measure 103
0001
0110
1001
1000
,  // measure 104
0002
0000
0003
0010
2000
0000
3000
0010
,  // measure 105
0000
0100
0000
0010
0002
0000
1003
0001
,  // measure 106
0200
0000
0300
1000
0200
0000
0300
0101
,  // measure 107
0000
1010
0000
0001
0010
0100
0010
0100
,  // measure 108
2000
0000
3000
0010
0002
0000
0003
0010
,  // measure 109
0000
0100
0000
0010
2000
0000
3001
1000
,  // measure 110
0200
0000
0300
0001
0200
0000
0300
1100
,  // measure 111
0000
0011
0000
1000
0010
0100
0001
1000
,  // measure 112
0200
0001
0001
0010
,  // measure 113
1000
0000
1300
0000
0100
0010
0100
0010
,  // measure 114
0001
0011
1000
1010
,  // measure 115
0001
0000
0011
0000
1000
0001
1000
0001
,  // measure 116
0200
1000
1000
0010
,  // measure 117
0001
0000
0301
0000
0100
0010
0100
0010
,  // measure 118
1000
0000
0001
0010
0100
0010
0100
1000
,  // measure 119
0001
0000
1001
0000
0001
0100
0001
0100
,  // measure 120
1000
0000
0000
0000
;

//---------------dance-single - ----------------
#NOTEDATA:;
#CHARTNAME:;
#STEPSTYPE:dance-single;
#DESCRIPTION:;
#CHARTSTYLE:;
#DIFFICULTY:Medium;
#METER:9;
#RADARVALUES:0.385803,0.435584,0.087117,0.392026,0.087117,372.000000,360.000000,12.000000,54.000000,0.000000,0.000000,0.000000,0.000000,37.000000,0.385803,0.435584,0.087117,0.392026,0.087117,372.000000,360.000000,12.000000,54.000000,0.000000,0.000000,0.000000,0.000000,37.000000;
#CREDIT:;
#OFFSET:0.426000;
#BPMS:0.000000=205.000000
;
#STOPS:;
#DELAYS:;
#WARPS:312.000000=16.000000
;
#TIMESIGNATURES:0.000000=4=4
;
#TICKCOUNTS:0.000000=4
;
#COMBOS:0.000000=1
;
#SPEEDS:0.000000=1.000000=0.000000=0
,308.000000=0.500000=0.000000=0
,328.000000=1.000000=0.000000=0
;
#SCROLLS:0.000000=1.000000
,124.000000=0.000000
,126.000000=1.000000
,307.500000=4.000000
,308.000000=0.000000
,312.000000=1.000000
,320.000000=2.000000
,328.000000=0.000000
,331.000000=1.000000
,352.000000=0.000000
,355.000000=1.000000
;
#FAKES:;
#LABELS:0.000000=Song Start
,124.000000=Huh?
,312.000000=Miku^2
;
#NOTES:
0000
0000
0000
0000
,
0000
0000
0000
0000
,
0000
0000
0000
0000
,
0002
0023
0230
2300
,
3001
0000
0100
0000
0010
0000
0000
0100
,
0000
0100
0000
0010
1000
0000
0002
0000
,
0013
0000
0100
0000
1000
0000
0000
0100
,
0000
0100
0000
1000
0001
0000
0001
0000
,
1000
0000
0010
0000
0100
0000
0000
0010
,
0000
0010
0000
0100
0001
0000
2000
0000
,
3100
0000
0010
0000
0001
0000
0000
0010
,
0000
0010
0000
0001
1000
0000
1000
0000
,
0001
0000
0001
0000
,
0100
0000
0100
0000
,
0010
0100
0001
0000
,
0002
0000
0003
0000
,
1000
0000
1000
0000
,
0100
0000
0100
0000
,
0010
0100
1000
0000
,
2000
0000
3000
0000
,
0001
0100
0001
0100
,
0010
1000
0010
1000
,
0100
0000
1000
0000
0010
0000
0000
1000
,
0000
1000
0000
1000
0000
0000
0002
0000
,
1003
0100
1000
0100
,
0010
0001
0010
0001
,
0100
0000
0001
0000
0010
0000
0000
0001
,
0000
2000
0000
3002
0000
0003
0000
0000
,
2000
0000
0010
0010
,
3002
0000
0010
0010
,
2003
0000
0100
0100
,
3001
0000
0000
0000
,
0001
0001
0100
0000
,
0100
0100
0010
0000
,
0010
0000
1000
0000
0100
0000
0000
0110
,
0000
0110
0000
0000
2002
0000
3003
0000
,
1000
0010
0001
0010
,
1000
0000
0000
2000
0000
3000
0000
0001
,
0000
0001
0100
0100
,
0010
1000
0001
0000
,
1000
0100
0001
0100
,
1000
0000
0000
2000
0000
3000
0000
0001
,
0000
0100
0010
1000
,
0001
0001
0001
0002
,
0000
0013
1000
0010
,
0001
0000
0000
0002
0000
0003
0000
1000
,
0000
1000
0100
0100
,
0010
0001
1000
0000
,
0001
0100
1000
0100
,
0001
0000
0000
0002
0000
0003
0000
1000
,
0000
0010
0100
0001
,
1000
1000
1000
0000
,
1000
0000
0100
0000
0010
0000
0000
0100
,
0000
0100
0000
0010
0001
0000
2000
0000
,
3010
0000
0100
0000
0001
0000
0000
0100
,
0000
0100
0000
0001
1000
0000
1000
0000
,
0001
0000
0010
0000
0100
0000
0000
0010
,
0000
0010
0000
0100
1000
0000
0002
0000
,
0103
0000
0010
0000
1000
0000
0000
0010
,
0000
0010
0000
1000
0001
0000
0001
0000
,
1000
0000
0100
0000
,
0010
0000
0100
0000
,
1000
1000
1000
0000
,
0002
0000
0003
0000
,
0001
0000
0100
0000
,
0010
0000
0100
0000
,
0001
0001
0001
0000
,
2002
0000
3003
0000
,
1000
0100
0010
0001
,
1000
0010
0100
0001
,
0010
0000
0001
0000
0100
0000
0000
0001
,
0000
0001
0000
0001
0000
0000
2000
0000
,
3001
0100
0010
1000
,
0001
0010
0100
1000
,
0010
0000
1000
0000
0100
0000
0000
1000
,
0000
0002
0000
2003
0000
3000
0000
0000
,
0010
0100
0020
0200
,
0330
0000
0000
0000
,
1000
0000
0000
0001
0000
0000
0100
0000
0001
0000
0100
0000
0001
0000
0000
1000
0000
0000
0010
0000
0000
0100
0000
0000
0001
0000
0000
0100
0000
0000
0001
0000
0000
1000
0000
0000
0100
0000
1000
0000
0100
0000
0000
0000
1000
0000
0000
0000
,
0001
1000
0001
0000
0100
0000
0001
0100
0001
0000
0100
0001
0100
0001
0100
0001
0000
1000
0001
1000
0001
0000
1000
0100
,
1000
0000
0000
0000
,
0000
0000
0000
0000
,
0000
0000
0000
0000
,
1001
0001
0100
0000
,
1001
1000
0100
0000
,
0010
0000
0001
0000
1000
0000
0000
0001
,
0000
0100
0000
0101
0000
0000
0000
1000
,
0000
0100
0000
1100
0000
0000
0000
0000
,
1001
0000
0000
0000
,
0010
0000
0000
0020
0000
0000
0000
0130
,
0000
1001
1000
0100
,
0010
0001
1000
0000
,
0001
0100
1000
0100
,
0010
0000
0000
0020
0000
0030
0000
0100
,
0000
0001
1000
0100
,
0010
0010
0100
0100
,
0000
0000
1001
0000
2002
0000
0000
3003
,
0000
0001
1000
0000
,
0001
0001
0100
0100
,
0010
1000
0001
0000
,
1000
0100
0001
0100
,
0010
0000
0000
0020
0000
0030
0000
0100
,
0000
1000
0001
0100
,
0010
0010
0010
0000
,
2000
0000
3000
0010
0200
0000
0300
0010
,
0000
0010
0000
1000
0002
0000
0003
0000
,
2000
0000
3000
0100
0020
0000
0030
0001
,
0000
0100
0000
0010
2000
0000
3000
0000
,
0002
0000
0003
0010
0200
0000
0300
0010
,
0000
0010
0000
0001
2000
0000
3000
0000
,
0002
0000
0003
0100
0020
0000
0030
1000
,
0000
0100
0000
0010
0002
0000
1003
0000
,
0001
0100
0001
0100
,
1000
0100
0002
0010
,
1003
0100
1000
0100
,
0001
0100
2000
0010
,
3001
0100
0010
1000
,
0100
0010
0001
0000
,
1000
0010
0100
0001
,
2000
3020
2030
3200
,
0301
0000
0000
0000
;

//---------------dance-single - ----------------
#NOTEDATA:;
#CHARTNAME:;
#STEPSTYPE:dance-single;
#DESCRIPTION:;
#CHARTSTYLE:;
#DIFFICULTY:Easy;
#METER:6;
#RADARVALUES:0.267573,0.348467,0.065338,0.290390,0.000000,258.000000,249.000000,9.000000,40.000000,0.000000,0.000000,0.000000,0.000000,0.000000,0.267573,0.348467,0.065338,0.290390,0.000000,258.000000,249.000000,9.000000,40.000000,0.000000,0.000000,0.000000,0.000000,0.000000;
#CREDIT:;
#OFFSET:0.426000;
#BPMS:0.000000=205.000000
;
#STOPS:;
#DELAYS:;
#WARPS:312.000000=16.000000
;
#TIMESIGNATURES:0.000000=4=4
;
#TICKCOUNTS:0.000000=4
;
#COMBOS:0.000000=1
;
#SPEEDS:0.000000=1.000000=0.000000=0
;
#SCROLLS:0.000000=1.000000
,124.000000=0.000000
,126.000000=1.000000
,308.000000=0.000000
,312.000000=1.000000
,328.000000=0.000000
,330.000000=1.000000
;
#FAKES:;
#LABELS:0.000000=Song Start
,124.000000=Huh?
,308.000000=Not Miku^2
;
#NOTES:
0000
0000
0000
0000
,
0000
0000
0000
0000
,
0000
0000
0000
0000
,
0002
2003
3002
2003
,
3001
0000
0100
0000
,
0001
0000
0100
0002
,
0013
0000
0001
0000
,
0010
0000
0001
0001
,
1000
0000
0010
0000
,
1000
0000
0010
2000
,
3100
0000
1000
0000
,
0100
0000
1000
1000
,
1000
0000
0000
0000
,
0001
0000
0000
0000
,
1000
0000
0010
0000
,
0100
0000
0000
0000
,
0001
0000
0000
0000
,
1000
0000
0000
0000
,
0001
0000
0010
0000
,
0100
0000
0000
0000
,
1000
0100
1000
0000
,
0001
0100
0001
0000
,
0010
0000
0010
0000
,
0100
0000
0010
0000
,
0001
0100
0001
0000
,
1000
0100
1000
0000
,
0010
0000
0010
0000
,
0100
0000
0001
0000
,
2000
0000
3000
0000
,
0200
0000
0300
0000
,
0020
0000
0032
0000
,
1003
0000
0000
0000
,
0001
0000
0001
0000
,
0100
0000
0100
0000
,
0010
0000
0000
0000
1000
0000
0000
2002
,
0000
0000
3003
0000
,
0001
0010
0001
0000
,
0010
0000
0010
0000
,
0100
1000
0001
0000
,
1000
0000
1000
0000
,
0001
0100
0001
0000
,
0100
0000
0100
0000
,
0001
1000
0100
0000
,
0010
0010
0001
2000
,
3000
0010
1000
0000
,
0010
0000
0010
0000
,
0100
0001
1000
0000
,
0001
0000
0001
0000
,
1000
0100
1000
0000
,
0100
0000
0100
0000
,
1000
0001
0100
0000
,
0010
0010
1001
0000
,
1000
0000
0100
0000
,
1000
0000
0100
2000
,
3010
0000
1000
0000
,
0010
0000
1000
1000
,
0001
0000
0010
0000
,
0001
0000
0010
0002
,
0103
0000
0001
0000
,
0100
0000
0001
0001
,
0002
0000
0003
0000
,
0020
0000
0030
0000
,
0100
0000
1000
0000
,
0002
0000
0003
0000
,
2000
0000
3000
0000
,
0020
0000
0030
0000
,
0100
0000
0001
0000
,
2002
0000
3003
0000
,
0001
0010
0100
0000
,
1000
0010
0100
0000
,
0001
0000
0001
0000
,
1000
0000
0001
0000
,
1000
0010
0100
0000
,
0001
0010
0100
0000
,
1000
0000
0010
0000
,
0100
0000
0001
0000
,
2002
0000
0000
0000
,
0000
0000
0000
0000
,
0000
3003
0000
0000
,
0000
0000
0000
0000
,
0000
0000
0000
0000
,
0000
0000
0000
0000
,
0000
0000
0000
0000
,
0001
0000
0001
0000
,
0010
0000
0010
0000
,
0100
0000
0000
0000
1000
0000
0000
0002
,
0000
0000
0000
0003
0000
0000
0000
2000
,
0000
0000
0000
3000
0000
0000
0000
0000
,
0010
0000
0000
0000
,
0010
0000
0000
0020
0000
0000
0000
0030
,
0000
1001
1001
0000
,
1000
0000
0001
0000
,
1000
0100
0010
0000
,
0100
0000
0100
0000
,
1000
0010
0100
0000
,
0001
0001
1000
0001
,
0000
0000
0010
0000
0020
0000
0000
0030
,
0000
1001
1001
0000
,
1000
0001
1000
0000
,
0001
0000
1000
0000
,
0001
0100
0010
0000
,
0100
0000
0100
0000
,
0001
0010
0100
0000
,
0010
0010
1001
0000
,
0002
0003
0200
0300
,
0001
0100
0020
0030
,
0200
0300
0002
0003
,
0100
0001
0010
0100
,
2000
3000
0200
0300
,
1000
0100
0020
0030
,
0200
0300
2000
3000
,
0100
1000
0010
0100
,
0001
0000
0010
0000
,
0002
0010
0010
0000
,
1003
0000
0010
0000
,
2000
0010
0010
0000
,
3001
0000
0010
0000
,
0100
0000
1000
0000
,
0001
0000
1000
0000
,
0010
0010
0100
0100
,
0001
0000
0000
0000
;

//---------------dance-single - ----------------
#NOTEDATA:;
#CHARTNAME:;
#STEPSTYPE:dance-single;
#DESCRIPTION:;
#CHARTSTYLE:;
#DIFFICULTY:Beginner;
#METER:3;
#RADARVALUES:0.145195,0.210532,0.029039,0.101636,0.000000,140.000000,136.000000,4.000000,14.000000,0.000000,0.000000,0.000000,0.000000,0.000000,0.145195,0.210532,0.029039,0.101636,0.000000,140.000000,136.000000,4.000000,14.000000,0.000000,0.000000,0.000000,0.000000,0.000000;
#CREDIT:;
#OFFSET:0.426000;
#BPMS:0.000000=205.000000
;
#STOPS:;
#DELAYS:;
#WARPS:;
#TIMESIGNATURES:0.000000=4=4
;
#TICKCOUNTS:0.000000=4
;
#COMBOS:0.000000=1
;
#SPEEDS:0.000000=1.000000=0.000000=0
;
#SCROLLS:0.000000=1.000000
;
#FAKES:;
#LABELS:0.000000=Song Start
,124.000000=Huh?
,312.000000=HUH?
;
#NOTES:
0000
0000
0000
0000
,
0000
0000
0000
0000
,
0000
0000
0000
0000
,
0001
0000
1000
0000
,
0001
0000
0000
0000
,
0010
0000
0000
0000
,
0001
0000
0000
0000
,
0010
0000
0001
0000
,
1000
0000
0000
0000
,
0010
0000
0000
0000
,
1000
0000
0000
0000
,
0010
0000
1000
0000
,
0001
0000
0000
0000
,
0000
0000
0000
0000
,
0000
0000
0000
0000
,
0000
0000
0000
0000
,
1000
0000
0000
0000
,
0100
0000
0000
0000
,
0010
0000
0000
0000
,
0001
0000
0000
0000
,
1000
0000
0000
0000
,
1000
0000
0000
0000
,
1000
0000
0010
0000
,
0100
0000
0000
0000
,
0001
0000
0000
0000
,
0001
0000
0000
0000
,
0001
0000
0010
0000
,
0100
0000
0000
0000
,
2000
0000
3000
0000
,
0020
0000
0030
0000
,
0200
0000
0300
0000
,
0001
0000
0000
0000
,
0001
0000
0000
0000
,
0010
0000
0000
0000
,
0100
0000
0100
0000
,
0100
0000
0000
0000
,
1000
0000
0010
0000
,
1000
0000
0000
0000
,
0001
0000
0000
0000
,
0001
0000
0000
0000
,
1000
0000
0100
0000
,
1000
0000
0000
0000
,
0001
0000
0000
0000
,
1000
0000
1000
0000
,
0001
0000
0010
0000
,
0001
0000
0000
0000
,
1000
0000
0000
0000
,
1000
0000
0000
0000
,
0001
0000
0100
0000
,
0001
0000
0000
0000
,
1000
0000
0000
0000
,
0001
0000
0001
0000
,
1000
0000
0000
0000
,
0100
0000
0000
0000
,
1000
0000
0000
0000
,
0100
0000
1000
0000
,
0001
0000
0000
0000
,
0100
0000
0000
0000
,
0001
0000
0000
0000
,
0100
0000
0001
0000
,
0010
0000
0000
0000
,
0000
0000
0000
0000
,
0000
0000
0000
0000
,
0000
0000
0000
0000
,
0001
0000
0000
0000
,
1000
0000
0000
0000
,
0010
0000
0000
0000
,
0200
0000
0300
0000
,
0001
0000
0000
0000
,
0001
0000
0000
0000
,
0010
0000
0001
0000
,
0100
0000
0000
0000
,
1000
0000
0000
0000
,
1000
0000
0000
0000
,
0010
0000
1000
0000
,
0100
0000
0000
0000
,
2002
0000
0000
0000
,
3003
0000
0000
0000
,
0000
0000
0000
0000
,
1000
0000
0000
0000
,
0010
0000
0000
0000
,
0100
0000
0100
0000
,
0002
0000
0003
0000
,
2000
0000
3000
0000
,
0100
0000
0000
0000
,
0110
0000
0000
0000
,
0000
1001
0000
0000
,
1000
0000
0000
0000
,
0001
0000
0100
0000
,
0010
0000
0000
0000
,
1000
0000
0000
0000
,
0001
0000
0001
0000
,
1000
0000
0100
0000
,
0010
0000
0000
0000
,
0001
0000
0000
0000
,
0001
0000
0000
0000
,
1000
0000
0010
0000
,
0100
0000
0000
0000
,
0001
0000
0000
0000
,
1000
0000
1000
0000
,
0200
0000
0300
0000
,
0010
0000
0010
0000
,
0200
0000
0300
0000
,
1000
0000
0001
0000
,
0200
0000
0300
0000
,
0010
0000
0010
0000
,
0200
0000
0300
0000
,
0001
0000
1000
0000
,
0100
0000
0010
0000
,
0002
0000
0003
0000
,
0100
0000
0010
0000
,
2000
0000
3000
0000
,
0100
0000
0010
0000
,
0001
0000
0000
0000
,
0100
0000
0000
0000
,
0010
0000
0010
0000
,
1001
0000
0000
0000
;
