#VERSION:0.83;
#TITLE:Tanken note;
#SUBTITLE:;
#ARTIST:PON feat. Manami Fujino;
#TITLETRANSLIT:;
#SUBTITLETRANSLIT:;
#ARTISTTRANSLIT:;
#GENRE:;
#CREDIT:;
#MUSIC:Tanken note.ogg;
#BANNER:Tanken note.png;
#BACKGROUND:Tanken note-bg.png;
#CDTITLE:;
#SAMPLESTART:61.721;
#SAMPLELENGTH:10.141;
#SELECTABLE:YES;
#OFFSET:-0.031;
#BPMS:0.000=142.000;
#STOPS:;
#BGCHANGES:;
#FGCHANGES:;

//--------------- dance-single - Flicks ----------------
#NOTEDATA:;
#STEPSTYPE:dance-single;
#DESCRIPTION:Flicks;
#DIFFICULTY:Beginner;
#METER:4;
#RADARVALUES:0,0,0,0,0;
#NOTES:
0000
0000
0000
0000
,
0000
0000
0000
0000
,
0000
0000
1000
0000
,
0001
0000
1000
0000
,
0100
0000
0010
0000
,
0001
0000
0000
0000
,
1000
0000
0001
0000
,
1000
0000
0001
0000
,
0100
0000
0010
0000
,
1000
0000
0001
0000
,
0000
0000
1000
0000
,
0000
0000
0001
0000
,
0010
0000
0100
0000
,
1000
0000
0001
0000
,
1000
0000
0001
0000
,
0000
0000
1000
0000
,
0000
0000
0001
0000
,
0000
0000
0100
0000
,
0010
0000
0100
0000
,
0001
0000
1000
0000
,
0100
0000
0010
0000
,
0100
0000
1000
0000
,
0001
0000
1000
0000
,
0000
0000
0001
0000
,
1000
0000
0001
0000
,
1000
0000
0001
0000
,
0100
0000
0001
0000
,
0100
0000
0010
0000
,
1000
0000
0001
0000
,
0000
0000
0000
0000
,
0000
0000
1000
0000
,
0000
0000
0000
0000
,
0000
0000
0001
0000
,
0010
0000
0100
0000
,
1000
0000
0001
0000
,
0000
0000
1000
0000
,
0000
0000
0001
0000
,
1000
0000
0010
0000
,
0100
0000
0001
0000
,
0100
0000
0010
0000
,
1000
0000
0100
0000
,
0010
0000
0001
0000
,
1000
0000
0100
0000
,
1000
0000
0001
0000
,
0100
0000
0001
0000
,
1000
0000
0100
0000
,
0010
0000
0001
0000
,
0100
0000
0010
0000
,
1000
0000
0001
0000
,
1000
0000
0100
0000
,
0000
0000
0010
0000
,
0001
0000
2002
0000
,
0000
3003
0001
0000
,
1000
0000
2002
0000
,
0000
3003
1000
0000
,
0001
0000
1000
0000
,
0001
0000
1000
0000
,
0010
0000
0100
0000
,
0001
0000
0000
0000
,
1000
0000
0001
0000
,
1000
0000
0001
0000
,
0010
0000
0100
0000
,
1000
0000
0001
0000
,
1000
0000
0001
0000
,
1000
0000
1001
0000
,
0200
0000
0000
0000
,
0300
0000
0000
0000
;

//--------------- dance-single - Flicks ----------------
#NOTEDATA:;
#STEPSTYPE:dance-single;
#DESCRIPTION:Flicks;
#DIFFICULTY:Easy;
#METER:7;
#RADARVALUES:0,0,0,0,0;
#NOTES:
0000
0000
0000
0000
,
0000
0000
0000
0000
,
0000
0000
1000
0100
,
0010
0001
1000
0100
,
0010
0001
1000
1001
,
0001
0000
0000
0000
1001
0000
0000
0000
0000
0000
2000
0000
0000
3000
0000
0000
,
1010
0010
1000
0010
,
0100
0001
0100
0001
,
0100
1000
0100
0001
,
1000
1200
0000
0000
,
0000
0000
0000
0000
1300
1000
0000
0000
,
0001
0001
0000
0000
1000
0000
0001
0000
,
0100
0010
0100
0001
,
1000
0100
0010
0100
,
1000
0001
1001
0001
,
1000
0000
0001
0100
,
0010
1000
0100
0010
,
0001
1000
0002
0000
,
0203
0000
0320
0000
,
1030
1001
1000
0100
,
0010
0001
0010
0100
,
1000
0001
0200
0000
,
2300
0000
3100
0001
,
1000
0001
0100
0110
,
0010
0110
1000
0001
,
1000
0001
0010
0000
,
0100
0000
1000
0000
,
0001
0000
1000
0000
,
0001
1000
1001
0000
,
0001
0000
0000
1000
1000
0000
0000
0000
,
0001
0000
1000
0000
,
0001
0000
0000
0001
0001
0000
0000
0000
,
1000
0001
0100
0010
,
0100
0001
1000
0010
,
0100
0010
1000
0100
,
0001
0100
1000
0010
,
0001
0010
1000
0000
,
1001
0000
0001
0000
,
1001
0001
1000
0100
,
0010
0100
1000
0100
,
0010
0001
0100
0010
,
0100
0001
0100
0010
,
1000
0001
1000
0001
,
0100
0000
0001
1000
,
0100
1000
0100
0001
,
0100
1000
0001
0100
,
0110
0100
0001
0101
,
0001
1000
1001
1000
,
0100
0010
0001
0100
,
0010
1000
2001
0000
,
3002
0003
1001
1000
,
0001
0010
0001
0000
0011
0000
1000
0000
,
0001
0100
0110
0110
,
1001
1001
1000
0000
,
0001
0000
1000
0100
,
0001
0100
1000
0000
0001
0000
1000
0000
,
0010
0100
0001
1000
,
0010
0100
0001
0101
,
0001
0000
0000
0000
1001
0000
0000
0000
0000
0000
2000
0000
0000
3000
0000
0000
,
1100
0000
1000
0001
1000
0000
0100
0000
,
0010
0001
1000
0100
,
0001
0100
1000
1000
,
0001
0001
1000
1000
,
0001
1000
0001
0000
0001
0000
0100
0000
,
1000
0100
0101
0000
,
0020
0000
0000
0000
,
0000
0000
0030
0000
;

//--------------- dance-single - Flicks ----------------
#NOTEDATA:;
#STEPSTYPE:dance-single;
#DESCRIPTION:Flicks;
#DIFFICULTY:Medium;
#METER:11;
#RADARVALUES:0,0,0,0,0;
#NOTES:
0000
0000
0000
0000
,
0000
0000
0000
0000
,
0000
0000
0000
0000
1000
0100
0010
0100
,
1000
0000
0001
0000
0010
0000
0100
0000
0010
0000
0001
0000
1000
0001
0000
2000
,
0001
3001
1001
1001
,
0101
0000
0000
0000
0101
0000
0000
0000
0000
0000
0002
0000
0000
0100
0000
0000
,
1003
0000
1000
0000
0001
0010
0100
0010
,
0001
0000
1000
0000
0010
0000
0100
0000
0010
0000
1000
0000
0001
1000
0000
0002
,
1000
0000
1003
0000
1000
0100
0001
0100
,
1000
0000
0001
0000
1001
0000
0000
2002
0000
0000
0000
0000
0000
0000
0000
0000
,
0000
0000
3003
1000
0001
0001
0000
0000
,
1000
1000
0000
0000
0001
0100
0010
1000
,
0000
0001
1000
0000
0001
1000
0001
0010
,
0100
1000
0100
0010
0001
0000
1000
0000
,
0001
1000
0001
0100
1000
0000
0100
0000
,
0001
0000
1000
0000
0100
0000
0010
0001
,
1000
0000
0001
0000
1000
0000
0000
0000
0001
0000
0000
0100
0000
0000
1000
0000
,
0000
0000
0000
0000
0000
0000
0100
0000
0000
0000
0000
0000
0000
0000
0000
0000
0000
0000
0001
0000
0000
0000
0000
0000
0101
0000
0000
0000
0000
0000
0000
0000
0000
0100
0000
0000
0000
0000
0000
0000
0010
0000
0000
0000
0000
0000
0000
0000
,
1000
0000
0000
0000
0000
0000
0000
0000
0000
0001
0000
0000
0000
0000
0000
0000
1000
0000
0000
0000
0000
0000
0000
0000
0100
0000
0000
0000
0000
0000
0000
0000
0000
0010
0000
0000
0000
0000
0000
0000
0001
0000
0000
0000
0000
0000
0000
0000
,
0011
1001
0001
1000
,
0001
0100
0010
1000
0001
0000
1000
0000
,
0001
0000
1000
0001
0010
0100
0010
0001
,
0100
0010
1000
0100
0010
0100
1000
0000
,
0001
0000
0100
0000
1000
0000
0100
0000
0001
0000
0000
0010
0000
0000
0100
0000
,
1000
0000
0000
0010
0000
0000
0100
0000
0001
0000
0000
1000
0000
0000
0001
0000
,
1000
0000
0000
0000
0001
0000
1000
0000
0100
0000
0000
0010
0000
0000
0001
0000
,
1000
0000
0000
0001
0000
0000
0100
0000
0110
0000
0000
0000
0100
0000
0000
0000
,
0010
1000
0001
0010
,
0100
1000
1001
0000
,
1000
0000
0000
0001
0001
0000
0000
0000
,
0100
0010
1000
0000
,
0001
0000
0000
1000
1000
0000
0000
0000
,
0001
0000
1000
0000
0001
0010
0100
0000
,
1000
0001
1000
0000
0001
0100
0010
1000
,
0001
0000
0000
0000
1000
0000
0100
0000
1000
0000
0000
0100
0000
0000
0001
0000
,
0100
0000
0000
1000
0000
0000
0001
0000
0001
0000
0000
0100
0000
0000
1000
0000
,
0100
0000
0000
0001
0000
0000
1000
0000
0100
0000
1000
0000
0000
0000
0010
0000
,
1000
0000
0001
0010
0001
0010
0000
0001
,
0100
0000
0000
0000
0001
0000
1000
0000
0001
0000
0000
1000
0000
0000
0001
0000
,
1000
0000
0100
0000
0010
0000
0001
0000
1000
0000
0000
0001
0000
0000
1000
0000
,
0001
0100
0010
1000
0001
0010
0001
0000
,
1000
0010
1000
0000
0001
0010
1000
0010
,
0001
0000
1000
0000
0001
0000
0000
0000
1000
0000
0000
0001
0000
0000
1000
0000
,
0001
0000
0100
0000
0010
0000
1000
0000
0001
0000
0000
1000
0000
0000
0001
0000
,
1000
0100
0010
0001
1000
0010
1000
0001
,
0010
0000
0001
0000
1000
0000
0010
0000
1000
0000
0000
0100
0000
0000
0010
0000
,
0001
0000
0000
0100
0000
0000
0010
0000
1000
0000
0000
0100
0000
0000
0001
0000
,
0100
1000
0001
1000
2001
0000
0010
0000
,
3001
0000
0000
0000
1000
0000
0000
0000
0100
0000
0000
0010
0000
0000
0001
0000
,
0000
1000
0000
0010
0110
0000
0000
0000
,
0001
0000
0000
0000
0000
0000
0000
0000
0011
0000
0000
0000
1100
0000
0000
1000
,
0000
0100
0010
0001
0012
0000
0010
0000
,
1000
0103
0101
0101
,
1100
0000
1100
0000
1001
0000
0000
0001
,
0002
0000
0000
0000
0103
1000
0000
0100
,
0001
0000
0001
1000
0001
0010
0100
0010
,
0001
0000
1000
0000
0100
0000
0010
0000
0100
0000
1000
0000
0001
1000
0000
0002
,
1000
1003
1001
1001
,
1010
0000
0000
0000
1010
0000
0000
0000
0000
0000
2000
0000
0000
0010
0000
0000
,
3001
1000
0100
0010
0001
0100
0010
0100
,
0001
0000
1000
0000
0010
0000
0100
0000
0110
0000
0000
0000
1000
0001
0000
2002
,
0000
3003
1000
1000
,
0001
0001
1000
1000
,
0001
0000
0010
0000
0001
0000
1000
0000
0001
0000
0100
0000
1000
0100
0000
0001
,
0000
0000
1000
0000
0100
0001
0000
0200
0000
0000
0000
0000
0000
0000
0000
0000
,
2300
0000
0000
0000
,
0000
0000
3000
0000
;

//--------------- dance-single - Flicks ----------------
#NOTEDATA:;
#STEPSTYPE:dance-single;
#DESCRIPTION:Flicks;
#DIFFICULTY:Hard;
#METER:14;
#RADARVALUES:0,0,0,0,0;
#NOTES:
0000
0000
0000
0000
,
0000
0000
0000
0000
,
0000
0000
0000
0000
1000
0100
0010
0100
,
1000
0010
1000
0000
0001
0000
0010
0000
0001
0000
1000
0000
0010
1000
0000
0002
,
0000
0000
0000
1003
0000
0100
0010
0000
0001
0000
0010
0000
0100
0001
0000
0100
,
1000
0000
0100
0000
1000
0000
0001
0000
0000
0000
0101
0000
0000
1001
0000
0000
,
1000
0100
1000
0000
0001
0000
1000
0000
0001
0000
0100
0000
0010
0000
0100
0000
,
0001
0010
0001
0000
1000
0000
0010
0000
1000
0000
0001
0000
0010
0001
0000
2000
,
0000
0000
0000
3001
0000
0100
0010
0000
1000
0000
0100
0000
0010
1000
0000
0010
,
0000
0000
0001
0000
0100
0010
0000
0220
0000
0000
0000
0000
0000
0000
0000
0000
,
0000
0000
0330
0001
1000
1100
0000
0000
,
0001
0000
0101
0000
0000
0000
0000
0000
1000
0000
0100
0010
0000
0010
0001
0000
,
1000
0000
0001
0100
0000
0100
0010
0000
1000
0000
0001
0000
1000
0000
0100
0000
,
0010
0000
1000
0000
0010
0000
0001
0000
1000
0000
0010
0000
0100
0000
0001
0100
,
0001
0100
0010
0000
0100
0000
0001
0000
2001
0000
0000
0000
0001
0000
0001
0000
,
0010
0000
3001
0010
0100
1000
0002
1000
,
1000
0000
0103
0001
0000
0001
1000
0000
0002
0000
0000
0023
0000
0000
2030
0000
,
0000
0000
0000
0000
0000
0000
3020
0000
0000
0000
0000
0000
0000
0000
0000
0000
0000
0000
0031
0000
0000
0000
0000
0000
1002
0000
0000
0000
0000
0000
0000
0000
0000
0103
0000
0000
0000
0000
0000
0000
0010
0000
0000
0000
0000
0000
0000
0000
,
1000
0000
0000
0000
0000
0000
0000
0000
0000
0001
0000
0000
0000
0000
0000
0000
0010
0000
0000
0000
0000
0000
0000
0000
1000
0000
0000
0000
0000
0000
0000
0000
0000
0010
0000
0000
0000
0000
0000
0000
0001
0000
0000
0000
0000
0000
0000
0000
,
1001
0000
1001
0000
1000
0010
0100
0001
,
1000
0000
0100
0000
0010
0000
1000
0000
0010
0000
0001
0000
1000
0000
0010
0100
,
0000
0100
0001
0000
1000
0001
1000
0000
0001
0000
0010
0000
0100
0000
0001
0000
,
0100
1000
0001
1000
0002
0100
0103
0010
,
1000
0001
0010
0001
0010
0100
1000
0100
1000
0000
0000
0001
0000
0100
0001
0000
,
1000
0000
0000
1000
0000
0100
1000
0000
0001
0000
0000
0001
0000
0000
0001
0000
,
1000
0000
0010
0100
0000
0100
0001
0000
1000
0000
0000
0100
0000
0000
0001
0000
,
1000
0000
0000
0010
0000
0000
0001
0000
0011
0000
0000
0000
0010
0000
0000
0000
,
0100
0000
0000
0000
1000
0000
0001
1000
0001
0000
0000
0000
1000
0000
0000
0000
,
0001
0100
1000
0100
0001
0000
0000
0000
,
1000
0000
0000
0001
0001
0000
0000
0000
,
1000
0100
0010
0001
1000
0000
0000
0000
,
0001
0000
0000
1000
1000
0000
0000
0000
,
0001
0100
0001
1000
0001
0010
0100
0010
,
0001
1000
0100
0010
0100
1000
0001
0100
,
0010
0000
0100
0000
0001
1000
0001
0000
1000
0000
0100
0010
0000
0100
1000
0000
,
0100
0000
0000
0001
0000
0000
0100
0000
1000
0000
0010
0100
0000
0010
1000
0000
,
0001
0000
0000
0010
0000
0000
1000
0000
0010
0001
0010
0001
0000
0000
0100
0001
,
0100
0001
0000
0000
1000
0001
1000
0001
0010
0001
0010
0001
0000
0000
1000
0001
,
1000
0001
0000
0100
0010
1000
0001
0000
1000
0000
0001
0010
0000
0010
0001
0000
,
0100
0000
0010
0000
1000
0000
0100
0000
1000
0000
0001
0100
0000
0100
0001
0000
,
0010
0000
0100
0000
1000
0000
0010
0000
2000
0000
0000
0000
3200
0000
0000
0302
,
0000
0000
0103
0000
1000
0000
0001
0000
0100
0000
0010
0000
0100
0000
0010
0100
,
0000
1000
0100
0000
0001
1000
0000
0000
1100
0000
0000
0100
0010
0000
0001
1000
,
0000
0010
0100
0000
0001
0000
0010
0000
0002
0000
0000
0103
0010
0000
1000
0100
,
0000
0010
0100
0000
1000
0000
0001
0000
1000
0000
0001
0000
0100
0000
0001
0010
,
0000
0010
0001
0000
1000
0000
0001
0000
1002
0000
0000
0100
0000
0000
1000
0000
,
2003
0000
0000
0100
0000
0000
0001
0000
3002
0000
0000
0100
0000
0000
1000
0000
,
1003
0000
0100
0010
0001
0000
0100
0000
0210
0000
0000
0000
0301
0000
0100
0000
,
2000
0000
0000
0000
3100
0000
0001
0000
1000
0000
0001
0000
1000
0100
0010
0000
,
0001
0000
0000
1000
0000
0000
0010
0000
0210
0000
0000
0000
0000
0000
0000
0000
,
0301
0000
0000
0000
0000
0000
0000
0000
1000
0000
0100
0000
0001
0000
0100
0010
,
0000
0100
1000
0000
0010
0000
0100
0000
0110
0000
0010
0000
1000
0000
0001
1000
,
0000
1000
0001
0000
1000
0000
0100
0000
1100
0000
0000
0000
0011
0000
0000
0000
,
1001
0000
0000
0000
0101
0000
0000
0000
2010
0000
0000
0000
3000
0000
0001
1000
,
0001
0000
0000
0000
0000
0000
0000
0000
1000
0100
0010
0001
0000
0000
0001
0100
,
0010
1000
0000
0100
0010
0000
0001
0000
1000
0000
0010
0000
0100
0000
0010
0000
,
1000
0100
1000
0000
0001
0000
0100
0000
0001
0000
1000
0000
0100
0010
0000
0002
,
0000
0000
0000
1003
0000
0010
0100
0000
0101
0000
0100
0000
0010
0001
0000
0010
,
1000
0000
0010
0000
1010
0000
1000
0000
0000
0000
0011
0000
0000
1001
0000
0000
,
0001
0100
0010
0000
1000
0000
1000
0000
0001
0000
0010
0000
0100
0000
0010
0000
,
0001
0100
0001
0000
1000
0000
0100
0000
1100
0000
1000
0000
1000
0001
0000
0200
,
0000
0000
0000
0310
0000
1000
0001
0000
1000
0000
0100
0000
0010
1000
0000
0020
,
0000
0000
0031
0000
1000
0001
0000
1000
0000
0000
0010
0000
0001
0000
1000
0000
,
0100
0000
0001
0010
0001
0000
0100
0001
0100
0000
0001
0000
1000
0100
0000
0001
,
0000
0100
1000
0000
0001
1000
0000
1001
0000
0000
0000
0000
0000
0000
0000
0000
,
0200
0000
0000
0000
,
0000
0000
0300
0000
;

//--------------- dance-double - Flicks ----------------
#NOTEDATA:;
#STEPSTYPE:dance-double;
#DESCRIPTION:Flicks;
#DIFFICULTY:Hard;
#METER:15;
#RADARVALUES:0,0,0,0,0;
#NOTES:
00000000
00000000
00000000
00000000
,
00000000
00000000
00000000
00000000
,
00000000
00000000
00000000
00000000
00001000
00010000
00001000
01000000
,
00010000
00100000
00010000
00000000
10000000
00000000
00100000
00000000
01000000
00000000
00001000
00000000
00010000
00001000
00000000
00200000
,
00000000
00000000
00000000
00310000
00000000
00100000
01000000
00000000
01100000
00000000
00000000
00000000
00110000
00000000
00000000
00000000
,
00011000
00000000
00001000
00000000
00010000
00000000
00000010
00000000
00000000
00000000
00001010
00000000
00000000
00001001
00000000
00000000
,
00000001
00000010
00000001
00000000
00000010
00000000
00000100
00000000
00010000
00000000
00001000
00000000
00010000
00000000
00000100
00000000
,
00001000
00000010
00001000
00000000
00000001
00000000
00000010
00000000
00000100
00000000
00010000
00000000
00001000
00010000
00000000
00000020
,
00000000
00000000
00000000
00001030
00000000
00000010
00000100
00000000
00000001
00000000
00000010
00000000
00001000
00010000
00000000
00010000
,
00000000
00000000
00001000
00000000
01000000
00010000
00000000
02020000
00000000
00000000
00000000
00000000
00000000
00000000
00000000
00000000
,
00000000
00000000
03030000
00010000
10000000
11000000
00000000
00000000
,
00010000
00000000
01010000
00000000
00000000
00000000
00000000
00000000
10000000
00000000
01000000
00100000
00000000
00100000
00010000
00000000
,
10000000
00000000
00010000
01000000
00000000
01000000
00100000
00000000
10000000
00000000
00010000
00000000
10000000
00000000
01000000
00000000
,
00010000
00000000
00001000
00000000
00000100
00000000
00000001
00000000
00001000
00000000
00000100
00000000
00000010
00000000
00000001
00001000
,
00000001
00000100
00000010
00000000
00000100
00000000
00000001
00000000
00002001
00000000
00000000
00000000
00000001
00000000
00000001
00000000
,
00000010
00000000
00003001
00000010
00000100
00001000
00000002
00001000
,
00001000
00000000
00000103
00000001
00000000
00000001
00001000
00000000
00000002
00000000
00000000
00000023
00000000
00000000
00002030
00000000
,
00000000
00000000
00000000
00000000
00000000
00000000
00003020
00000000
00000000
00000000
00000000
00000000
00000000
00000000
00000000
00000000
00000000
00000000
00000031
00000000
00000000
00000000
00000000
00000000
00001002
00000000
00000000
00000000
00000000
00000000
00000000
00000000
00000000
00000103
00000000
00000000
00000000
00000000
00000000
00000000
00000010
00000000
00000000
00000000
00000000
00000000
00000000
00000000
,
00001000
00000000
00000000
00000000
00000000
00000000
00000000
00000000
00000000
00010000
00000000
00000000
00000000
00000000
00000000
00000000
01000000
00000000
00000000
00000000
00000000
00000000
00000000
00000000
00100000
00000000
00000000
00000000
00000000
00000000
00000000
00000000
00000000
10000000
00000000
00000000
00000000
00000000
00000000
00000000
00010000
00000000
00000000
00000000
00000000
00000000
00000000
00000000
,
00110000
00000000
00011000
00000000
00001000
01000000
00010000
10000000
,
00010000
00000000
00100000
00000000
01000000
00000000
00001000
00000000
01000000
00000000
00100000
00000000
01000000
00000000
00100000
01000000
,
00000000
01000000
10000000
00000000
00010000
10000000
00010000
00000000
10000000
00000000
00100000
00000000
01000000
00000000
10000000
00000000
,
01000000
00001000
00100000
00010000
00200000
01000000
01300000
10000000
,
00010000
10000000
00100000
10000000
00100000
01000000
00010000
01000000
00010000
00000000
00000000
10000000
00000000
01000000
00100000
00000000
,
00010000
00000000
00000000
00001000
00000000
00000100
00000010
00000000
00000001
00000000
00000000
00000001
00000000
00000000
00000001
00000000
,
00001000
00000000
00000010
00000100
00000000
00000100
00000001
00000000
00000001
00000000
00000000
00000010
00000000
00000000
00001000
00000000
,
00010000
00000000
00000000
01000000
00000000
00000000
10000000
00000000
11000000
00000000
00000000
00000000
00100000
00000000
00000000
00000000
,
01000000
00000000
00000000
00000000
00010000
00000000
10000000
00010000
10000000
00000000
00000000
00000000
00010000
00000000
00000000
00000000
,
10000000
00100000
00010000
00100000
10000000
00000000
00000000
00000000
,
00010000
00000000
00000000
10000000
10000000
00000000
00000000
00000000
,
01000000
00100000
00010000
00001000
00000100
00000000
00000000
00000000
,
00000010
00000000
00000000
00000001
00000001
00000000
00000000
00000000
,
00001000
00000010
00001000
00000010
00001000
00000100
00000010
00000100
,
00001000
00000001
00000100
00000010
00000100
00000001
00001000
00000100
,
00000010
00000000
00000100
00000000
00001000
00000001
00001000
00000000
00000001
00000000
00000100
00000010
00000000
00000100
00000001
00000000
,
00000100
00000000
00000000
00001000
00000000
00000000
00010000
00000000
01000000
00000000
00100000
01000000
00000000
00100000
00010000
00000000
,
10000000
00000000
00000000
00100000
00000000
00000000
10000000
00000000
01000000
10000000
01000000
10000000
00000000
00000000
01000000
00100000
,
01000000
00100000
00000000
00000000
00010000
00100000
00010000
00100000
00001000
00100000
00001000
00100000
00000000
00000000
00001000
00010000
,
00001000
00010000
00000000
00001000
01000000
00000000
00010000
00000000
10000000
00000000
10000000
01000000
00000000
00100000
00010000
00000000
,
00001000
00000000
00000100
00000000
00000010
00000000
00000001
00000000
00001000
00000000
00000001
00000100
00000000
00000010
00001000
00000000
,
00010000
00000000
01000000
00000000
00100000
00000000
10000000
00000000
00020000
00000000
00000000
00000000
00230000
00000000
00000000
20300000
,
00000000
00000000
30100000
00000000
00010000
00000000
10000000
00000000
00100000
00000000
01000000
00000000
00100000
00000000
01000000
00100000
,
00000000
00010000
00100000
00000000
10000000
00010000
00000000
00000000
00110000
00000000
00000000
00010000
00000000
00000000
00001000
00000100
,
00000000
00000100
00000010
00000000
00000001
00000000
00001000
00000000
00001010
00000000
00000000
00001000
00000000
00000000
00010000
01000000
,
00000000
01000000
00100000
00000000
10000000
00000000
00010000
00000000
10000000
00000000
00010000
00000000
00100000
00000000
00010000
01000000
,
00000000
01000000
00010000
00000000
01000000
00000000
00001000
00000000
00011000
00000000
00000000
00010000
00000000
00000000
00000100
00000000
,
00000001
00000000
00000000
00000100
00000000
00000000
00010000
00000000
00001000
00000000
00000000
01000000
00000000
00000000
10000000
00000000
,
01000000
00000000
00001000
00010000
00001000
00000000
00010000
00000000
00022000
00000000
00033000
00000000
00010000
00000000
00001000
00000000
,
00000200
00000000
00000000
00000000
00000310
00000000
00001000
00000000
00000001
00000000
00001000
00000000
00000001
00000000
00000010
00000100
,
00000000
00000100
00001000
00000000
00000010
00000000
00000100
00000000
00000201
00000000
00000000
00000000
00000000
00000000
00000000
00000000
,
00000320
00000000
00000000
00000000
00000000
00000000
00000000
00000000
00001030
00000000
00000010
00000000
00000001
00000000
00000010
00000100
,
00000000
00000010
00001000
00000000
00000010
00000000
00010000
00000000
00011000
00000000
00001000
00000000
00010000
00000000
00001000
00100000
,
00000000
00100000
00001000
00000000
00100000
00000000
00010000
00000000
00110000
00000000
00000000
00000000
00011000
00000000
00000000
00000000
,
01010000
00000000
00000000
00000000
00011000
00000000
00000000
00000000
00001200
00000000
00000000
00000000
00000300
00000000
00010000
00001000
,
00010000
00000000
00000000
00000000
00000000
00000000
00000000
00000000
00001000
00010000
00000100
00001000
00000000
00000000
00000001
00000100
,
00000010
00001000
00000000
00000010
00010000
00000000
00001000
00000000
00010000
00000000
00001000
00000000
00010000
00000000
00000100
00000000
,
00001000
00000010
00001000
00000000
00000001
00000000
00000010
00000000
00000100
00000000
00010000
00000000
00001000
00010000
00000000
00000020
,
00000000
00000000
00000000
00001030
00000000
00000010
00000100
00000000
00000101
00000000
00000100
00000000
00000010
00000001
00000000
00000010
,
00001000
00000000
00000010
00000000
00001010
00000000
00001000
00000000
00000000
00000000
00011000
00000000
00000000
00110000
00000000
00000000
,
00010000
00100000
01000000
00000000
10000000
00000000
10000000
00000000
00010000
00000000
01000000
00000000
00100000
00000000
01000000
00000000
,
00010000
00100000
00010000
00000000
10000000
00000000
00100000
00000000
10100000
00000000
10000000
00000000
10000000
00010000
00000000
00200000
,
00000000
00000000
00000000
01300000
00000000
10000000
00010000
00000000
10000000
00000000
00100000
00000000
01000000
10000000
00000000
02000000
,
00000000
00000000
03001000
00000000
00010000
00001000
00000000
00010000
00000000
00000000
00000100
00000000
00001000
00000000
00000001
00000000
,
00001000
00000000
00000010
00000100
00000010
00000000
00001000
00000001
00001000
00000000
00000001
00000000
00000010
00001000
00000000
00010000
,
00000000
00010000
01000000
00000000
10000000
00010000
00000000
10010000
00000000
00000000
00000000
00000000
00000000
00000000
00000000
00000000
,
02000000
00000000
00000000
00000000
,
00000000
00000000
03000000
00000000
;
