#VERSION:0.83;
#TITLE:Taj He Spitz (Tommie Sunshine's Brooklyn Fire Re-Touch);
#SUBTITLE:;
#ARTIST:DKC Crew;
#TITLETRANSLIT:;
#SUBTITLETRANSLIT:;
#ARTISTTRANSLIT:;
#GENRE:;
#CREDIT:;
#MUSIC:Taj He Spitz (Tommie Sunshine's Brooklyn Fire Re-Touch).ogg;
#BANNER:Taj He Spitz (Tommie Sunshine's Brooklyn Fire Re-Touch).png;
#BACKGROUND:Taj He Spitz (Tommie Sunshine's Brooklyn Fire Re-Touch)-bg.png;
#CDTITLE:;
#SAMPLESTART:74.000;
#SAMPLELENGTH:15.000;
#SELECTABLE:YES;
#OFFSET:0.000;
#BPMS:0.000=120.000;
#STOPS:;
#TIMESIGNATURES:0.000=4=4;
#BGCHANGES:;
#FGCHANGES:;

//--------------- dance-single - Extraordiberry ----------------
#NOTEDATA:;
#STEPSTYPE:dance-single;
#DESCRIPTION:Extraordiberry;
#DIFFICULTY:Easy;
#METER:5;
#RADARVALUES:0,0,0,0,0;
#CREDIT:Extraordiberry;
#NOTES:
0000
0000
0000
0000
,
0000
0000
0000
0000
,
0000
0000
0000
0000
,
1001
0000
1000
1000
,
0100
0010
0001
1000
,
0010
0000
0100
0000
,
0001
1000
0100
0000
,
0010
0000
0100
0000
,
1000
0000
0001
0000
,
0100
0100
0100
0000
,
0010
0010
0010
0000
,
1000
1000
1000
0000
,
1001
0000
0110
0000
,
1000
0100
0010
0000
,
0001
0100
0010
0000
,
1000
0001
0000
0001
,
1001
1000
1001
0001
,
2000
0000
0000
3000
,
0002
0000
0000
0003
,
1000
0100
0010
0001
,
1001
0000
0110
0000
,
1000
0100
0001
0100
,
1000
0001
0100
0000
,
0001
0100
1000
0100
,
0001
1000
0100
0000
,
1000
0010
0001
0010
,
1000
0001
0010
0000
,
0001
0010
1000
0010
,
0001
1000
0010
0000
,
1001
0000
1000
1000
,
1001
0000
0001
0001
,
1001
0000
1000
1000
,
0100
0010
0001
1000
,
0010
0010
0010
0000
,
0100
0100
0100
0000
,
0001
1000
0001
0001
,
1000
0000
0001
0000
,
1000
0100
0001
0100
,
1000
0001
0100
0000
,
0001
0100
1000
0100
,
0001
1000
0100
0000
,
1000
0010
0001
0010
,
1000
0001
0010
0000
,
0001
0010
1000
0010
,
0001
1000
0010
0100
,
0001
0001
0001
1000
,
0100
0100
0100
1000
,
0010
0010
0010
1000
,
0001
0000
1000
0000
,
1001
0000
0000
0000
;

//--------------- dance-single - Extraordiberry ----------------
#NOTEDATA:;
#STEPSTYPE:dance-single;
#DESCRIPTION:Extraordiberry;
#DIFFICULTY:Medium;
#METER:9;
#RADARVALUES:0,0,0,0,0;
#CREDIT:Extraordiberry;
#NOTES:
0000
0000
0000
0000
,
0000
0000
0000
0000
,
0000
0000
0000
0000
,
1001
0000
0000
0001
0000
0000
1000
0000
0001
0000
0100
0000
0010
0000
0000
0000
,
0100
0001
0100
0001
1000
0100
0010
0000
,
0001
0000
0100
0000
1000
0000
0100
0001
,
0000
0001
0000
0001
1000
1000
1000
0000
,
0001
0010
1000
0010
,
0001
0100
0010
0000
1000
0100
0010
0001
,
0000
0001
1000
0000
0001
1000
0010
0000
,
1000
0000
0001
0000
1000
0001
0010
0000
,
0100
0000
0100
0000
1000
0001
0100
0000
,
0110
0001
1001
1000
,
0001
0010
0100
0010
0001
0010
0100
0000
,
1000
0010
0100
0010
1000
0010
0100
0000
,
0001
1000
0100
0000
0000
0000
0110
0000
,
1001
1001
0110
0110
,
2000
0000
0010
0010
,
3002
0000
0010
0010
,
1003
0010
0100
0001
,
0110
1000
1001
0001
,
1000
0100
0001
0100
1000
0000
1000
0000
,
0001
0100
1000
0100
0001
0000
0001
0000
,
1000
0100
0001
1000
0010
0000
0010
0000
,
0110
1000
1001
0001
,
1000
0010
0001
0010
1000
0000
1000
0000
,
0001
0010
1000
0010
0001
0000
0001
0000
,
1000
0010
0001
1000
0100
0000
0100
0000
,
0110
0001
1001
1000
,
1100
0000
0000
0100
0000
0000
1000
0000
0001
0000
0100
0000
0001
0000
0000
0000
,
0101
0000
0000
0100
0000
0000
0001
0000
1000
0000
0100
0000
1000
0000
0000
0000
,
1100
0000
0000
0100
0000
0000
1000
0000
0100
0000
0010
0000
0001
0000
0000
0000
,
1000
0010
1000
0010
0100
0001
1000
0000
,
0100
0010
0100
0010
0100
1000
0001
0000
,
0100
0010
0100
0010
0100
0001
1000
0000
,
0001
1000
0000
1000
0001
0000
0000
0000
1000
0000
0100
0000
0010
0000
0000
0000
,
0110
0001
1001
1000
,
0001
0100
1000
0100
0001
0000
0001
0000
,
1000
0100
0001
0100
1000
0000
1000
0000
,
0001
0100
1000
0001
0010
0000
0010
0000
,
0110
1000
1001
0001
,
0001
0010
1000
0010
0001
1000
0001
0000
,
1000
0010
0001
0010
1000
0001
1000
0000
,
0001
0010
1000
0001
0100
0010
0100
0000
,
0110
1000
1001
0001
,
1000
0010
1000
0010
1000
0010
0100
0000
,
0001
0010
0001
0010
0001
0010
0100
0000
,
1000
0010
1000
0010
1000
0010
0100
0000
,
0101
0000
1010
0000
,
1001
0000
0000
0000
;

//--------------- dance-single - Extraordiberry ----------------
#NOTEDATA:;
#STEPSTYPE:dance-single;
#DESCRIPTION:Extraordiberry;
#DIFFICULTY:Hard;
#METER:14;
#RADARVALUES:0,0,0,0,0;
#CREDIT:Extraordiberry;
#NOTES:
0000
0000
0000
0000
,
0000
0000
0000
0000
,
0000
0000
0000
0000
,
1001
0000
0000
1001
0000
0000
0001
1000
0100
0010
0001
0000
0100
0000
0100
0000
,
0010
0000
1000
0000
0100
0000
0010
0001
0000
0001
0000
0001
0100
0000
0010
1000
,
0001
0000
0010
0000
0100
0000
0010
0001
1000
0000
0010
0000
0100
0000
0110
0000
,
0001
0000
0110
0000
1000
0000
0010
1000
0001
0000
0010
0100
0010
0100
1000
0000
,
0001
0000
0100
0000
0010
0000
0010
0000
1000
0000
0100
0000
0010
0001
1000
0000
,
1010
0100
0001
0000
0011
0100
1000
0002
,
0000
0000
0003
1000
0000
1000
0000
0000
0001
0100
0000
0100
0000
0000
0001
1000
,
0100
0000
0100
0010
0001
0010
0001
0000
0100
0000
0100
0010
0000
0000
0100
0001
,
1000
0000
1000
0100
0000
0100
0000
0010
1000
0000
1000
0010
0000
0000
0001
0000
,
0012
0000
0000
0103
0000
0000
0010
0000
2010
0000
0000
3100
0000
0000
1000
0001
,
0100
0001
0100
0000
0010
0000
1000
0000
0100
0000
1000
0000
0010
0000
0100
0001
,
0100
0001
1000
0000
0001
0000
0010
0000
1000
0000
0010
0000
0001
0000
0100
0010
,
1000
0010
1000
0000
0001
0000
0010
0000
0000
0000
0000
0000
0110
0000
0100
0000
,
1001
0000
1000
0000
1001
0000
0000
0000
0001
1000
0000
0001
1000
0001
0000
1000
,
0001
0000
0200
0000
0010
0000
0000
0000
0301
0000
0100
0000
0010
1000
0010
0000
,
1000
0200
0010
0000
0000
1300
0001
0100
,
0010
0000
0000
0000
1000
0000
0000
0000
0001
0000
0000
0000
1000
0000
0000
0000
0200
0300
0000
0000
0200
0300
0000
0000
0001
0000
0000
0000
0010
0000
0000
0000
,
0012
0000
0000
0103
0000
0000
0010
0000
2010
0000
0000
3100
0010
0000
0001
0000
,
1000
0010
0001
1000
0100
0001
0010
1000
,
0010
0001
0100
1000
0001
0010
1000
0100
,
1000
0010
0001
1000
0100
0001
0010
0100
,
2100
0000
0000
3010
0000
0000
0100
0000
0102
0000
0000
0013
0100
0000
0100
0000
,
1000
0010
0001
1000
0100
0001
0020
0100
,
0031
1000
0010
0001
1000
0100
0002
0010
,
1003
0010
0001
1000
0100
0001
0010
0100
,
2100
0000
0000
3010
0000
0000
0100
0000
0102
0000
0000
0013
0100
0000
1000
0000
,
1100
0000
0000
1100
0000
0000
1000
0100
0010
0001
0010
0000
0001
0000
0001
0000
,
0101
0000
0000
0101
0000
0000
0001
0100
0010
1000
0010
0000
1000
0000
1000
0000
,
1001
0000
0000
1001
0000
0000
1000
0100
0010
0001
1000
0000
0010
0000
0010
0000
,
1000
0000
0100
0000
0010
0000
0001
0100
0000
0100
0000
0100
0010
0000
1000
0001
,
1000
0100
0010
0100
1000
0001
0100
0001
1000
0100
0000
0100
0010
0000
0010
0000
,
0001
1000
0010
1000
0001
0010
0100
0010
0001
1000
0000
1000
0010
0000
0010
0000
,
2000
0100
0000
3001
0100
0000
0010
1000
0001
0000
0001
0010
0100
0000
1000
0000
,
2100
0000
0000
3010
0000
0000
0100
0000
0101
0000
0001
0000
1000
0100
1000
0000
,
0100
0001
1000
0010
0001
0100
1000
0001
,
1000
0100
0001
0010
1000
0001
0100
1000
,
0100
0001
1000
0010
0001
0100
0010
1000
,
2010
0000
0000
3100
0000
0000
0010
0000
0012
0000
0000
0103
0010
0000
1000
0000
,
0001
0000
0000
0000
0010
0000
0000
0000
1000
0000
0000
0000
0001
0000
0000
0000
0100
0000
0000
0000
1000
0000
0000
0000
0020
0030
0000
0000
0020
0030
0000
0000
,
0001
0000
0000
0000
1000
0000
0000
0000
0010
0000
0000
0000
0001
0000
0000
0000
1000
0000
0000
0000
0100
0000
0000
0000
0020
0030
0000
0000
0020
0030
0000
0000
,
0100
0000
0000
0000
0001
0000
0000
0000
1000
0000
0000
0000
0010
0000
0000
0000
0001
0000
0000
0000
0100
0000
0000
0000
2000
3000
0000
0000
2000
3000
0000
0000
,
2010
0000
0000
3100
0000
0000
0010
0000
0012
0000
0000
0103
0010
0000
1000
0000
,
0100
0100
0001
0000
1000
0000
0100
0000
0001
0000
0100
0000
1000
0000
0001
0000
,
0100
0100
1000
0000
0001
0000
0100
0000
1000
0000
0100
0000
0001
0000
1000
0000
,
0100
0100
0001
0000
1000
0000
0100
0000
0001
0000
1000
0000
0010
0000
0001
0000
,
0012
0000
0000
0103
0000
0000
0010
0000
2010
0000
0000
3100
0010
0000
0001
0000
,
0100
0000
0000
0000
;

//--------------- dance-double - Extraordiberry ----------------
#NOTEDATA:;
#STEPSTYPE:dance-double;
#DESCRIPTION:Extraordiberry;
#DIFFICULTY:Hard;
#METER:14;
#RADARVALUES:0,0,0,0,0;
#CREDIT:Extraordiberry;
#NOTES:
00000000
00000000
00000000
00000000
,
00000000
00000000
00000000
00000000
,
00000000
00000000
00000000
00000000
,
00011000
00000000
00000000
00011000
00000000
00000000
01000000
00010000
01000000
00010000
01000000
00000000
00001000
00000000
00001000
00000000
,
00010000
00000000
00100000
00000000
10000000
00000000
00010000
00100000
00000000
00100000
00000000
00001000
00010000
00000000
00100000
01000000
,
00100000
00000000
00010000
00000000
00001000
00000000
01000000
00100000
01000000
00000000
00100000
00000000
00010000
00000000
00000010
00000000
,
00010000
00000000
00100000
00000000
00010000
00000000
00001000
00010000
00001000
00000000
00000010
00000000
00000001
00000000
00000100
00000010
,
00000100
00000000
00001000
00000000
00010000
00000000
00000010
00000000
00000100
00000000
00001000
00000000
00010000
00001000
00010000
00000000
,
01000000
10000000
00010000
01000000
00100000
00010000
00001000
00000020
,
00000000
00000000
00000030
00000001
00000000
00000001
00000000
00000000
00001000
00000010
00000000
00000010
00000000
00000000
00001000
00000001
,
00000010
00000000
00000010
00000100
00000010
00000100
00001000
00000000
00000001
00000000
00000001
00000100
00000000
00000000
00001000
00010000
,
00001000
00000000
00001000
01000000
00000000
01000000
00000000
00010000
10000000
00000000
10000000
01000000
00000000
00000000
00010000
00000000
,
00012000
00000000
00000000
00003010
00000000
00000000
00001000
00000000
00021000
00000000
00000000
00130000
00000000
00000000
01000000
00000000
,
00010000
01000000
00010000
00000000
10000000
00000000
00010000
00000000
00100000
00000000
00010000
00000000
00001000
00000000
00000100
00000000
,
00001000
00000100
00001000
00000000
00000001
00000000
00001000
00000000
00000010
00000000
00001000
00000000
00010000
00000000
01000000
00000000
,
00010000
01000000
00010000
00000000
10000000
00000000
01000000
00000000
00000000
00000000
00000000
00000000
01100000
00000000
00100000
00000000
,
00110000
00101000
00011000
00000000
00011000
00010100
00001100
00000000
,
00002000
00000100
00000001
00000010
,
00023000
01000000
10000000
00100000
,
00031000
00000000
00000000
00000000
00000100
00000000
00000000
00000000
00000010
00000000
00000000
00000000
00000100
00000000
00000000
00000000
00002000
00003000
00000000
00000000
00002000
00003000
00000000
00000000
00010000
00000000
00000000
00000000
00001000
00000000
00000000
00000000
,
00021000
00000000
00000000
00130000
00000000
00000000
00010000
00000000
00011000
00000000
00001000
00000000
00000010
00000000
00000001
00000000
,
00000100
00000010
00000100
00000000
00001000
00000000
00010000
00000000
10000000
00000000
01000000
00000000
00010000
00000000
10000000
00000000
,
01000000
00100000
01000000
00000000
00010000
00000000
00001000
00000000
00000001
00000000
00000100
00000000
00001000
00000000
00000001
00000000
,
00000100
00000010
00000100
00000000
00001000
00000000
00000100
00000000
00010000
00000000
00001000
00000000
00100000
00000000
00010000
00000000
,
00002000
00000000
00000000
00003010
00000000
00000000
00001000
00000000
00020000
00000000
00000000
00130000
00000000
00000000
00010000
00000000
,
00001000
00010000
00001000
00000000
00000010
00000000
00000100
00000000
00001000
00000000
00000001
00000000
00000100
00000000
00001000
00000000
,
00010000
00001000
00010000
00000000
00100000
00000000
01000000
00000000
00010000
00000000
10000000
00000000
01000000
00000000
00010000
00000000
,
00001000
00010000
00001000
00000000
00100000
00000000
00010000
00000000
00001000
00000000
00000100
00000000
00010000
00000000
00001000
00000000
,
00012000
00000000
00000000
00003100
00000000
00000000
00001000
00000000
00021000
00000000
00000000
01030000
00000000
00000000
00010000
00000000
,
00011000
00000000
00000000
00011000
00000000
00000000
00000100
00001000
00000100
00001000
00000100
00000000
00010000
00000000
00010000
00000000
,
00011000
00000000
00000000
00011000
00000000
00000000
01000000
00010000
01000000
00010000
01000000
00000000
00001000
00000000
00001000
00000000
,
00011000
00000000
00000000
00011000
00000000
00000000
00000010
00001000
00000010
00001000
00000010
00000000
00010000
00000000
00010000
00000000
,
00001000
00000000
00000010
00000000
00000001
00000000
00001000
00000010
00000000
00000010
00000000
00010000
00001000
00000000
00010000
00000000
,
00000100
00001000
00000100
00001000
00000001
00000100
00000001
00000100
00001000
00010000
00000000
00010000
00001000
00000000
00001000
00000000
,
00100000
00010000
00100000
00010000
10000000
00100000
10000000
00100000
00010000
00001000
00000000
00001000
00010000
00000000
00010000
00001000
,
00200000
00010000
00000000
00301000
00010000
00000000
00000010
00001000
00000001
00000000
00000001
00000010
00000100
00000000
00001000
00000100
,
00020000
00000000
00000000
01030000
00000000
00000000
00010000
00000000
00001000
00000000
00000100
00000000
00000001
00001000
00000001
00000000
,
00000010
00000100
00000010
00000000
00001000
00000000
00010000
00000000
10000000
00000000
00100000
00000000
00010000
00000000
10000000
00000000
,
00100000
01000000
00100000
00000000
00010000
00000000
00001000
00000000
00000001
00000000
00000010
00000000
00001000
00000000
00000001
00000000
,
00000010
00000100
00000010
00000000
00001000
00000000
00000010
00000000
00010000
00000000
00001000
00000000
01000000
00000000
00010000
00000000
,
00002000
00000000
00000000
00003100
00000000
00000000
00001000
00000000
00020000
00000000
00000000
01030000
00000000
00000000
00010000
00000000
,
00001000
00000000
00010000
00000000
00001000
00000000
00000000
00000000
00000010
00000000
00000000
00000000
00000001
00000000
00000000
00000000
00001000
00000000
00000000
00000000
00000010
00000000
00000000
00000000
00002000
00003000
00000000
00000000
00002000
00003000
00000000
00000000
,
00010000
00000000
00001000
00000000
00010000
00000000
00000000
00000000
00100000
00000000
00000000
00000000
10000000
00000000
00000000
00000000
00010000
00000000
00000000
00000000
00100000
00000000
00000000
00000000
00020000
00030000
00000000
00000000
00020000
00030000
00000000
00000000
,
00000100
00000000
00001000
00000000
00000100
00000000
00000000
00000000
00010000
00000000
00000000
00000000
00001000
00000000
00000000
00000000
00000100
00000000
00000000
00000000
00010000
00000000
00000000
00000000
00002000
00003000
00000000
00000000
00002000
00003000
00000000
00000000
,
00020000
00000000
00000000
01030000
00000000
00000000
00010000
00000000
00002000
00000000
00000000
00003100
00000000
00000000
00001000
00000000
,
01000000
00000000
00010000
00000000
01000000
00000000
00000000
00000000
00010000
00000000
00000000
00000000
00001000
00000000
00000000
00000000
00100000
00000000
00000000
00000000
00010000
00000000
00000000
00000000
00002000
00003000
00000000
00000000
00002000
00003000
00000000
00000000
,
00000010
00000000
00001000
00000000
00000010
00000000
00000000
00000000
00001000
00000000
00000000
00000000
00010000
00000000
00000000
00000000
00000100
00000000
00000000
00000000
00001000
00000000
00000000
00000000
00020000
00030000
00000000
00000000
00020000
00030000
00000000
00000000
,
10000000
00000000
00010000
00000000
10000000
00000000
00000000
00000000
00010000
00000000
00000000
00000000
00001000
00000000
00000000
00000000
00000001
00000000
00000000
00000000
00001000
00000000
00000000
00000000
00020000
00030000
00000000
00000000
00020000
00030000
00000000
00000000
,
00002000
00000000
00000000
00003010
00000000
00000000
00001000
00000000
00020000
00000000
00000000
00130000
10000000
00000000
00010000
00000000
,
00100000
00000000
00000000
00000000
;
