#VERSION:0.83;
#TITLE:TOXIC;
#SUBTITLE:;
#ARTIST:WaveGroup/Shoichiro Hirata;
#TITLETRANSLIT:;
#SUBTITLETRANSLIT:;
#ARTISTTRANSLIT:;
#GENRE:GARAGE MIX;
#ORIGIN:;
#CREDIT:;
#BANNER:Toxic.png;
#BACKGROUND:Toxic-bg.png;
#PREVIEWVID:;
#JACKET:Toxic-jacket.png;
#CDIMAGE:;
#DISCIMAGE:;
#LYRICSPATH:Toxic.lrc;
#CDTITLE:;
#MUSIC:Toxic.ogg;
#OFFSET:0.005000;
#SAMPLESTART:60.431404;
#SAMPLELENGTH:11.999998;
#SELECTABLE:YES;
#BPMS:0.000=143.000;
#STOPS:184.000=0.420,
185.000=0.420,
186.000=0.420;
#DELAYS:;
#WARPS:;
#TIMESIGNATURES:0.000=4=4;
#TICKCOUNTS:0.000=4;
#COMBOS:0.000=1;
#SPEEDS:0.000=1.000=0.000=0;
#SCROLLS:0.000=1.000;
#FAKES:;
#LABELS:0.000=Song Start;
#BGCHANGES:0.000=Toxic.mp4=1.000=0=0=0=StretchNoLoop====,
99999=-nosongbg-=1.000=0=0=0 // don't automatically add -songbackground-
;
#KEYSOUNDS:;
#ATTACKS:
;

//---------------dance-single - ----------------
#NOTEDATA:;
#CHARTNAME:;
#STEPSTYPE:dance-single;
#DESCRIPTION:;
#CHARTSTYLE:;
#DIFFICULTY:Hard;
#METER:12;
#RADARVALUES:0.564140,0.639796,0.193878,0.581633,0.341837,387.000000,368.000000,19.000000,57.000000,0.000000,0.000000,0.000000,0.000000,0.000000,0.564140,0.639796,0.193878,0.581633,0.341837,387.000000,368.000000,19.000000,57.000000,0.000000,0.000000,0.000000,0.000000,0.000000;
#CREDIT:Ben Speirs;
#NOTES:
// measure 0
0000
0000
0000
0000
,  // measure 1
0000
0000
0000
0000
,  // measure 2
0000
0000
0000
0000
,  // measure 3
0000
0000
0000
0000
,  // measure 4
1000
0000
0100
0000
0001
0000
0100
0000
0010
0000
0000
0010
0001
0000
1000
0000
,  // measure 5
0002
0000
0103
0010
0100
0010
2000
0000
,  // measure 6
3001
0000
0100
0000
1000
0000
0100
0000
0010
0000
0000
0010
1000
0000
0001
0000
,  // measure 7
2000
0000
3100
0010
0100
0010
0001
0000
,  // measure 8
0012
1003
2010
3001
,  // measure 9
1000
0000
0000
0001
0000
0000
1000
0000
0000
0001
0000
0000
0100
0000
0010
0000
0100
0000
0001
0000
0010
0000
0100
0000
,  // measure 10
2000
0000
3000
0001
0100
0001
0200
0000
,  // measure 11
0310
0000
0000
0010
0000
0000
1000
0000
0100
0000
0010
0000
0000
0010
0000
0000
,  // measure 12
0002
0000
0003
1000
0010
1000
0020
0000
,  // measure 13
0130
0000
0000
0100
0000
0000
0001
0000
0010
0000
0100
0000
0000
0100
0000
0000
,  // measure 14
2000
0000
3000
0001
0100
1000
0200
0000
,  // measure 15
3301
0000
0000
0001
0003
0000
1000
0000
0100
0000
0001
0000
0100
0000
1000
0000
,  // measure 16
0010
0000
0010
0000
0100
0000
0001
0000
1000
0000
0000
0001
0010
0001
0010
0000
,  // measure 17
0200
0000
0000
0000
0000
0000
1300
0000
0000
0010
0000
0000
1000
0000
0001
0000
1000
0000
0001
0000
1000
0000
0001
0000
,  // measure 18
0200
0000
0000
0000
0301
0000
0010
0000
0100
0000
1000
0010
0000
1000
0010
0000
,  // measure 19
0100
0000
0000
0000
0001
0000
0100
0000
0010
0000
0000
1000
0100
0000
0010
0000
,  // measure 20
0002
0000
0000
0000
1003
0000
0010
0000
0100
0000
0001
0010
0000
0001
0010
0000
,  // measure 21
0100
0000
0000
0000
1000
0000
0010
0000
0100
0000
0000
0001
0010
0000
0100
0000
,  // measure 22
2000
0000
0000
0000
3001
0000
0100
0000
1000
0000
0100
0010
0000
0010
1000
0000
,  // measure 23
0002
0000
0000
0000
1003
0000
0100
0000
0001
0000
0100
0010
0000
0010
0001
0000
,  // measure 24
1000
0000
1000
0000
0001
0100
0001
0100
0001
0000
0000
1000
0100
1000
0100
0000
,  // measure 25
0020
0000
0032
0000
1003
0010
0100
0000
,  // measure 26
0202
0300
2000
0003
,  // measure 27
3002
0023
0100
0130
,  // measure 28
2000
0000
3001
0100
0020
0000
1030
0001
,  // measure 29
2000
3200
0302
0013
,  // measure 30
1010
0000
0001
0010
0000
0001
1000
0001
,  // measure 31
0100
0000
0001
0100
1000
0100
0002
0000
,  // measure 32
1003
0000
0100
0000
0010
0001
0010
0001
0010
0000
0000
0001
1000
0001
1000
0000
,  // measure 33
0010
0000
0000
0010
0200
0000
0000
0000
0301
0000
0010
0000
0100
0000
0000
0000
,  // measure 34
2100
3001
0102
1003
,  // measure 35
0001
0000
0000
0100
0000
0000
1000
0000
0000
0100
0000
0000
0001
0000
1000
0000
0001
0000
0010
0000
0100
0000
1000
0000
,  // measure 36
0001
0000
1000
0010
0000
1000
0001
0000
0010
0000
0001
0100
0001
0000
1000
0000
,  // measure 37
0100
0010
0012
0000
0100
0100
0103
0000
,  // measure 38
1001
0000
2000
0100
3002
0100
2003
0010
,  // measure 39
3001
0000
1000
0100
0001
0010
1000
0000
,  // measure 40
1000
0000
0001
0100
0000
0001
1000
0000
0100
0000
1000
0010
1000
0000
0001
0000
,  // measure 41
0010
0100
2100
0000
3010
0000
1000
0001
,  // measure 42
1001
0000
0001
0010
0011
0000
1000
0010
,  // measure 43
1020
0000
0130
0001
0010
0100
1000
0000
,  // measure 44
0001
0000
0100
0000
0010
0000
0010
0000
1000
0000
0000
0001
0010
0000
0100
0000
,  // measure 45
2000
0000
3010
0020
0000
0130
0001
1000
,  // measure 46
2200
3300
0000
0000
0000
0000
0000
0000
0202
0303
0000
0000
0000
0000
0000
0000
0220
0330
0000
0000
0000
0000
0000
0000
1001
0000
0000
0000
0000
0000
0000
0000
,  // measure 47
1001
0000
0000
0000
0001
0000
0100
0000
0010
1000
0010
1000
0010
0000
0000
1000
,  // measure 48
0001
1000
0001
0000
0020
0000
0000
0000
0032
0000
0100
0000
0203
0000
0010
0000
,  // measure 49
0320
0000
0000
0000
1030
0000
0010
0000
0100
0001
0100
0001
0100
0000
0000
0001
,  // measure 50
1000
0001
1000
0000
0200
0000
0000
0000
2300
0000
0010
0000
3020
0000
0100
0000
,  // measure 51
0230
0000
0000
0000
0301
0000
0010
0000
0100
1000
0100
1000
0001
0000
0000
0001
,  // measure 52
0100
0001
1000
0000
0020
0000
0000
0000
0031
0000
0010
0000
1000
0000
0001
0000
,  // measure 53
1001
0000
0000
0000
1030
0000
0100
0000
0010
0001
0010
0001
1000
0000
0000
1000
,  // measure 54
0010
1000
0001
0000
0200
0000
0000
0000
1300
0000
0100
0000
0001
0000
1000
0000
,  // measure 55
1001
0000
0000
0000
1000
0000
1000
0000
0100
0000
0010
0000
0010
0000
0000
0001
,  // measure 56
1000
0010
0200
0000
0000
0000
0000
0000
,  // measure 57
0330
0000
0000
0000
;

//---------------dance-single - ----------------
#NOTEDATA:;
#CHARTNAME:;
#STEPSTYPE:dance-single;
#DESCRIPTION:;
#CHARTSTYLE:;
#DIFFICULTY:Medium;
#METER:8;
#RADARVALUES:0.406706,0.465306,0.234694,0.744898,0.025510,279.000000,256.000000,23.000000,73.000000,0.000000,0.000000,0.000000,0.000000,0.000000,0.406706,0.465306,0.234694,0.744898,0.025510,279.000000,256.000000,23.000000,73.000000,0.000000,0.000000,0.000000,0.000000,0.000000;
#CREDIT:Ben Speirs;
#NOTES:
// measure 0
0000
0000
0000
0000
,  // measure 1
0000
0000
0000
0000
,  // measure 2
0000
0000
0000
0000
,  // measure 3
0000
0000
0000
0000
,  // measure 4
0001
0100
0010
0100
0020
0000
1030
0000
,  // measure 5
0000
0000
0001
0010
0100
1000
0001
0000
,  // measure 6
1000
0010
0100
0010
0200
0000
0301
0000
,  // measure 7
0000
0000
1000
0100
0010
0001
1000
0000
,  // measure 8
2200
3303
0022
3033
,  // measure 9
1000
0001
1000
0001
0200
0000
0310
0000
,  // measure 10
2002
3003
0002
0103
,  // measure 11
0010
0000
0000
0000
1000
0001
2000
0000
,  // measure 12
3100
0000
2000
3010
,  // measure 13
0130
0000
3300
0000
0031
1000
0002
0000
,  // measure 14
0013
0000
0000
0001
0100
0001
0200
0000
,  // measure 15
0310
0000
0000
1000
0010
1000
0020
0000
,  // measure 16
1030
0000
0001
0010
0100
0000
1000
0010
,  // measure 17
0200
0000
0000
0302
0000
0000
0013
0000
0010
0000
0010
0000
,  // measure 18
0002
0000
0103
0010
0100
0000
0001
0010
,  // measure 19
0200
1300
0010
1002
,  // measure 20
2003
0000
3010
0100
0010
0000
1000
0100
,  // measure 21
0020
0031
0100
2001
,  // measure 22
3020
0000
0130
0001
0100
0001
2000
0000
,  // measure 23
3200
0000
0310
0001
0010
0001
1000
0000
,  // measure 24
1010
0000
0001
0100
0020
0000
1030
0001
,  // measure 25
2000
0000
3200
0000
0310
0001
1000
0000
,  // measure 26
1020
0000
0230
0000
,  // measure 27
0302
0000
0023
0000
,  // measure 28
0230
2300
3020
0230
,  // measure 29
0302
2003
0002
3003
,  // measure 30
1001
0000
0001
0100
0000
0100
0010
0000
,  // measure 31
0010
0000
1000
0100
0010
0001
1000
0000
,  // measure 32
0001
0010
0001
0010
0200
0000
1300
0000
,  // measure 33
0020
0000
0230
0000
0301
1000
0001
0000
,  // measure 34
0202
0303
2020
3030
,  // measure 35
0001
1000
0001
1000
0200
0000
0310
0000
,  // measure 36
1002
0000
1003
0010
0200
0000
0301
1000
,  // measure 37
0001
1000
0200
0000
0310
0000
0001
1000
,  // measure 38
0001
1100
0101
0011
,  // measure 39
1010
0000
0001
0100
1000
0100
0001
0000
,  // measure 40
2001
0000
3001
0100
0020
0000
1030
0001
,  // measure 41
1000
0001
0020
0000
0130
0000
1000
0001
,  // measure 42
0020
0000
0031
1000
0020
0000
0130
0001
,  // measure 43
2000
3100
0110
0110
,  // measure 44
0002
0100
1000
0100
,  // measure 45
2003
0100
0001
3100
,  // measure 46
2200
3300
0000
0000
0000
0000
0000
0000
0022
0033
0000
0000
0000
0000
0000
0000
0220
0330
0000
0000
0000
0000
0000
0000
1001
0000
0000
0000
0000
0000
0000
0000
,  // measure 47
1001
0000
0001
0100
0001
0100
0020
0000
,  // measure 48
1030
0000
0000
0000
0001
0010
0100
1000
,  // measure 49
0001
0000
1000
0100
1000
0100
0020
0000
,  // measure 50
0031
0000
0000
0000
1000
0010
0100
0001
,  // measure 51
1000
0000
0001
0100
0010
0100
0002
0000
,  // measure 52
1003
0000
0000
0000
0001
0010
0100
1000
,  // measure 53
0001
0000
1000
0010
0100
0010
2000
0000
,  // measure 54
3001
0000
0000
0000
1000
0100
0010
0001
,  // measure 55
1000
0002
0203
0320
,  // measure 56
1030
0001
0020
0003
0000
0000
0000
0000
,  // measure 57
3033
0000
0000
0000
;

//---------------dance-single - ----------------
#NOTEDATA:;
#CHARTNAME:;
#STEPSTYPE:dance-single;
#DESCRIPTION:;
#CHARTSTYLE:;
#DIFFICULTY:Easy;
#METER:5;
#RADARVALUES:0.247813,0.407143,0.112245,0.418367,0.000000,170.000000,159.000000,11.000000,41.000000,0.000000,0.000000,0.000000,0.000000,0.000000,0.247813,0.407143,0.112245,0.418367,0.000000,170.000000,159.000000,11.000000,41.000000,0.000000,0.000000,0.000000,0.000000,0.000000;
#CREDIT:Ben Speirs;
#NOTES:
// measure 0
0000
0000
0000
0000
,  // measure 1
0000
0000
0000
0000
,  // measure 2
0000
0000
0000
0000
,  // measure 3
0000
0000
0000
0000
,  // measure 4
1000
0100
0010
0001
,  // measure 5
0000
2000
3020
0230
,  // measure 6
0301
0010
0100
1000
,  // measure 7
0000
0002
0203
0320
,  // measure 8
2030
3000
0002
0003
,  // measure 9
1000
0100
0010
0010
,  // measure 10
0002
0003
1000
0001
,  // measure 11
0200
0300
0001
0100
,  // measure 12
0020
0030
1000
0100
,  // measure 13
0020
0030
0001
1000
,  // measure 14
0020
0030
0100
0100
,  // measure 15
0020
0030
1000
0000
,  // measure 16
0001
0010
0100
1000
,  // measure 17
0020
0000
0230
0000
0302
0000
0000
0003
,  // measure 18
1000
0100
0000
1000
,  // measure 19
0001
0010
0000
0001
,  // measure 20
1000
0010
0000
1000
,  // measure 21
0001
0100
0000
0001
,  // measure 22
2000
3000
0100
0010
,  // measure 23
0002
0003
0100
0010
,  // measure 24
1000
1000
0001
0001
,  // measure 25
0020
0230
2300
3000
,  // measure 26
0002
0000
0203
0000
,  // measure 27
0320
0000
2030
0000
,  // measure 28
3200
0000
0320
0000
,  // measure 29
0032
0000
2003
3000
,  // measure 30
1001
0000
0001
0100
,  // measure 31
0010
1000
1000
0001
,  // measure 32
0010
0010
0010
0000
,  // measure 33
0002
0203
0320
0030
,  // measure 34
2000
3000
0200
0300
,  // measure 35
0010
0010
0100
0100
,  // measure 36
2002
3003
1000
0001
,  // measure 37
0100
0020
0000
0030
,  // measure 38
0000
1001
1001
0010
,  // measure 39
0010
1001
0110
1001
,  // measure 40
0001
0100
0010
1000
,  // measure 41
0100
0200
0000
0300
,  // measure 42
1000
1000
0001
0000
,  // measure 43
0001
0001
0100
0000
,  // measure 44
1001
0000
0001
0010
,  // measure 45
0100
0000
1000
0000
,  // measure 46
0010
0010
0010
1001
,  // measure 47
1001
1001
1000
0100
,  // measure 48
0010
0000
0001
1000
,  // measure 49
0010
0000
1000
0010
,  // measure 50
0100
0000
0001
0010
,  // measure 51
0100
0000
1000
1000
,  // measure 52
0100
0100
1000
0010
,  // measure 53
0100
0000
0001
0001
,  // measure 54
0100
0100
0001
0010
,  // measure 55
0100
2000
0000
0300
,  // measure 56
0000
0002
0000
0000
,  // measure 57
0000
0000
0000
0000
;

//---------------dance-single - ----------------
#NOTEDATA:;
#CHARTNAME:;
#STEPSTYPE:dance-single;
#DESCRIPTION:;
#CHARTSTYLE:;
#DIFFICULTY:Beginner;
#METER:2;
#RADARVALUES:0.128280,0.232653,0.030612,0.102041,0.000000,88.000000,85.000000,3.000000,10.000000,0.000000,0.000000,0.000000,0.000000,0.000000,0.128280,0.232653,0.030612,0.102041,0.000000,88.000000,85.000000,3.000000,10.000000,0.000000,0.000000,0.000000,0.000000,0.000000;
#CREDIT:Ben Speirs;
#NOTES:
// measure 0
0000
0000
0000
0000
,  // measure 1
0000
0000
0000
0000
,  // measure 2
0000
0000
0000
0000
,  // measure 3
0000
0000
0000
0000
,  // measure 4
0001
0000
0000
0000
,  // measure 5
0100
0100
0100
0000
,  // measure 6
0100
0000
0000
0000
,  // measure 7
0010
0010
0010
0000
,  // measure 8
0010
0000
0000
0000
,  // measure 9
1000
0000
0000
0000
,  // measure 10
1001
0000
0000
0000
,  // measure 11
1000
0000
0000
0000
,  // measure 12
0100
0000
0000
0000
,  // measure 13
0010
0000
0000
0000
,  // measure 14
0001
0000
0000
0000
,  // measure 15
1000
0000
0000
0000
,  // measure 16
0010
0000
0010
0000
,  // measure 17
0010
0000
0000
0000
,  // measure 18
0100
0000
0000
0100
,  // measure 19
0100
0000
0000
0000
,  // measure 20
0001
0000
0000
0001
,  // measure 21
0001
0000
0000
0000
,  // measure 22
0010
0000
0000
0010
,  // measure 23
0010
0000
0000
0000
,  // measure 24
0100
0000
0100
0000
,  // measure 25
0100
0000
0000
0000
,  // measure 26
2000
0000
3000
0000
,  // measure 27
0020
0000
0030
0000
,  // measure 28
0200
0000
0300
0000
,  // measure 29
0002
0000
0003
0000
,  // measure 30
1001
0000
0000
0000
,  // measure 31
0000
1000
1000
1000
,  // measure 32
1000
0000
0000
0000
,  // measure 33
0100
0100
0100
0000
,  // measure 34
0100
0000
0000
0000
,  // measure 35
0010
0000
0010
0000
,  // measure 36
2002
3003
0000
0000
,  // measure 37
0001
0002
0000
0003
,  // measure 38
0000
0100
0100
0100
,  // measure 39
0100
0100
0100
0100
,  // measure 40
0200
0300
0000
0000
,  // measure 41
0010
0020
0030
0000
,  // measure 42
1000
0000
1000
0000
,  // measure 43
0001
0000
0001
0000
,  // measure 44
0010
0000
0000
0000
,  // measure 45
0100
0000
0000
0000
,  // measure 46
0010
0010
0010
0000
,  // measure 47
0000
0001
0000
0001
,  // measure 48
0000
0000
0100
0100
,  // measure 49
0000
0100
0000
0010
,  // measure 50
0000
0000
0010
0010
,  // measure 51
0000
0010
0000
1000
,  // measure 52
0000
0000
1000
1000
,  // measure 53
0000
1000
0000
0100
,  // measure 54
0000
0000
0100
0100
,  // measure 55
0000
0020
0000
0003
,  // measure 56
0000
0000
0000
0000
,  // measure 57
0030
0000
0000
0000
;

//---------------dance-double - ----------------
#NOTEDATA:;
#CHARTNAME:;
#STEPSTYPE:dance-double;
#DESCRIPTION:;
#CHARTSTYLE:;
#DIFFICULTY:Hard;
#METER:12;
#RADARVALUES:0.558309,0.610714,0.204082,0.653061,0.331633,383.000000,363.000000,20.000000,64.000000,0.000000,0.000000,0.000000,0.000000,0.000000,0.558309,0.610714,0.204082,0.653061,0.331633,383.000000,363.000000,20.000000,64.000000,0.000000,0.000000,0.000000,0.000000,0.000000;
#CREDIT:Ben Speirs;
#NOTES:
00000000
00000000
00000000
00000000
,
00000000
00000000
00000000
00000000
,
00000000
00000000
00000000
00000000
,
00000000
00000000
00000000
00000000
,
00010000
00000000
00010000
00000000
00001000
00000000
00010000
00000000
00100000
00000000
00000000
00100000
10000000
00000000
00010000
00000000
,
00200000
00000000
10300000
00100000
01000000
00100000
00001000
00013000
,
00001000
00000000
00001000
00000000
00010000
00000000
00001000
00000000
00000010
00000000
00000000
00000010
00000001
00000000
00001000
00000000
,
00000020
00000000
00000031
00000010
00000100
00000010
00010000
00031000
,
00201000
00301000
00010020
00010030
,
00010000
00000000
00000000
00001000
00000000
00000000
00010000
00000000
00000000
00001000
00000000
00000000
00100000
00000000
01000000
00000000
00100000
00000000
00010000
00000000
01000000
00000000
00100000
00000000
,
10000000
00000000
00010000
01000000
10000000
01000000
00020000
00000000
,
00130000
00000000
00000000
00100000
00000000
00000000
00001000
00000000
00010000
00000000
00000100
00000000
00000020
00000000
00000000
00000000
,
00000031
00000000
00001000
00000010
00000001
00000010
00002000
00000000
,
00003100
00000000
00000000
00000100
00000000
00000000
00010000
00000000
00001000
00000000
00100000
00000000
02000000
00000000
00000000
00000000
,
13000000
00000000
00000000
00200000
00000000
00000000
00310000
00000000
00001000
00000000
00000100
00000000
00000001
00000000
00001000
00000000
,
00000301
00000000
00000000
00000020
00000000
00000000
00001030
00000000
00010000
00000000
01000000
00000000
10000000
00000000
00010000
00000000
,
01000000
00000000
00100000
00000000
01000000
00000000
00010000
10000000
00010000
00000000
00000000
00100000
00001000
00100000
00001000
00000000
,
00020000
00000000
00000000
00332000
00000000
00000000
00013000
00000010
00001000
00000010
00010000
00000010
,
00000200
00000000
00000000
00000000
00000301
00000000
00001000
00000000
00000100
00000000
00001000
00000010
00000000
00001000
00000010
00000000
,
00020000
00000000
00000000
00000000
00031000
00000000
00100000
00000000
00010000
00000000
00000000
10000000
00100000
00000000
01000000
00000000
,
00200000
00000000
00000000
00000000
10300000
00000000
00010000
00000000
00100000
00000000
00010000
01000000
00000000
00010000
01000000
00000000
,
00002000
00000000
00000000
00000000
00013000
00000000
00000100
00000000
00001000
00000000
00000000
00000001
00000100
00000000
00000010
00000000
,
00001000
00000000
00000000
00000001
00000000
00000000
00001000
00000000
00000100
00000000
00010000
00000000
00002000
00000000
00000000
00000000
,
00103000
00000000
00000000
00100000
00001000
00000000
01000000
00000000
00100000
00000000
10000000
00000000
00020000
00000000
00000000
00000000
,
10030000
00000000
01000000
00000000
10000000
00010000
10000000
00010000
10000000
00000000
00000000
00010000
01000000
00010000
01000000
00000000
,
00002000
00000000
00020000
00033000
,
00020020
00030000
00000200
00000030
,
00000302
00000000
00002003
00000000
00000100
00000000
00003200
00030000
,
00023300
00000000
00031000
00100000
00002000
00000000
01003000
00100000
,
20000000
32000000
03020000
00130000
,
10100000
00000000
00000000
00010000
10000000
30000000
00020000
00000000
00000000
00000000
00130000
00000000
00001000
00000000
00010000
00000000
,
00000200
00000000
00001300
00000010
00000001
00000010
00001000
00000000
,
00000001
00000000
00000010
00000000
00000001
00001000
00000001
00001000
00000001
00000000
00000000
00001000
00000010
00001000
00000010
00000000
,
00002000
00000000
00003200
00000000
00010300
00001000
00010000
00000000
,
00010200
00010300
02001000
03001000
,
00001000
00000000
00000000
00010000
00000000
00000000
00001000
00000000
00000000
00010000
00000000
00000000
00000100
00000000
00000010
00000000
00000100
00000000
00001000
00000000
00000010
00000000
00000100
00000000
,
00000001
00000000
00001000
00000100
00000000
00000010
00000001
00000000
00001000
00000000
00000010
00000100
00000010
00000000
00001000
00000000
,
00000100
00010000
00002000
00000000
00100000
00100000
00103000
00000000
,
00101000
00000000
00002000
01000000
00023000
00000100
00032000
00100000
,
00013000
00000000
00001000
00010000
00100000
10000000
00010000
00000000
,
10000000
00000000
00010000
01000000
00000000
00100000
10000000
00000000
00010000
00000000
00100000
01000000
00100000
00000000
00010000
00000000
,
01000000
00001000
00020000
00000000
00030010
00001000
00030100
00000010
,
00000012
00000000
00001003
00000010
00002010
00000000
00003100
00010000
,
00011000
01001000
01100000
10010000
,
20000000
00000000
30100000
00200000
00000000
01300000
00001000
00010000
,
00000200
00000000
00000310
00000020
00000000
00000031
00001000
00000010
,
00002002
00003003
00000000
00000000
00000000
00000000
00000000
00000000
00022000
00033000
00000000
00000000
00000000
00000000
00000000
00000000
20020000
30030000
00000000
00000000
00000000
00000000
00000000
00000000
00011000
00000000
00000000
00000000
00000000
00000000
00000000
00000000
,
00011000
00000000
00000000
00000000
00101000
00000000
00100000
00000000
00010000
01000000
00010000
01000000
00100000
00000000
00000000
10000000
,
00010000
10000000
01000000
00000000
20000000
00000000
00000000
00000000
30010000
00000000
01000000
00000000
00001000
00000000
00010000
00000000
,
00000020
00000000
00000000
00000000
00000130
00000000
00000001
00000000
00001000
00000100
00001000
00000100
00000010
00000000
00000000
00000001
,
00001000
00000001
00000100
00000000
00000002
00000000
00000000
00000000
00001003
00000000
00000100
00000000
00010000
00000000
00001000
00000000
,
00200000
00000000
00000000
00000000
03310000
00000000
10000000
00000000
00100000
01000000
00010000
01000000
00100000
00000000
00000000
10000000
,
00010000
10000000
01000000
00000000
00020000
00000000
00000000
00000000
01030000
00000000
00010000
00000000
00031000
00000000
00000010
00000000
,
00000002
00000000
00000000
00000000
00001333
00000000
00000001
00000000
00000100
00000010
00001000
00000010
00000100
00000000
00000000
00000001
,
00001000
00000001
00000010
00000000
00002000
00000000
00000000
00000000
00003010
00000000
00001000
00000000
00013000
00000000
01000000
00000000
,
10000000
00000000
00000000
00000000
10020000
00000000
00000000
00000000
02030000
00000000
00000000
00000000
03001000
00000000
00000000
00010000
,
00001000
00010000
00000020
00000000
00000000
00000000
00000000
00000000
,
00000030
00000000
00000000
00000000
;

//---------------dance-double - ----------------
#NOTEDATA:;
#CHARTNAME:;
#STEPSTYPE:dance-double;
#DESCRIPTION:;
#CHARTSTYLE:;
#DIFFICULTY:Medium;
#METER:9;
#RADARVALUES:0.412536,0.465306,0.295918,1.010204,0.025510,283.000000,254.000000,29.000000,99.000000,0.000000,0.000000,0.000000,0.000000,0.000000,0.412536,0.465306,0.295918,1.010204,0.025510,283.000000,254.000000,29.000000,99.000000,0.000000,0.000000,0.000000,0.000000,0.000000;
#CREDIT:Ben Speirs;
#NOTES:
00000000
00000000
00000000
00000000
,
00000000
00000000
00000000
00000000
,
00000000
00000000
00000000
00000000
,
00000000
00000000
00000000
00000000
,
00020000
00000000
00032000
00000000
00103000
00010000
00200000
00000000
,
00310000
00000000
10000000
00010000
10000000
00010000
02000000
00000000
,
03002000
00000000
00023000
00000000
00030010
00001000
00000020
00000000
,
00001030
00000000
00000001
00001000
00000001
00001000
00000100
00000000
,
00020200
00030300
00202000
00303000
,
00001000
00010000
00001000
00010000
00200000
00000000
10300000
00000000
,
20020000
00000000
30030000
00000000
10000000
31000000
00200000
00000000
,
00301000
00000000
00000000
00010000
00001000
00010000
00002000
00000000
,
00013000
00000000
00000010
00000000
00001000
00000100
00000020
00000000
,
00000031
00000100
00000010
00000000
00001000
00000100
00000010
00000000
,
00000002
00000000
00000003
00000000
00001000
00000010
00020000
00000000
,
00032000
00000000
00003000
00000000
00100000
00010000
10000000
00000000
,
10010000
00000000
00010000
01000000
00200000
00000000
10300000
00010000
,
00200000
00000000
00000000
00302000
00000000
00000000
00013000
00000000
00001000
00000000
00010000
00000000
,
00021000
00000000
00030010
00000000
00001000
00000100
00000010
00000000
,
00000002
00000000
00001003
00000010
00000100
00000010
00002000
00000000
,
00003100
00000000
00010000
00000000
00001000
00100000
00010000
00000000
,
20000000
00000000
30010000
01000000
00100000
01000000
00010000
00000000
,
20200000
00000000
30300000
00010000
00100000
00010000
00100000
00000000
,
00022000
00000000
00033000
00010000
00000010
00010000
00000010
00000000
,
00002010
00000000
00003001
00000010
00000200
00000000
00001300
00000000
,
00000020
00000000
00020030
00000000
00031000
00100000
00010000
00000000
,
20010000
00000000
30200000
00000000
,
02300000
00000000
03002000
00000000
,
00023000
00030200
00000320
00000032
,
00000203
00000320
00020030
00031000
,
00022000
00000000
00033000
00000000
00001000
00100000
00020000
00000000
,
20030000
00000000
30010000
01000000
00100000
01000000
00010000
00000000
,
01010000
00000000
10000000
01000000
00200000
00000000
00301000
00010000
,
00000020
00000000
00002030
00000000
00003100
00010000
00001000
00000000
,
00202000
00303000
00020200
00030300
,
00010000
00001000
00010000
00001000
00000200
00000000
00000301
00000000
,
00001002
00000000
00000103
00000010
00000200
00000000
00000302
00000000
,
00001003
00000100
00020000
00000000
00031000
00010000
00000010
00000100
,
00000001
00000101
00001010
01010000
,
10100000
00000000
00010000
10000000
00020000
00000000
10030000
00000000
,
20010000
00000000
30100000
01000000
00200000
00000000
20300000
00000000
,
30010000
00100000
00002000
00000000
00100000
00000000
00013000
00001000
,
00020000
00000000
00030020
00000000
00000230
00000000
00000301
00001000
,
00000200
00010300
00011000
00011000
,
00200000
00310000
20000000
30100000
,
02000000
00000000
03010000
00000000
01000000
00001000
00010000
00000000
,
00022000
00033000
00000000
00000000
00000000
00000000
00000000
00000000
00220000
00330000
00000000
00000000
00000000
00000000
00000000
00000000
00002020
00003030
00000000
00000000
00000000
00000000
00000000
00000000
00011000
00000000
00000000
00000000
00000000
00000000
00000000
00000000
,
00011000
00000000
00001000
00010000
00002000
00000000
00203000
00000000
,
00320000
00000000
10030000
00000000
00010000
01000000
00100000
01000000
,
00020000
10030000
00020000
00230000
,
00302000
00000000
00013000
00000000
00000100
00010000
00001000
00010000
,
00000200
00000000
00001300
00000000
00001002
00000000
00000103
00000010
,
00000200
00000000
00000310
00000000
00010000
00001000
00200000
00000000
,
00320000
00000000
10030000
00000000
20010000
00000000
31000000
00100000
,
02000000
00000000
03100000
00000000
00001000
00010000
00000020
00000000
,
00001030
00001002
00000023
00000230
,
00010300
00001000
00020000
00000000
00000000
00000000
00000000
00000000
,
00030000
00000000
00000000
00000000
;

//---------------dance-double - ----------------
#NOTEDATA:;
#CHARTNAME:;
#STEPSTYPE:dance-double;
#DESCRIPTION:;
#CHARTSTYLE:;
#DIFFICULTY:Easy;
#METER:5;
#RADARVALUES:0.224490,0.378061,0.122449,0.306122,0.000000,154.000000,142.000000,12.000000,30.000000,0.000000,0.000000,0.000000,0.000000,0.000000,0.224490,0.378061,0.122449,0.306122,0.000000,154.000000,142.000000,12.000000,30.000000,0.000000,0.000000,0.000000,0.000000,0.000000;
#CREDIT:Ben Speirs;
#NOTES:
00000000
00000000
00000000
00000000
,
00000000
00000000
00000000
00000000
,
00000000
00000000
00000000
00000000
,
00000000
00000000
00000000
00000000
,
00010000
00010000
00001000
00000000
,
00100000
00010000
01000000
00000000
,
00001000
00001000
00010000
00000000
,
00000010
00001000
00000100
00000000
,
00001001
00000000
00001001
00000000
,
00000001
00000100
00001000
00010000
,
00200000
00000000
00300000
00000000
,
20000000
00000000
30000000
00000000
,
02000000
00000000
03000000
00000000
,
00200000
00000000
00300000
00000000
,
00001000
00001000
00000000
00000000
,
00010000
00010000
00000000
00000000
,
00000010
00000010
00001000
00000100
,
00000010
00000001
00002000
00003000
,
00000001
00000100
00000000
00000100
,
00000010
00010000
00000000
00010000
,
00001000
00100000
00000000
00100000
,
00010000
00000000
10000000
00000000
,
10000000
00100000
00000000
00100000
,
01000000
00001000
00000000
00001000
,
00010000
00010000
00000200
00000300
,
00000020
00000032
00001003
00000000
,
00001002
00000000
00000000
00000000
,
00000203
00000000
00000000
00000000
,
00000320
00000000
00020030
00000000
,
00032000
00000000
00203000
00300000
,
20020000
30030000
00010000
01000000
,
00100000
00000000
10000000
00000000
,
00010000
00010000
00100000
00001000
,
00020000
00030020
00000230
00000300
,
00002002
00003003
00002002
00003003
,
00000001
00001000
00000010
00010000
,
00001000
00001000
00100000
00100000
,
00010000
02000000
00000000
03000000
,
00000000
01100000
01100000
10010000
,
10010000
10000000
01000000
00100000
,
00001000
00001000
00010000
00010000
,
00000010
00000200
00000000
00000300
,
00002002
00003003
00000001
00000010
,
00000100
00000100
00010000
00010000
,
00001000
00000000
01000000
00000000
,
00010000
00010000
10000000
00000000
,
00100000
00100000
00100000
00000000
,
00000000
10010000
10000000
01000000
,
00100000
00000000
00001000
00010000
,
00001000
00000000
00010000
00000010
,
00000100
00000000
00000001
00001000
,
00000001
00000000
00001000
00000100
,
00010000
00000000
00001000
00010000
,
00001000
00000000
00100000
00010000
,
10000000
00000000
00010000
01000000
,
00001000
00020000
00000000
00030200
,
00000000
00000320
00000000
00000000
,
00000030
00000000
00000000
00000000
;
