#VERSION:0.83;
#TITLE:THE DAY OF JUBILATIONS;
#SUBTITLE:;
#ARTIST:BEMANI Sound Team "S-C-U vs L.E.D.";
#TITLETRANSLIT:;
#SUBTITLETRANSLIT:;
#ARTISTTRANSLIT:;
#GENRE:;
#CREDIT:;
#MUSIC:THE DAY OF JUBILATIONS.ogg;
#BANNER:banner.png;
#BACKGROUND:background.png;
#CDTITLE:;
#SAMPLESTART:40.407;
#SAMPLELENGTH:20.000;
#SELECTABLE:YES;
#OFFSET:-0.636;
#BPMS:0.000=181.000;
#STOPS:;
#SPEEDS:0.000=1.000=0.000=0;
#SCROLLS:0.000=1.000;
#TICKCOUNTS:0.000=4;
#TIMESIGNATURES:0.000=4=4;
#LABELS:0.000=Song Start;
#COMBOS:0.000=1;
#ORIGIN:;
#TAGS:;
#PREVIEWVID:;
#JACKET:jacket.png;
#CDIMAGE:;
#DISCIMAGE:;
#BGCHANGES:;
#FGCHANGES:;

//--------------- dance-single - ----------------
#NOTEDATA:;
#STEPSTYPE:dance-single;
#DESCRIPTION:;
#DIFFICULTY:Beginner;
#METER:4;
#RADARVALUES:0.196685,0.258587,0.052616,0.017539,0,157,151,6,2,0,0,0,0,0,0.196685,0.258587,0.052616,0.017539,0,157,151,6,2,0,0,0,0,0;
#CHARTNAME:;
#CHARTHASH:2844472887;
#BANNER:;
#CHARTSTYLE:;
#METERF:0.000000;
#LASTSECONDHINT:112.347710;
#CREDIT:ZSL;
#NOTES:
0000
0000
0000
0000
,
0000
0000
0000
0000
,
0000
0000
0000
0000
,
0000
0000
0000
0000
,
1000
0000
0001
0000
,
0010
0000
0000
0000
,
0001
0000
1000
0000
,
0010
0000
0000
0000
,
0100
0000
0001
0000
,
1000
0000
0000
0000
,
0100
0000
0010
0000
,
0001
0000
0000
0000
,
1000
0000
0000
0000
,
0001
0000
0000
0000
,
0100
0000
0000
0000
,
0010
0000
0000
0000
,
1000
0000
0000
0000
,
0100
0000
0000
0000
,
0010
0000
0000
0000
,
0100
0000
0100
0000
,
1000
0000
0001
0000
,
0100
0000
0000
0000
,
0001
0000
0010
0000
,
0100
0000
0000
0000
,
1000
0000
0001
0000
,
0100
0000
0000
0000
,
0010
0000
1000
0000
,
0100
0100
0100
0000
,
0010
0000
0000
0110
,
0000
0000
1000
1000
,
0001
0000
0100
0000
,
0010
1000
0010
0000
,
1000
0000
0001
0000
,
0010
0100
0010
0000
,
0001
0000
1000
0000
,
0100
0010
0001
0000
,
1000
0000
0001
0000
,
0100
0000
0010
0010
,
1000
0000
0100
0000
,
0010
0001
0010
0000
,
0001
0000
1000
0000
,
0010
0100
0010
0000
,
1000
0000
0001
0000
,
0010
0100
1000
0000
,
0001
0000
1000
0000
,
0100
0000
0010
0000
,
0001
0000
1000
0000
,
0010
0000
0100
0100
,
0001
0000
1000
0000
,
0100
0000
0000
0000
,
0010
0000
0100
0000
,
1000
0000
0000
0000
,
0001
0000
0100
0000
,
0010
0000
0000
0000
,
0100
0000
0001
0000
,
0010
0000
0100
0100
,
1000
0000
0000
1001
,
0000
0000
0001
0000
,
0100
0000
0000
0110
,
0000
0000
1000
0000
,
0001
0000
0000
0000
,
0010
0000
0000
0000
,
0100
0000
1000
0000
,
0010
0100
0001
0000
,
1000
0000
0100
0000
,
0010
0001
1000
0000
,
0010
0000
0100
0000
,
0001
0000
1000
1000
,
0100
0000
0010
0000
,
0100
1000
0010
0000
,
0100
0000
0001
0000
,
0010
0001
0100
0000
,
0010
0000
0000
0000
,
1000
0000
0000
0001
,
1000
0000
0010
0000
,
0100
0010
1000
0000
,
0001
0000
0010
0000
,
0100
0000
1000
1000
,
0001
0000
0000
1001
,
0000
0000
0010
0000
,
0100
0000
0000
0110
,
0000
0000
0001
1000
,
0000
2002
0000
0000
,
0000
0000
0000
0000
,
0000
3003
0000
0000
;

//--------------- dance-single - ----------------
#NOTEDATA:;
#STEPSTYPE:dance-single;
#DESCRIPTION:;
#DIFFICULTY:Easy;
#METER:8;
#RADARVALUES:0.353281,0.369411,0.114002,0.017539,0.135926,282,269,13,2,0,0,0,0,0,0.353281,0.369411,0.114002,0.017539,0.135926,282,269,13,2,0,0,0,0,0;
#CHARTNAME:;
#CHARTHASH:1090613595;
#BANNER:;
#CHARTSTYLE:;
#METERF:0.000000;
#LASTSECONDHINT:112.347710;
#CREDIT:ZSL;
#NOTES:
0000
0000
0000
0000
,
0000
0000
0000
0000
,
0000
0000
0000
0000
,
0000
0000
0000
0000
,
1000
0010
1000
0001
,
0010
0100
1000
0000
,
0100
0010
0001
1000
,
0010
0100
0001
0000
,
0100
0010
1000
0001
,
0010
0001
0100
0000
,
0010
0100
0001
0001
,
1000
0000
0000
1001
0000
0000
0000
0000
,
0001
0100
0010
0000
,
1000
0001
0010
0000
,
0100
0000
0000
0100
0000
0000
1000
0000
,
0001
0100
0010
0000
,
1000
0100
0010
0000
,
0100
1000
0010
0000
,
0100
0000
0000
0100
0000
0000
0001
0000
,
1000
0100
0010
0010
,
0100
1000
0001
1000
,
0010
0000
0100
0000
,
0010
1000
0100
0010
,
0001
0000
1000
0000
,
0010
0100
0001
0000
,
1000
0001
0010
0000
,
0100
0010
0001
1000
,
0010
0010
0100
0100
,
0001
0000
0000
1001
0000
0000
1000
0000
,
0000
1100
0000
0000
0100
0000
1000
0000
,
0001
0000
0000
0100
0000
0000
0000
0000
0010
0000
0000
0100
0000
0000
0000
0000
,
0001
0000
0000
1000
0000
0000
0000
0000
0100
0000
0000
0000
0010
0000
0000
0000
,
0100
0000
0000
1000
0000
0000
0000
0000
0001
0000
0000
1000
0000
0000
0000
0000
,
0010
0000
0000
0100
0000
0000
0000
0000
0001
0000
0000
0000
1000
0000
0000
0000
,
0100
0000
0000
0010
0000
0000
0000
0000
0001
0000
0000
0010
0000
0000
0000
0000
,
0100
0000
0000
1000
0000
0000
0000
0000
0001
0000
0000
0000
0100
0000
0000
0000
,
0010
0000
0000
0010
0000
0000
0100
0000
,
0001
1000
0100
0100
,
1000
0000
0000
0100
0000
0000
0000
0000
0010
0000
0000
0100
0000
0000
0000
0000
,
1000
0000
0000
0001
0000
0000
0000
0000
0100
0000
0000
0000
0010
0000
0000
0000
,
0100
0000
0000
0001
0000
0000
0000
0000
1000
0000
0000
0001
0000
0000
0000
0000
,
0010
0000
0000
0100
0000
0000
0000
0000
1000
0000
0000
0000
0001
0000
0000
0000
,
0100
0000
0000
0010
0000
0000
0000
0000
1000
0000
0000
0010
0000
0000
0000
0000
,
0100
0000
0000
0001
0000
0000
0000
0000
0010
0000
0000
0000
0100
0000
0000
0000
,
1000
0000
0000
1000
0000
0000
0001
0000
,
0100
0010
1000
0000
,
0001
0010
0100
1000
,
0001
0001
1000
1000
,
0010
0100
0001
0000
,
0010
0100
1000
0000
,
0001
0100
0010
1000
,
0001
0000
0010
0000
,
0100
1000
0010
0000
,
0100
0001
1000
0000
,
0100
0010
0001
1000
,
0010
0010
0100
0100
,
0001
0000
0000
1001
0000
0000
1000
0000
,
0000
1010
0000
0000
0100
0000
0001
0000
,
1000
0000
0000
1001
0000
0000
0001
0000
,
0000
0011
0000
0000
0100
0000
1000
0000
,
0010
0000
0100
0000
,
0001
0000
1000
1000
,
0010
0000
0000
0100
0000
0000
0000
0000
0001
0000
0000
1000
0000
0000
0000
0000
,
0100
0000
0000
0010
0000
0000
0000
0000
0100
0000
0000
0000
1000
0000
0000
0000
,
0001
0000
0000
0010
0000
0000
0000
0000
0100
0000
0000
1000
0000
0000
0000
0000
,
0001
0000
0000
0100
0000
0000
0000
0000
0010
0000
0000
0000
1000
0000
0000
0000
,
0100
0000
0000
0100
0000
0000
1000
0000
,
0001
0100
0010
0010
,
0100
0000
0000
0001
0000
0000
0000
0000
0010
0000
0000
0100
0000
0000
0000
0000
,
1000
0000
0000
0010
0000
0000
0000
0000
0100
0000
0000
0000
0001
0000
0000
0000
,
0010
0000
0000
0001
0000
0000
0000
0000
0100
0000
0000
0010
0000
0000
0000
0000
,
1000
0000
0000
0100
0000
0000
0000
0000
0010
0000
0000
0000
0001
0000
0000
0000
,
1000
0000
0001
0000
,
0100
0000
0010
1000
,
0001
0010
0100
0010
,
0001
1000
0010
0000
,
0110
0100
0001
1000
,
0100
0100
0010
0010
,
0001
0000
0000
0101
0000
0000
0100
0000
,
0000
0110
0000
0000
0100
0000
0001
0000
,
1000
0000
0000
1100
0000
0000
0100
0000
,
0000
0000
0110
0000
0000
0000
0000
0000
0100
0000
0000
0000
1000
0000
0000
0001
,
0000
2002
0000
0000
,
0000
0000
0000
0000
,
0000
3003
0000
0000
;

//--------------- dance-single - ----------------
#NOTEDATA:;
#STEPSTYPE:dance-single;
#DESCRIPTION:;
#DIFFICULTY:Medium;
#METER:13;
#RADARVALUES:0.636407,0.627998,0.087694,0.070155,0.271851,508,498,10,8,0,0,0,0,0,0.636407,0.627998,0.087694,0.070155,0.271851,508,498,10,8,0,0,0,0,0;
#CHARTNAME:;
#CHARTHASH:2508532789;
#BANNER:;
#CHARTSTYLE:;
#METERF:0.000000;
#LASTSECONDHINT:112.347710;
#CREDIT:ZSL;
#NOTES:
0000
0000
0000
0000
,
0000
0000
0000
0000
,
0000
0000
0000
0000
,
0000
0000
0000
0000
,
1000
0000
0010
1000
0010
0000
1000
0001
,
1000
0000
0001
0010
0001
0000
1000
0000
,
0100
0000
0010
0100
0010
0000
0001
1000
,
0001
0000
0010
0000
0100
1000
0100
1000
,
0001
0000
0100
0010
1000
0000
0010
0100
,
0001
0000
1000
0100
0010
0000
0001
0000
,
1001
0000
1000
0010
0100
0001
1000
0001
,
0010
0000
0000
0100
0000
0000
0110
0000
0000
0000
0000
0000
0000
0000
0000
0000
,
0010
0000
0000
0001
0000
0000
1000
0000
0010
0000
0000
0000
1000
0000
0000
0000
,
0001
0000
0000
0010
0000
0000
0100
0000
1000
0000
0000
0000
0001
0000
0000
0000
,
0100
0000
0000
0010
0000
0000
1000
0000
0000
0000
0001
0000
1000
0000
0000
0000
,
0100
0000
0010
0100
1000
0000
0001
0000
,
0100
0000
0000
0010
0000
0000
1000
0000
0100
0000
0000
0000
0010
0000
0000
0000
,
0100
0000
0000
1000
0000
0000
0010
0000
0100
0000
0000
0000
0001
0000
0000
0000
,
1000
0000
0000
0001
0000
0000
0010
0000
0000
0000
0100
0000
1000
0000
0001
0000
,
0100
0010
0100
0010
1000
0001
0100
0000
,
0001
1000
0100
1000
0001
0100
0010
0100
,
0001
0000
1000
0000
0100
0010
0100
0000
,
1000
0100
0010
0001
0100
0010
1000
0001
,
1000
0000
0100
0000
0010
0001
0010
0000
,
0001
1000
0010
0000
0100
0001
1000
0100
,
0010
0000
0100
0000
1000
0001
1000
0000
,
0010
0100
0010
0100
0001
1000
0010
0100
,
0001
1000
0001
1000
0001
0000
0010
0000
,
0100
0000
0000
1000
0000
0000
0100
0000
0000
0010
0000
0000
0001
0000
0000
0100
,
0000
0000
0010
0000
0000
1000
0000
0000
0001
0000
1000
0000
0100
0000
0010
0000
,
0001
0000
1000
0001
0000
0000
1000
0000
0010
0000
0100
0010
0000
0000
0100
0000
,
0001
0000
1000
0001
0000
0000
1000
0000
0100
0000
0000
0000
0010
0000
0100
0000
,
1000
0000
0000
0000
0001
0000
0100
0000
0010
0000
0000
0100
0000
0000
0010
0000
,
1000
0000
0000
0001
0000
0000
0010
0000
0100
0000
0010
0000
0001
0000
1000
0000
,
0010
0000
0100
0010
0000
0000
1000
0000
0001
0000
0010
0001
0000
0000
1000
0000
,
0100
0000
1000
0001
0000
0000
0100
0000
0010
0000
1000
0000
0100
0000
1000
0000
,
0010
0000
0100
0001
1000
0000
0100
0010
,
0001
0000
0010
0100
1000
0001
0100
0010
,
1000
0000
0001
1000
0000
0000
0001
0000
0010
0000
0100
0010
0000
0000
0100
0000
,
1000
0000
0001
1000
0000
0000
0001
0000
0100
0000
0000
0000
0010
0000
0100
0000
,
0001
0000
0000
0000
1000
0000
0100
0000
0010
0000
0000
0100
0000
0000
0010
0000
,
0001
0000
0000
1000
0000
0000
0010
0000
0100
0000
0010
0000
1000
0000
0001
0000
,
0010
0000
0100
0010
0000
0000
0001
0000
1000
0000
0010
1000
0000
0000
0001
0000
,
0010
0000
0100
1000
0000
0000
0100
0000
0010
0000
0001
0000
0100
0000
0001
0000
,
0010
0000
0100
1000
0002
0000
0103
0010
,
1000
0000
0001
0000
0010
0000
0001
0000
0100
0000
0000
0010
0000
0000
1000
0000
,
0002
0000
1003
0100
0020
0000
0130
0010
,
0001
0000
1000
0000
0001
0000
1000
0000
0010
0000
0100
0010
0100
0000
0000
0000
,
0001
0100
0010
0100
0001
0000
1000
0000
,
0001
0010
0100
0010
0001
0000
1000
0000
,
0001
0100
0010
1000
0100
1000
0001
0000
,
0100
0000
0010
0000
1000
0000
0001
0001
,
1000
0000
0100
0000
1000
0010
0100
0001
,
1000
0000
0100
0000
0010
0000
0100
1000
,
0010
0000
0100
0001
1000
0000
0100
0000
,
0010
0001
0010
0001
1000
0010
0100
0001
,
1000
0000
0000
0100
0000
0000
0010
0000
0000
0100
0000
0000
1000
0000
0000
0010
,
0000
0000
0100
0000
0000
0101
0000
0000
0001
0000
0010
0000
0100
0000
1000
0000
,
0001
0000
0000
0100
0000
0000
0010
0000
0000
0100
0000
0000
0001
0000
0000
0010
,
0000
0000
0100
0000
0000
1100
0000
0000
1000
0000
0010
0000
0100
0000
0001
0000
,
1000
0000
0000
0100
0000
0000
0010
0000
0001
0000
0000
0000
0000
0000
0000
0000
,
0010
0000
0000
0100
0000
0000
1000
0000
0001
0000
0000
0000
1001
0000
0000
0000
,
1000
0000
0010
0100
0000
0000
0001
0000
0010
0000
0100
1000
0000
0000
0100
0000
,
0010
0000
0001
1000
0000
0000
0001
0000
0100
0000
0010
0000
1000
0000
0010
0000
,
0100
0000
0001
0010
0000
0000
0100
0000
1000
0000
0010
0100
0000
0000
0010
0000
,
1000
0000
0100
0010
0000
0000
0100
0000
1000
0000
0001
0000
0100
0000
0001
0000
,
0010
0000
0100
1000
0001
0000
0100
0010
,
1000
0000
0001
0010
0100
1000
0001
0100
,
0010
0000
1000
0001
0000
0000
0010
0000
0100
0000
1000
0010
0000
0000
1000
0000
,
0100
0000
0010
0001
0000
0000
1000
0000
0100
0000
0000
0000
0010
0000
0001
0000
,
0100
0000
0010
1000
0001
0000
0010
0100
,
1000
0000
0000
0100
0000
0000
0010
0000
0001
0000
0100
0000
0010
0000
1000
0000
,
0100
0000
0000
0010
0000
0000
0001
0000
1000
0000
0000
0000
0000
0000
0000
0000
,
0010
0000
0000
0100
0000
0000
0001
0000
1000
0000
0100
0000
2000
0000
0000
0000
,
3001
0100
0010
1000
0010
1000
0001
0000
,
1000
0000
0100
0000
0010
0000
0001
0000
0100
0000
0000
0010
0000
0000
0100
0000
,
0002
0000
1003
0100
0020
0000
0031
1000
,
0010
0000
0100
0000
0001
0000
1000
0000
0100
0000
0010
0001
0010
0000
0001
0000
,
0100
0000
0000
0001
0000
0000
1000
0000
0000
0010
0000
0000
1000
0000
0000
0100
,
0000
0000
0110
0000
0000
0011
0000
0000
0001
0000
1000
0000
0100
0000
1000
0000
,
0010
0000
0000
1000
0000
0000
0001
0000
0000
0100
0000
0000
0001
0000
0000
0010
,
0000
0000
0110
0000
0000
1100
0000
0000
1000
0000
0001
0000
0010
0000
0001
0100
,
0000
0220
0000
0000
,
0000
0000
0000
0000
,
0000
0330
0000
0000
;

//--------------- dance-single - ----------------
#NOTEDATA:;
#STEPSTYPE:dance-single;
#DESCRIPTION:;
#DIFFICULTY:Hard;
#METER:16;
#RADARVALUES:0.919533,0.997409,0.280621,0.105233,0.938325,734,702,32,12,0,0,0,0,0,0.919533,0.997409,0.280621,0.105233,0.938325,734,702,32,12,0,0,0,0,0;
#CHARTNAME:;
#CHARTHASH:3918174462;
#BANNER:;
#CHARTSTYLE:;
#METERF:0.000000;
#LASTSECONDHINT:112.347710;
#CREDIT:ZSL;
#NOTES:
0000
0000
0000
0000
,
0000
0000
0000
0000
,
0000
0000
0000
0000
,
0000
0000
0000
0000
,
1000
0000
0001
1000
0000
0000
0010
0000
1000
0000
0010
0100
0000
0000
0001
0000
,
0010
0000
0001
1000
0000
0000
0010
0000
0100
0000
0010
1000
0000
0000
0001
0000
,
0010
0000
0100
0010
0000
0000
0100
0000
1000
0000
0001
1000
0000
0000
0001
0000
,
0100
0000
0010
0100
0000
0000
0010
0000
1000
0010
1000
0010
0100
0001
0100
0001
,
1000
0000
0100
0010
0000
0000
0100
0000
1000
0000
0001
0100
0000
0000
0010
0000
,
1000
0000
0010
0100
0000
0000
0001
0000
0010
0000
0100
1000
0000
0000
0001
0100
,
0010
0000
1000
0000
0001
0000
1000
0000
0100
1000
0100
1000
0001
0010
0001
0010
,
0100
0000
0000
1000
0000
0000
1001
0000
0000
0000
0000
0000
0000
0000
0000
0000
,
1000
0000
0000
0001
0000
0000
1000
0000
0100
0000
0000
0000
0010
0000
0100
0000
,
1000
0000
0000
0001
0000
0000
0100
0000
0010
0000
0000
0000
0100
0000
0001
0000
,
0010
0000
0000
0001
0000
0000
1000
0000
0000
0000
0010
0000
0100
0000
0001
0000
,
1000
0000
0001
0010
0000
0000
0100
0000
1000
0000
0000
0000
0001
0000
0100
0000
,
0101
0000
0000
0010
0000
0000
1000
0000
0100
0000
0000
0000
0010
0000
0001
0000
,
1000
0000
0000
0010
0000
0000
1000
0000
0100
0000
0000
0000
0010
0000
0001
0000
,
1001
0000
0000
1000
0000
0000
0010
0000
0000
0000
0100
0000
0001
0000
0010
0000
,
0110
0000
0100
0000
1000
0000
0001
0000
0100
0000
0010
0100
0001
0100
0001
0100
,
0010
0000
1000
0100
1000
0000
0001
0000
0100
0000
0010
1000
0010
0000
0100
0000
,
0001
0000
0010
0100
0010
0000
0001
0000
0100
0000
0010
0000
0100
0000
0001
0000
,
1000
0000
0001
0010
0001
0000
0100
0000
0010
0000
0100
0000
0001
0000
1000
0000
,
0100
0000
0010
0001
0010
0000
0100
0000
1000
0000
0001
0000
0100
0000
0001
0100
,
0010
1000
0001
0000
0100
0010
1000
0100
,
0010
0000
0001
1000
0001
0000
0000
0000
0010
0000
0100
0000
1000
0000
0001
0000
,
0100
0000
0010
0000
0100
0000
0001
0000
1000
0100
0010
0001
1000
0010
0100
0001
,
1000
0001
1000
0001
1000
0001
1000
0001
1000
0000
0010
0100
0001
0000
0010
0100
,
1000
0000
0000
0100
0000
0000
0110
0000
0000
0010
0000
0000
0011
0000
0000
0001
,
0000
0000
1001
0000
0000
1000
0000
0000
0010
0100
0010
0100
0001
1000
0100
0010
,
0001
0000
1000
0100
0000
1000
0100
0000
0010
0000
0001
0010
0000
0001
0010
0000
,
0001
0000
1000
0010
0000
1000
0010
0000
0200
0000
0000
0000
0310
0100
0001
1000
,
0200
0000
0000
0000
0310
0000
0001
1000
0010
0000
0100
0010
0000
0000
0100
0000
,
0001
0000
1000
0100
0000
0000
0010
0000
0001
1000
0001
1000
0010
0100
0010
0100
,
0001
0000
0100
0001
0000
0100
0001
0000
1000
0000
0100
1000
0000
0100
1000
0000
,
0100
0000
0010
0100
0000
0010
0100
0000
1000
0001
0100
0010
1000
0001
0010
0100
,
1000
0000
0000
0000
0001
0000
0100
0000
0010
0100
0001
0000
1000
0000
0100
0010
,
0100
0000
1000
0000
0001
0010
0001
0000
1000
0100
0010
0100
1000
0001
0100
0001
,
1000
0000
0001
0100
0000
0001
0100
0000
0010
0000
1000
0010
0000
1000
0010
0000
,
1000
0000
0001
0010
0000
0001
0010
0000
0200
0000
0000
0000
0310
0100
1000
0001
,
0200
0000
0000
0000
0310
0000
1000
0001
0010
0000
0100
0010
0000
0000
0100
0000
,
1000
0000
0001
0100
0000
0000
0010
0000
1000
0001
1000
0001
0010
0100
0010
0100
,
1000
0000
0100
1000
0000
0100
1000
0000
0001
0000
0100
0010
0000
0100
0001
0000
,
0010
0000
0100
0010
0000
0100
0010
0000
0001
0000
0100
0010
1000
0001
0010
0100
,
2000
0000
3001
0100
0010
0100
0001
1000
,
0100
0000
0010
0000
0001
0000
0100
0000
0110
0000
0000
1001
0000
0000
1100
0000
,
0120
0000
0031
0010
0100
0010
0001
1000
,
0001
1000
0001
1000
0001
1000
0001
1000
0100
0000
0010
0001
0100
0000
0010
1000
,
0100
0010
0001
0010
0100
1000
0001
1000
,
0010
0100
0001
0100
0010
1000
0001
0010
,
0100
0010
0001
1000
0010
1000
0001
0010
,
0100
0000
0000
0000
1000
0000
0000
0000
0100
0000
0100
0000
1000
0000
1000
0001
,
0100
0010
1000
0010
0100
0001
1000
0100
,
0010
0100
1000
0001
0100
0001
1000
0100
,
0010
0010
0100
0100
1000
1000
0001
0001
,
0100
0010
0100
0010
0100
0010
0100
0010
1000
0000
0100
0010
0001
0000
0100
0010
,
1000
0000
0000
0001
0000
0000
1001
0000
0000
1000
0000
0000
1010
0000
0000
0010
,
0000
0000
0110
0000
0000
0100
0000
0000
0001
0100
0010
1000
0001
1000
0100
0010
,
0001
0000
0000
1000
0000
0000
1001
0000
0000
0001
0000
0000
0011
0000
0000
0010
,
0000
0000
0110
0000
0000
0100
0000
0000
1000
0100
0010
0001
1000
0001
0100
0010
,
1000
0000
0000
0010
0000
0000
1000
0000
0100
0000
0000
0010
0000
0000
0001
0000
,
0100
0000
0000
0010
0000
0000
1000
0000
0001
0000
0000
0000
1001
0000
0000
0000
,
1000
0000
0100
0010
0000
0100
1000
0000
0001
0000
0100
0010
0000
0100
0001
0000
,
0010
0000
0001
0100
0000
0001
1000
0000
0100
0010
0001
1000
0010
0100
0001
1000
,
0100
0000
0010
0100
0000
0010
0001
0000
0100
0000
0010
1000
0000
0010
0100
0000
,
0001
0000
0010
0001
0000
0100
0001
0000
0100
0010
0100
0010
1000
0010
1000
0001
,
0020
0000
0000
0000
0130
0000
1000
0000
0010
0000
1000
0000
0100
0000
0010
0001
,
1000
0000
0010
0000
0100
0001
0100
0000
0010
1000
0001
0010
0100
1000
0001
0100
,
0010
0000
1000
0010
0000
0100
0001
0000
1000
0000
0100
0010
0000
0001
1000
0000
,
0010
0000
0100
0001
0000
0010
0100
0000
2000
0000
0000
0000
3001
0100
0010
1000
,
0200
0000
0000
0000
0310
0000
0100
1000
0001
0000
0100
0010
0000
0000
1000
0000
,
0001
0000
0010
0100
0000
0000
0010
0000
0001
1000
0100
1000
0010
0100
0010
1000
,
0100
0000
0000
0010
0000
0000
0100
0000
1000
0000
0000
0001
0000
0000
0100
0000
,
0010
0000
0000
1000
0000
0000
0010
0000
0100
0000
0001
0000
1000
0010
0100
0001
,
1000
0100
1000
0010
0100
0010
0100
0010
,
1000
0000
0001
0000
0010
0000
0100
0000
1100
0000
0000
0011
0000
0000
0101
0000
,
0120
0000
1030
0010
0100
0010
1000
0001
,
0010
0100
1000
0001
0010
0100
1000
0001
0100
0000
0010
1000
0100
0000
0010
0000
,
0011
0000
0000
0100
0000
0000
1100
0000
0000
0010
0000
0000
0011
0000
0000
0001
,
0000
0000
1100
0000
0000
1001
0000
0000
1000
0010
0100
0010
1000
0001
0010
0100
,
1000
0000
0000
0010
0000
0000
0101
0000
0000
1000
0000
0000
0110
0000
0000
1000
,
0000
0000
0101
0000
0000
1001
0000
0000
0001
0010
0100
0010
0001
1000
0010
0100
,
0000
0220
0000
0000
,
0000
0000
0000
0000
,
0000
0330
0000
0000
;
