#TITLE:TECHNIQUES OF LOVE;
#SUBTITLE:;
#ARTIST:NORMA SHEFFIELD;
#TITLETRANSLIT:;
#SUBTITLETRANSLIT:;
#ARTISTTRANSLIT:;
#GENRE:;
#CREDIT:;
#BANNER:Techniques of Love.png;
#BACKGROUND:Techniques of Love-bg.png;
#LYRICSPATH:;
#CDTITLE:;
#MUSIC:Techniques of Love .ogg;
#OFFSET:-0.526000;
#SAMPLESTART:64.934998;
#SAMPLELENGTH:12.000000;
#SELECTABLE:YES;
#BPMS:0.000000=135.964005
;
#STOPS:
;
#BGCHANGES:;
#KEYSOUNDS:;
#ATTACKS:;

//---------------dance-single - ----------------
#NOTES:
     dance-single:
     :
     Hard:
     9:
     0.377761,0.431470,0.080743,0.252321,0.005046,262.000000,254.000000,8.000000,25.000000,0.000000,0.000000,0.377761,0.431470,0.080743,0.252321,0.005046,262.000000,254.000000,8.000000,25.000000,0.000000,0.000000:
// measure 0
0000
0000
0000
0000
,  // measure 1
0000
0000
0000
0000
,  // measure 2
0000
0000
0000
0000
,  // measure 3
0000
0000
0000
0000
,  // measure 4
0102
0000
1003
0100
2000
0000
3100
0001
,  // measure 5
0200
0000
0301
0010
0002
0000
0013
1000
,  // measure 6
0001
0000
0001
0010
0100
0000
1000
0000
,  // measure 7
0010
0000
0100
0001
0001
0000
1000
0000
,  // measure 8
2010
0000
3001
0100
0002
0000
0103
1000
,  // measure 9
0200
0000
1300
0010
2000
0000
3010
0001
,  // measure 10
2000
0001
0100
3001
,  // measure 11
0200
0000
0010
0000
0001
0301
1000
0100
,  // measure 12
0010
0010
0001
0001
0100
0000
1000
0100
,  // measure 13
1001
0000
0001
0100
0000
0010
0000
0100
,  // measure 14
0000
0100
1000
0100
0000
0100
0001
0000
,  // measure 15
1000
0000
0100
0010
0000
0100
0000
0000
,  // measure 16
0000
0001
0100
0020
0000
0000
0001
0000
,  // measure 17
1030
0000
0010
0001
0000
0100
0000
0010
,  // measure 18
0000
0010
0001
0010
0000
0010
1000
0000
,  // measure 19
0001
0000
0010
0100
0000
0010
0000
0000
,  // measure 20
0100
1000
0001
0200
0000
0000
0010
0000
,  // measure 21
1300
1000
0100
0001
0000
0001
0100
1000
,  // measure 22
0000
1000
0100
0010
0000
0010
0000
1000
,  // measure 23
0002
0010
1000
0100
,  // measure 24
2003
0100
0001
3010
,  // measure 25
1000
1000
0010
0001
0000
0001
0010
1000
,  // measure 26
0000
1000
0100
0010
0000
0010
0000
0001
,  // measure 27
2000
0010
0001
0100
,  // measure 28
3002
0100
1000
0013
,  // measure 29
0011
0000
0001
0100
0010
0000
0001
0100
,  // measure 30
1000
0000
1000
0100
0000
0001
0000
0100
,  // measure 31
0020
0001
0130
1000
,  // measure 32
0010
0001
0100
1000
,  // measure 33
1001
0000
1000
0100
0010
0000
1000
0100
,  // measure 34
0001
0000
0001
0100
0000
1000
0000
0100
,  // measure 35
0020
1000
0130
0001
,  // measure 36
0010
0100
1000
0100
0001
0100
1000
0100
,  // measure 37
0010
0000
1001
0000
1000
0100
0001
1000
,  // measure 38
0100
0100
0010
1000
,  // measure 39
2000
0100
3100
0000
0002
0010
0013
0000
,  // measure 40
1000
0000
0001
0000
1000
0010
0001
0010
,  // measure 41
0100
0000
1001
0000
1000
0010
0001
1000
,  // measure 42
0010
0010
0100
1000
,  // measure 43
2000
0010
3010
0000
0002
0100
0103
0000
,  // measure 44
1000
0000
0001
0000
0100
0010
1000
1000
,  // measure 45
0001
0000
0010
0100
0000
0001
0000
1000
,  // measure 46
0000
0010
0001
0100
0000
0100
0010
0000
,  // measure 47
0100
0000
1000
0100
0000
0010
0000
0000
,  // measure 48
0000
0001
0010
0002
0000
0000
0010
0000
,  // measure 49
1003
0000
0001
0010
0000
1000
0000
0100
,  // measure 50
0000
0001
0100
0010
0000
0010
0100
0000
,  // measure 51
1000
0000
0010
0100
0000
0010
0000
0000
,  // measure 52
0001
0000
0010
0000
0100
0000
0001
0000
0000
1000
0000
0000
0100
0000
0100
0000
,  // measure 53
0000
0000
0000
0000
2002
0000
0000
3003
0000
0000
0000
0000
0000
0000
0000
0000
;

//---------------dance-double - ----------------
#NOTES:
     dance-double:
     :
     Hard:
     10:
     0.399389,0.431470,0.090836,0.111021,0.050464,277.000000,268.000000,9.000000,11.000000,0.000000,0.000000,0.399389,0.431470,0.090836,0.111021,0.050464,277.000000,268.000000,9.000000,11.000000,0.000000,0.000000:
00000000
00000000
00000000
00000000
,
00000000
00000000
00000000
00000000
,
00000000
00000000
00000000
00000000
,
00000000
00000000
00000000
00000000
,
00011000
00000000
00010000
01000000
00010000
00000000
01000000
10000000
,
01000000
00000000
10000000
00100000
10000000
00000000
00100000
00010000
,
00100000
00000000
00100000
10000000
01000000
00000000
00010000
00000000
,
00001000
00000000
00000010
00000001
00000100
00001000
00010000
00000000
,
00011000
00000000
00001000
00000100
00001000
00000000
00000100
00000001
,
00000100
00000000
00000001
00000010
00000001
00000000
00000010
00001000
,
00010000
00100000
10000000
00010000
,
00000001
00000000
00000100
00000000
00000010
00000010
00000001
00000100
,
00010000
01000000
10000000
01000000
00010000
00001000
00000100
00000001
,
00000101
00000000
00000001
00001000
00000000
00010000
00000000
00100000
,
00000000
00100000
10000000
01000000
00000000
01000000
10000000
00000000
,
10100000
00000000
00100000
00010000
00000000
00001000
00000000
00000000
,
00000000
00000010
00000100
00002000
00000000
00000000
00003010
00000000
,
00001010
00000000
00000010
00000100
00000000
00001000
00000000
00010000
,
00000000
01000000
10000000
00100000
00000000
00100000
10000000
00000000
,
00010000
00000000
00100000
01000000
00000000
00010000
00000000
00000000
,
00001000
00000100
00000001
00000010
00001000
00000010
00000001
00000100
,
00001000
00010000
01000000
10000000
00000000
10000000
01000000
00010000
,
00000000
00001000
00000100
00000001
00000000
00000010
00000000
00001000
,
00020000
00100000
10000000
01000000
,
00032000
00000010
00000001
00000100
,
00013000
00010000
01000000
10000000
00000000
10000000
01000000
00010000
,
00000000
00001000
00000100
00000001
00000000
00000010
00000000
00001000
,
00020000
01000000
10000000
00100000
,
00032000
00000100
00000001
00000010
,
00013000
01000000
00000000
10000000
00000000
00000000
00010000
00000000
00000000
00000000
00000000
00000000
00000000
00000000
00001000
00000000
,
00000001
00000010
00000000
00000100
00000000
00000000
00001000
00000000
00000000
00000000
00000010
00000000
00000000
00000000
00000100
00000000
,
00001000
00100000
00010000
01000000
,
10000000
01000000
00001000
00000000
00001000
00010000
00001000
00000000
,
00001000
00000010
00000000
00000001
00000000
00000000
00001000
00000000
00000000
00000000
00000000
00000000
00000000
00000000
00010000
00000000
,
10000000
00100000
00000000
01000000
00000000
00000000
00010000
00000000
00000000
00000000
10000000
00000000
00000000
00000000
01000000
00000000
,
00010000
00000000
00010000
00001000
00000010
00000000
00000001
00000000
,
00001000
00000010
00010000
00001000
00100000
00010000
10000000
01000000
,
00010000
00000000
00011000
00000000
00001000
00000010
00000001
00000100
,
00001000
00000000
00010000
00000000
00010000
00001000
00010000
00000000
,
00020000
01000000
01030000
00000000
20000000
00100000
30100000
00000000
,
00010000
00001000
00000100
00000000
00000100
00000001
00001000
00000100
,
00010000
00000000
00011000
00000000
00001000
00000100
00000001
00000010
,
00001000
00000000
00011000
00000000
00001000
00010000
00001000
00000000
,
00002000
00000010
00003010
00000000
00000002
00000100
00000103
00000000
,
00001000
00010000
01000000
00000000
01000000
10000000
00010000
10000000
,
01000000
00000000
00001000
00000001
00000000
00000100
00000000
00000010
,
00000000
00000100
00001000
00010000
00000000
00010000
01000000
00000000
,
10000000
00000000
00001000
00000100
00000000
00000001
00000000
00000000
,
00000000
00000010
00001000
00010000
00000000
00000000
00100000
00100000
,
10000000
00000000
00001000
00000010
00000000
00000001
00000000
00010000
,
00000000
00001000
00000010
00010000
00000000
00010000
01000000
00000000
,
00100000
00000000
00010000
00001000
00000000
00010000
00000000
00000000
,
00010000
00000000
01000000
00000000
10000000
00000000
00100000
00000000
00000000
00010000
00000000
00000000
00001000
00000000
00000100
00000001
,
00000000
00000000
00000000
00000000
00002002
00000000
00000000
00003003
00000000
00000000
00000000
00000000
00000000
00000000
00000000
00000000
;

//---------------dance-single - ----------------
#NOTES:
     dance-single:
     :
     Medium:
     9:
     0.371994,0.404503,0.070650,0.050464,0.151393,258.000000,251.000000,7.000000,5.000000,0.000000,0.000000,0.371994,0.404503,0.070650,0.050464,0.151393,258.000000,251.000000,7.000000,5.000000,0.000000,0.000000:
0000
0000
0000
0000
,
0000
0000
0000
0000
,
0000
0000
0000
0000
,
0000
0000
0000
0000
,
1001
0000
0000
0001
0000
0000
0100
0000
0000
0000
0000
0000
0000
0000
1000
0000
,
0100
0000
0000
0100
0000
0000
0001
0000
0000
0000
0001
0000
1000
0000
0001
0000
,
1000
0000
0000
0100
0000
0000
0001
0000
0000
0000
0100
0000
0000
0000
0010
0000
,
0000
0100
0000
1000
0000
0001
0100
0010
,
0100
0000
0000
0100
0000
0000
0001
0000
0000
0000
0000
0000
0000
0000
1000
0000
,
0100
0000
0000
0100
0000
0000
0001
0000
0000
0000
0100
0000
0010
0000
0100
0000
,
1000
0000
0000
0010
0000
0000
0001
0000
0000
0000
0010
0000
0000
0000
0100
0000
,
0002
0000
0010
0000
1000
1003
0100
0010
,
0001
0000
0000
0000
0010
0000
0001
0010
0000
0100
0000
0000
1000
0000
0001
0000
,
1001
0000
0001
0100
0000
0010
0000
0100
,
0000
0100
0001
1000
0000
1000
0100
0000
,
0010
0000
0100
1000
0000
0001
0000
0000
,
0100
0010
0000
0100
0010
0000
2000
0000
0000
0000
0000
0000
0000
0000
0000
0000
,
3001
0000
0010
0100
0000
0010
0000
0001
,
0000
0001
1000
0001
0000
0001
0100
0000
,
0010
0000
1000
0100
0000
1000
0000
0000
,
1000
0000
0010
0000
0100
0000
0001
0000
0000
1000
0100
0000
0010
0000
0100
0000
,
0000
1000
0010
1000
0000
1000
0100
1000
,
0000
1000
0010
1000
0000
0001
0000
0010
,
0100
1000
0010
0100
,
0001
0010
0100
1000
,
0000
0001
0010
0001
0000
0001
0100
0001
,
0000
0001
0010
0001
0000
0100
0000
0010
,
1000
0001
0010
0100
,
0000
1000
0001
0000
0100
0000
0001
1000
0000
0100
0000
0000
0010
0000
0001
0000
,
0011
0000
0000
0001
0000
0000
0100
0000
0000
0000
0000
0000
0000
0000
0010
0000
,
0010
0000
0000
1000
0000
0000
0100
0000
0000
0000
0010
0000
0000
0000
0100
0000
,
1000
0000
0000
0010
0000
0000
0100
0000
0000
0000
0001
0000
0000
0000
0000
0000
,
1000
0000
0100
0000
0010
0100
0000
1000
0000
0000
0001
0000
0100
0000
0000
0000
,
0101
0000
0000
0100
0000
0000
0010
0000
0000
0000
0000
0000
0000
0000
1000
0000
,
0100
0000
0000
0010
0000
0000
0100
0000
0000
0000
1000
0000
0000
0000
0001
0000
,
0100
0000
0000
0010
0000
0000
1000
0000
0000
0000
0001
0000
0000
0000
0000
0000
,
0001
0010
0000
0000
0010
1000
0000
0000
1000
0100
0000
0000
0100
0001
0000
0000
,
1000
0000
1001
0000
1000
0100
0001
0000
,
0100
0000
0100
0000
0000
0000
0000
1000
,
0000
1000
0010
1000
0000
0100
0001
0100
,
0000
1000
0000
0000
0001
0100
0010
0100
,
0000
0000
0101
0000
0001
0010
0100
0010
,
0000
0010
0000
0000
0000
0000
0000
0001
,
0000
0001
0010
0001
0000
0100
1000
0100
,
0000
0001
0000
0000
0000
1000
0100
0100
,
0010
0000
0001
0100
0000
0010
0000
0100
,
0000
0100
0001
1000
0000
1000
0100
0000
,
0010
0000
0100
1000
0000
0001
0000
0000
,
1000
0001
0000
1000
0001
0000
0200
0000
0000
0000
0000
0000
0000
0000
0000
0000
,
0301
0000
1000
0100
0000
0010
0000
0100
,
0000
1000
0001
1000
0000
1000
0100
0000
,
0010
0000
0001
0100
0000
0010
0000
0000
,
0100
0000
0001
0000
1000
0000
0100
0010
0000
0000
0001
0000
1000
0000
1000
0100
,
0000
0000
0000
0000
0220
0000
0000
0330
0000
0000
0000
0000
0000
0000
0000
0000
;

//---------------dance-single - ----------------
#NOTES:
     dance-single:
     :
     Easy:
     7:
     0.273949,0.323602,0.090836,0.070650,0.005046,190.000000,181.000000,9.000000,7.000000,0.000000,0.000000,0.273949,0.323602,0.090836,0.070650,0.005046,190.000000,181.000000,9.000000,7.000000,0.000000,0.000000:
0000
0000
0000
0000
,
0000
0000
0000
0000
,
0000
0000
0000
0000
,
0000
0000
0000
0000
,
1001
0000
1000
0000
,
0100
0000
0010
0000
,
0001
0100
0010
0100
,
0001
1000
0001
0000
,
1001
0000
0001
0000
,
0010
0000
0100
0000
,
1000
0000
0010
0100
,
0001
1000
0100
0010
,
0001
0001
0100
0010
,
1001
1000
0100
0010
,
0100
1000
0100
0010
,
0001
0100
0010
0010
,
0000
1000
0001
1000
0000
0000
0000
0000
,
1001
0001
0010
0100
,
1000
0010
1000
0100
,
0010
0001
0100
0000
,
0001
0000
0010
0100
0000
0000
0000
0000
,
0000
1000
0000
0100
0000
0010
0000
0100
,
0000
0001
0000
0000
0000
0100
0000
1000
,
0002
0010
0100
0010
,
2003
0010
0100
3010
,
0000
1000
0000
0010
0000
0100
0000
0010
,
0000
0001
0000
0000
0000
0010
0000
1000
,
0200
0001
1000
0001
,
0320
1000
0001
1000
,
0031
0000
0000
0101
0000
0000
0000
0100
,
0010
0000
1000
0100
0000
0010
0000
0001
,
1000
0010
0100
0001
,
2000
0100
3001
0000
,
1000
0000
0000
1010
0000
0000
0000
0010
,
0100
0000
0001
0010
0000
0100
0000
1000
,
0001
0100
0010
1000
,
0001
0010
1000
0100
,
0001
1001
0001
0010
,
0100
0000
0100
0000
0000
0000
0000
1000
,
0000
0010
0000
0010
0000
0001
0000
0100
,
0000
1000
0000
0000
0001
0000
0100
0000
,
0010
0110
1000
0100
,
0010
0000
0001
0000
0000
0000
0000
0001
,
0000
0010
0000
0010
0000
1000
0000
0100
,
0000
0001
0000
0010
0000
0001
1000
1000
,
0010
0001
0010
1000
,
0100
0001
0100
0010
,
0001
0100
0010
1000
,
0000
1000
0100
0001
0000
0000
0000
0000
,
0100
0001
0100
0010
,
0100
1000
0001
0100
,
0010
0001
0010
1000
,
0010
0000
1000
0000
0100
0000
1000
0000
0000
0010
0000
0000
1000
0000
1000
0000
,
0000
0000
0000
0000
2002
0000
0000
3003
0000
0000
0000
0000
0000
0000
0000
0000
;

//---------------dance-double - ----------------
#NOTES:
     dance-double:
     :
     Medium:
     10:
     0.415249,0.485403,0.100929,0.020186,0.201857,288.000000,278.000000,10.000000,2.000000,0.000000,0.000000,0.415249,0.485403,0.100929,0.020186,0.201857,288.000000,278.000000,10.000000,2.000000,0.000000,0.000000:
00000000
00000000
00000000
00000000
,
00000000
00000000
00000000
00000000
,
00000000
00000000
00000000
00000000
,
00000000
00000000
00000000
00000000
,
00011000
00000000
00000000
00100000
00000000
00000000
00010000
00000000
00000000
00000000
00000000
00000000
00000000
00000000
10000000
00000000
,
01000000
00000000
00000000
00010000
00000000
00000000
00001000
00000000
00000000
00000000
00000100
00000000
00000001
00000000
00001000
00000000
,
00000001
00000000
00000000
00000010
00000000
00000000
00001000
00000000
00000000
00000000
00010000
00000000
00000000
00000000
01000000
00000000
,
00000000
10000000
00000000
00100000
00000000
01000000
00010000
10000000
,
11000000
00000000
00000000
00010000
00000000
00000000
01000000
00000000
00000000
00000000
00000000
00000000
00000000
00000000
00001000
00000000
,
00010000
00000000
00000000
00000100
00000000
00000000
00000010
00000000
00000000
00000000
00000001
00000000
00001000
00000000
00000001
00000000
,
00000100
00000000
00000000
00000010
00000000
00000000
00001000
00000000
00000000
00000000
00000010
00000000
00000000
00000000
00000100
00000000
,
00000101
00000000
00000001
00000000
00001000
00000000
00000000
00000010
00000000
00000000
00000100
00000000
00000001
00000000
00001000
00000000
,
00000100
00000000
00000010
00000000
00000001
00000000
00001000
00000010
00000000
00000010
00001000
00000000
00000001
00000000
00000001
00000000
,
00000100
00000000
00000010
00000100
00000000
00001000
00000000
00010000
,
00000000
00010000
01000000
00010000
00000000
00010000
00001000
00000000
,
00000100
00000000
00000010
00001000
00000000
00000001
00000000
00000000
,
00001000
00000100
00000000
00001000
00000100
00000000
00000001
00000100
00000000
00000001
00000100
00000000
00001000
00000000
00000001
00000000
,
00001000
00000000
00000010
00000100
00000000
00001000
00000000
00010000
,
00000000
00010000
00100000
00010000
00000000
00010000
00001000
00000000
,
00000010
00000000
00000001
00000100
00000000
00000010
00000000
00000000
,
00000100
00000000
00001000
00000000
00010000
00000000
00001000
00010000
00000000
01000000
00000000
00000000
10000000
00000000
10000000
00000000
,
00000000
10000000
00100000
10000000
00000000
10000000
01000000
10000000
,
00000000
01000000
00010000
01000000
00000000
00010000
00000000
00001000
,
00000010
00000000
00000010
00001000
00000000
00001000
00010000
00000000
,
01000000
00000000
10000000
00100000
00000000
00100000
00000000
00010000
,
00000000
00001000
00000100
00001000
00000000
00000100
00000001
00000100
,
00000000
00000001
00000010
00000001
00000000
00001000
00000000
00010000
,
00100000
00000000
00100000
01000000
00000000
01000000
00010000
00000000
,
00000000
00010000
00001000
00000000
00010000
00000000
00000100
00001000
00000000
00000100
00000000
00000000
00000010
00000000
00000001
00000000
,
00001001
00000000
00000000
00001000
00000000
00000000
00000010
00000000
00000000
00000000
00000000
00000000
00000000
00000000
00010000
00000000
,
00001000
00000000
00000000
01000000
00000000
00000000
00100000
00000000
00000000
00000000
01000000
00000000
00010000
00000000
10000000
00000000
,
01000000
00000000
00000000
00100000
00000000
00000000
00001000
00000000
00000000
00000000
00010000
00000000
00000000
00000000
00000100
00000000
,
00000010
00000000
00000001
00000000
00001000
00000001
00000000
00000010
00000000
00000001
00001000
00000000
00000100
00000000
00010000
00000000
,
00011000
00000000
00000000
01000000
00000000
00000000
00010000
00000000
00000000
00000000
00000000
00000000
00000000
00000000
10000000
00000000
,
01000000
00000000
00000000
00100000
00000000
00000000
00001000
00000000
00000000
00000000
00010000
00000000
00000000
00000000
00000100
00000000
,
00000010
00000000
00000000
00000001
00000000
00000000
00000100
00000000
00000000
00000000
00001000
00000000
00000000
00000000
00010000
00000000
,
00011000
00000000
00000000
00010000
01000000
00000000
00000000
01000000
10000000
00000000
00000000
10000000
00100000
00000000
00000000
00100000
,
00010000
00000000
00011000
00000000
00001000
00000100
00000001
00000000
,
00000010
00000000
00000010
00000000
00000000
00000000
00000000
00000001
,
00000000
00000001
00000100
00001000
00000000
00010000
01000000
10000000
,
00000000
10000000
00000000
00000000
00100000
01000000
00001000
00010000
,
00000000
00000000
00011000
00000000
00010000
00001000
00010000
00000010
,
00000000
00000010
00000100
00000000
00000000
00000000
00000000
00000001
,
00000000
00000001
00000010
00001000
00000000
00010000
00100000
10000000
,
00010000
10000000
00010000
00000000
10000000
00000000
00000000
01000000
00000000
00000000
00100000
00000000
00001000
00000000
00010000
00000000
,
00011000
00000000
00010000
00100000
00000000
10000000
00000000
01000000
,
00000000
01000000
00010000
00001000
00000000
00001000
00000100
00000000
,
00000001
00000000
00000010
00001000
00000000
00010000
00000000
00000000
,
00010000
00100000
00000000
00010000
00100000
00000000
10000000
00100000
00000000
10000000
00100000
00000000
00010000
00000000
00100000
00000000
,
10000000
00000000
01000000
00010000
00000000
00001000
00000000
00000100
,
00000000
00000100
00001000
00010000
00000000
00010000
01000000
00000000
,
00100000
00000000
00001000
00010000
00000000
00000010
00000000
00000000
,
00000100
00000000
00000001
00000000
00001000
00000000
00000010
00000000
00000000
00010000
00001000
00000000
00010000
00001000
00010000
00001000
,
00000000
00000000
00000000
00000000
00022000
00000000
00000000
00033000
00000000
00000000
00000000
00000000
00000000
00000000
00000000
00000000
;

//---------------dance-solo - ----------------
#NOTES:
     dance-solo:
     :
     Hard:
     10:
     0.408040,0.485403,0.141300,0.141300,0.055511,283.000000,269.000000,14.000000,14.000000,0.000000,0.000000,0.408040,0.485403,0.141300,0.141300,0.055511,283.000000,269.000000,14.000000,14.000000,0.000000,0.000000:
000000
000000
000000
000000
,
000000
000000
000000
000000
,
000000
000000
000000
000000
,
000000
000000
000000
000000
,
100001
000000
100000
001000
000010
000000
000010
000100
,
100000
000000
100000
001000
000001
000000
000001
000100
,
010000
001000
000100
000001
,
010000
000100
000100
000000
001000
000010
000010
000000
,
010010
000000
010000
001000
000010
000000
000010
100000
,
001000
000000
001000
000001
010000
000000
010000
001000
,
000010
000000
000001
001000
000000
000100
000000
010000
,
000001
010000
100000
010000
000010
001000
000100
010000
,
000001
000001
001000
000100
100000
010000
100000
100000
,
100001
000000
100000
000001
000000
000010
000000
001000
,
000000
010000
000100
001000
000000
001000
100000
000000
,
000001
000000
000100
100000
000000
000001
000000
000000
,
000100
000010
000000
000100
000010
000000
010000
000100
000000
010000
000100
000000
001000
000000
001000
000000
,
001001
000000
000001
100000
000000
000010
000000
001000
,
000000
000010
000100
001000
000000
001000
000001
000000
,
100000
000000
000100
000001
000000
100000
000000
000000
,
000100
100000
001000
000200
000000
000000
000010
000001
,
000310
000010
000001
000010
000000
010000
100000
010000
,
000000
000010
000001
000010
000000
001000
000000
000001
,
000012
000100
010000
100003
,
210000
000100
000010
300001
,
001000
100000
010000
100000
000000
000001
000010
000001
,
000000
100000
010000
100000
000000
001000
000000
000010
,
000021
001000
100000
010030
,
120000
001000
000001
030010
,
100001
000000
100000
001000
000100
000000
100000
001000
,
000000
000010
000000
000010
000001
000100
000000
100000
,
000002
000010
010000
000010
,
002003
100000
010000
003100
,
100001
000000
000001
000100
001000
000000
000001
000100
,
010000
000000
010000
100000
000000
001000
000000
000100
,
000020
001000
100000
010000
,
000130
000001
000000
000000
000001
001000
000000
000000
001000
000000
100000
000000
001000
000000
000001
000000
,
100000
000000
100001
000000
100000
001000
000001
100000
,
001000
000100
100000
000001
,
200000
001000
301000
000000
000002
000100
000103
000000
,
010000
000000
000010
000000
100000
000100
000001
000100
,
001000
000000
100001
000000
100000
000100
000001
100000
,
000010
010000
001000
000100
,
000002
001000
001003
000000
200000
000100
300100
000000
,
000010
010000
000100
001000
,
001001
000000
000001
100000
000000
000100
000000
001000
,
000000
010000
100000
001000
000000
001000
000100
000000
,
000001
000000
000100
001000
000000
100000
000000
000000
,
000100
100000
000000
000100
100000
000000
000001
000100
000000
000001
000100
000000
000001
000000
100000
000000
,
000001
000000
000100
001000
000000
100000
000000
001000
,
000000
000010
000001
001000
000000
001000
100000
000000
,
000001
000000
000100
010000
000000
000001
000000
000000
,
000010
000000
001000
000000
100000
000000
000010
000000
000000
000010
000000
000000
001000
000000
001000
000000
,
000000
000000
000000
000000
200002
000000
000000
300003
000000
000000
000000
000000
000000
000000
000000
000000
;

//---------------dance-double - ----------------
#NOTES:
     dance-double:
     :
     Easy:
     9:
     0.304227,0.404503,0.141300,0.090836,0.005046,211.000000,197.000000,14.000000,9.000000,0.000000,0.000000,0.304227,0.404503,0.141300,0.090836,0.005046,211.000000,197.000000,14.000000,9.000000,0.000000,0.000000:
00000000
00000000
00000000
00000000
,
00000000
00000000
00000000
00000000
,
00000000
00000000
00000000
00000000
,
00000000
00000000
00000000
00000000
,
00011000
00000000
10000000
00000000
,
00010000
00000000
00001000
00000000
,
00000001
00000100
00000010
00000000
,
10000000
01000000
00100000
00000000
,
00011000
00000000
10000000
00000000
,
00010000
00000000
00001000
00000000
,
00000001
00000000
00000100
00001000
,
00010000
00000000
01000000
00010000
,
00001000
00010000
00001000
00000100
,
00001001
00010000
00001000
00100000
,
01000000
10000000
00100000
00010000
,
00001000
00000010
00000001
00000000
,
00000000
00000001
00000100
00001000
00000000
00000000
00010000
00000000
,
01100000
00001000
00000001
00000100
,
00000010
00010000
00001000
00010000
,
00100000
10000000
00010000
00001000
,
00000001
00000100
00001000
00010000
01000000
00000000
10000000
10000000
,
00000000
00100000
00000000
00010000
00000000
00001000
00000000
00000010
,
00000000
00001000
00000000
00010000
00000000
01000000
00000000
10000000
,
00200000
00010000
01000000
10000000
,
02300000
10000000
00100000
03010000
,
00000000
10000000
00000000
00010000
00000000
00001000
00000000
00000001
,
00000000
00001000
00000000
00010000
00000000
00100000
00000000
00001000
,
00000020
00000001
00000100
00001000
,
00000230
00000001
00000010
00001300
,
00021000
00000000
00000000
01030000
00000000
00000000
00000000
10000000
,
00100000
00000000
00100000
00010000
00000000
00001000
00000000
00000010
,
00000001
00000100
00001000
00100000
,
01000000
10000000
00100000
00010000
,
00012000
00000000
00000000
00003100
00000000
00000000
00000000
00000000
,
00000001
00000010
00000000
00000010
00001000
00010000
00000000
00100000
,
10000000
01000000
00010000
00001000
,
00012000
00000100
00000001
00000010
,
00013000
00000000
00011000
00000000
00010000
01000000
10000000
00000000
,
00100000
00000000
00100000
00000000
00000000
00000000
00000000
10010000
,
00000000
10000000
00010000
10000000
00000000
00010000
00001000
00010000
,
00000000
00001000
00000000
00000000
00001000
00000100
00000001
00001000
,
00000000
00000000
00011000
00000000
00001000
00000010
00000001
00000000
,
00000100
00000000
00000100
00000000
00000000
00000000
00000000
00001001
,
00000000
00000001
00001000
00000001
00000000
00001000
00010000
00001000
,
00010000
00010000
10000000
00000000
10000000
01000000
00010000
01000000
,
10010000
00001000
00010000
00000100
,
00000010
00000100
00000001
00000100
,
00000010
00000001
00000100
00001000
,
00000000
00010000
01000000
10000000
00000000
00000000
01000000
00000000
,
00011000
00000001
00000100
00000010
,
00010000
01000000
00100000
01000000
,
10000000
00100000
00010000
00001000
,
00010000
00000000
00001000
00000000
00000100
00000000
00000001
00000000
00000000
00001000
00000000
00000000
00000100
00000000
00000100
00000000
,
00000000
00000000
00000000
00000000
00022000
00000000
00000000
00033000
00000000
00000000
00000000
00000000
00000000
00000000
00000000
00000000
;

//---------------dance-solo - ----------------
#NOTES:
     dance-solo:
     :
     Medium:
     10:
     0.396505,0.512370,0.090836,0.030279,0.126161,275.000000,266.000000,9.000000,3.000000,0.000000,0.000000,0.396505,0.512370,0.090836,0.030279,0.126161,275.000000,266.000000,9.000000,3.000000,0.000000,0.000000:
000000
000000
000000
000000
,
000000
000000
000000
000000
,
000000
000000
000000
000000
,
000000
000000
000000
000000
,
100001
000000
000000
100000
000000
000000
001000
000000
000000
000000
000100
000000
000010
000000
010000
000000
,
000001
000000
000000
001000
000000
000000
000100
000000
000000
000000
001000
000000
000100
000000
010000
000000
,
000100
000000
000000
001000
000000
000000
000010
000000
000000
000000
001000
000000
000000
000000
010000
000000
,
000000
001000
000000
000001
000000
100000
001000
010000
,
011000
000000
000000
000010
000000
000000
001000
000000
000000
000000
000000
000000
000000
000000
000001
000000
,
000100
000000
000000
001000
000000
000000
100000
000000
000000
000000
000001
000000
001000
000000
000010
000000
,
100000
001000
000000
000100
000000
001000
000000
010000
,
000100
001000
000010
000100
000001
100000
001000
000100
,
000001
100000
000001
000000
001000
000000
000100
010000
000000
000010
000100
000000
000001
000000
100000
000000
,
000001
000000
000001
001000
000000
000100
000000
001000
,
000000
001000
000010
001000
000000
001000
000001
000000
,
100000
000000
001000
000100
000000
001000
000000
000000
,
100000
000010
000000
100000
000001
000000
002000
000000
000000
000000
000000
000000
000000
000000
000000
000000
,
000001
003000
000100
000010
000000
010000
000000
000100
,
000000
100000
001000
100000
000000
100000
000001
000000
,
001000
000000
000100
010000
000000
000010
000000
000000
,
010000
000000
000000
000100
000000
000000
001000
000000
000000
000010
000000
001000
000000
000000
000001
000000
000000
000000
100000
000000
000000
100000
000000
000000
,
000000
000010
000100
000010
000000
010000
000100
010000
,
000000
000010
000100
000010
000000
010000
000000
000100
,
001000
000001
000100
001000
,
010000
000100
001000
000010
,
000000
100000
000100
100000
000000
000001
000100
000001
,
000000
100000
000100
100000
000000
000001
000000
000100
,
001000
100000
000100
001000
,
000000
000001
000000
100000
000000
000000
001000
000000
100000
000001
000000
000000
001000
000000
000000
000000
000000
000000
000100
000000
000000
100000
000000
000000
,
101000
000000
000000
000000
001000
000000
000000
000000
000000
000100
000000
000000
000000
000000
000000
000000
000000
000000
000000
000000
000000
000010
000000
000000
,
001000
000000
000000
000100
000000
000000
010000
000000
000000
000000
001000
000000
000000
000000
100000
000000
,
000001
000000
000000
001000
000000
000000
000100
000000
000000
000000
001000
000000
000000
000000
000010
000000
,
010000
000000
001000
000000
000100
000000
001000
001000
,
101000
000000
000000
000010
000000
000000
001000
000000
000000
000000
000000
000000
000000
000000
000001
000000
,
100000
000000
000000
001000
000000
000000
000100
000000
000000
000000
000001
000000
000000
000000
001000
000000
,
000100
100000
001000
000100
,
000101
000001
001000
100000
001000
000010
001000
010000
,
000000
000000
011000
000000
010000
001000
000010
100000
,
000000
100000
001000
000000
000100
000000
000001
100000
,
000000
100000
000100
001000
000000
001000
010000
100000
,
000000
001000
000000
000000
000100
000010
001000
000001
,
000000
000000
000011
000000
000100
001000
100000
010000
,
000000
100000
000000
000000
000100
100000
000010
000100
,
000000
000100
001000
100000
000000
100000
001000
000010
,
000000
000001
000000
001000
000000
000100
100000
000001
,
100000
000000
000100
001000
000000
000001
000000
000100
,
000000
000010
000001
000100
000000
000100
100000
000000
,
000001
000000
000100
001000
000000
100000
000000
000000
,
000100
010000
000000
000100
100000
000000
000001
000000
000000
000000
000000
000000
100000
000000
000001
000000
,
100001
000000
100000
001000
000000
000100
000000
001000
,
000000
010000
100000
000100
000000
000100
000001
000000
,
001000
000000
000100
001000
000000
000010
000000
000000
,
100000
001000
000100
000000
000001
000000
000000
001000
000000
000000
000100
000000
100000
000001
100000
000001
,
000000
000000
000000
000000
200002
000000
000000
300003
000000
000000
000000
000000
000000
000000
000000
000000
;

//---------------dance-solo - ----------------
#NOTES:
     dance-solo:
     :
     Easy:
     8:
     0.291251,0.323602,0.121114,0.050464,0.005046,202.000000,190.000000,12.000000,5.000000,0.000000,0.000000,0.291251,0.323602,0.121114,0.050464,0.005046,202.000000,190.000000,12.000000,5.000000,0.000000,0.000000:
000000
000000
000000
000000
,
000000
000000
000000
000000
,
000000
000000
000000
000000
,
000000
000000
000000
000000
,
100001
000000
100000
000000
,
001000
000000
000100
000000
,
000001
001000
000100
001000
,
010000
001000
100000
001000
,
100001
000000
000100
000000
,
001000
000000
100000
000000
,
000010
001000
000001
010000
,
000100
100000
001000
000100
,
000010
001000
010000
001000
,
100001
100000
001000
000100
,
000010
001000
000010
000100
,
001000
010000
000001
001000
,
000000
001000
010000
100000
000000
000000
001000
000000
,
100001
010000
000100
001000
,
000010
000100
001000
100000
,
000010
000001
000100
100000
,
001000
000010
000001
001000
000000
000000
000100
000000
,
000000
000100
000000
100000
000000
000010
000000
010000
,
000000
000001
000000
000100
000000
001000
000000
010000
,
000010
001000
100000
001000
,
000001
100000
001000
000100
,
000000
000001
000000
000100
000000
000010
000000
010000
,
000000
000100
000000
100000
000000
001000
000000
001000
,
000100
000001
001000
100000
,
001000
000010
000100
001000
,
201000
000000
000000
310000
000000
000000
000000
010000
,
100000
000000
100000
001000
000000
000100
000000
000010
,
000001
000100
100000
001000
,
000010
000001
010000
000100
,
001002
000000
000000
000013
000000
000000
000000
000010
,
000001
000000
000001
001000
000000
000100
000000
010000
,
001000
100000
000100
001000
,
000102
010000
100000
001000
,
000013
000000
000011
000000
000010
001000
100000
000000
,
000100
000000
000100
000000
000000
000000
000000
010000
,
000000
000100
000000
001000
000000
100000
000000
010000
,
000000
000100
000000
000000
010000
001000
000010
000001
,
000000
000000
000011
000000
000001
001000
010000
000000
,
100000
000000
100000
000000
000000
000000
000000
000010
,
000000
000100
000000
001000
000000
000001
000000
000010
,
000000
000100
000000
000000
000000
000000
001000
000000
,
100001
000010
010000
001000
,
000100
000001
001000
000100
,
001000
100000
001000
000001
,
000000
010000
001000
000010
000000
000000
000000
000000
,
010010
000001
100000
000100
,
001000
000010
010000
001000
,
000100
000001
100000
000001
,
000010
000000
001000
000000
010000
000000
000000
000001
000000
000000
001000
000000
000100
000000
000100
000000
,
000000
000000
000000
000000
200002
000000
000000
300003
000000
000000
000000
000000
000000
000000
000000
000000
;
