#TITLE:TCHAIKOVSKY;
#SUBTITLE:;
#ARTIST:LITTLE BIG;
#TITLETRANSLIT:;
#SUBTITLETRANSLIT:;
#ARTISTTRANSLIT:;
#GENRE:;
#CREDIT:;
#BANNER:TCHAIKOVSKY.png;
#BACKGROUND:TCHAIKOVSKY-bg.png;
#LYRICSPATH:TCHAIKOVSKY.lrc;
#CDTITLE:;
#MUSIC:TCHAIKOVSKY.ogg;
#OFFSET:0.270000;
#SAMPLESTART:75.420074;
#SAMPLELENGTH:12.000000;
#SELECTABLE:YES;
#BPMS:0.000000=191.000000
,207.000000=95.500000
,224.000000=191.000000
;
#STOPS:174.000000=0.314000,
175.000000=0.314000,
176.000000=0.314000
;
#BGCHANGES:0.750=TCHAIKOVSKY.mp4=1.000=0=0=1=====,
99999=-nosongbg-=1.000=0=0=0 // don't automatically add -songbackground-
;
#KEYSOUNDS:;
#ATTACKS:;

//---------------dance-single - ----------------
#NOTES:
     dance-single:
     :
     Hard:
     13:
     0.649047,0.700049,0.711483,0.762304,0.035574,447.000000,377.000000,70.000000,75.000000,0.000000,0.000000,0.649047,0.700049,0.711483,0.762304,0.035574,447.000000,377.000000,70.000000,75.000000,0.000000,0.000000:
0000
0000
0000
0000
,
0000
0000
0000
0000
,
0000
0000
0000
0000
,
2002
3003
2002
3003
,
1100
0110
0011
1001
,
0001
0010
0100
0000
1000
0010
0100
0000
,
0001
0101
0110
1010
,
1000
0100
0010
0000
0001
0100
0010
0000
,
1000
1010
0110
0101
,
1000
0100
0010
0000
0001
0100
0010
0000
,
1000
1100
0110
0011
,
2001
3010
1002
0013
,
2001
0000
3100
0010
0100
0010
0001
1000
,
0020
0000
0000
0000
0130
0000
0001
0000
1000
0000
0000
0001
0000
0000
1000
0000
,
0100
1100
1100
1100
,
0001
0100
0010
1000
0200
0000
0320
0000
,
0031
0000
0011
0000
0011
0030
0011
0000
,
1000
0100
0001
0100
2000
0000
3320
0000
,
0130
0110
0110
0110
,
0001
0100
1000
0100
0002
0000
0023
0000
,
0130
0110
0110
2001
,
3020
0000
0130
0001
1000
0000
0001
0010
,
0100
0000
1000
0010
0100
0000
0001
0100
,
0002
0100
1000
0010
,
1003
1001
0110
1002
,
0203
0000
0310
1000
0001
0000
1000
0100
,
0010
0000
0001
0100
0010
0000
1000
0010
,
1010
0000
0001
0010
0011
0000
1000
0020
,
0000
0000
0100
0000
0100
0000
0130
0001
,
0010
2000
0000
3010
0000
0031
0000
0012
,
0000
1003
0010
0100
0010
0001
0010
1000
,
0100
0002
0000
0103
0000
1300
0000
2100
,
0000
3001
0100
0010
0100
1000
0100
0001
,
0010
2000
0000
3010
0000
0031
0000
0201
,
0000
3310
2000
0000
3002
0000
0013
0000
,
2001
0000
3010
0100
0002
0000
0013
0100
,
1000
1010
0110
0101
,
2002
0000
3003
0000
0001
0100
0010
0100
,
0002
0000
0013
0100
1000
0000
2010
0000
,
3002
0000
1003
0100
0010
0001
0000
0000
,
2000
3002
0103
0102
,
2003
0000
3100
0100
0000
0010
0010
0000
,
0002
0000
0103
0010
1000
0000
2100
0000
,
3002
0000
0000
0000
0103
0000
0000
0000
2002
3003
0000
0000
2020
3030
0000
0000
,
0202
0303
0000
0000
1000
0000
0001
0000
1000
0000
0100
0000
1000
0000
0001
0000
,
0200
0000
0301
1000
0001
0010
0001
1000
,
0020
0000
1030
0100
0010
0001
0100
0010
,
1000
0001
0010
0000
0011
0000
0011
0000
,
0011
2000
0010
3010
,
1000
0100
0020
0000
0001
0000
0031
0000
,
1000
0001
0102
0000
1003
0100
2100
0000
,
3001
0100
0020
0000
0200
0000
0000
0330
,
2001
0000
0100
0000
3001
1000
0100
0010
,
0012
0000
0010
0000
1003
0010
0100
0001
,
0020
0000
1000
0000
0031
1000
0010
0100
,
0202
0303
2020
3030
0000
1001
1001
1001
,
1000
0100
0010
1000
0010
0100
0010
0001
,
1000
0000
1000
0010
0100
0001
1000
0000
,
0001
0010
0100
0001
0100
0010
0100
1000
,
0001
0000
0001
0100
0010
1000
0001
0000
,
1000
0010
0100
1000
0100
0010
0100
0001
,
1000
0000
1000
0100
0010
0001
1000
0000
,
2010
0000
3001
0010
0012
0000
1303
0010
,
0100
0110
0110
1001
,
0001
0100
0001
0000
1000
0000
0100
0000
1000
0000
0010
0000
1000
0000
0001
0000
,
0010
0100
2000
0000
3002
0000
0103
0010
,
1000
0010
1000
0000
0001
0000
0010
0000
0001
0000
0100
0000
0001
0000
1000
0000
,
0100
0010
0002
0000
2003
0000
3010
0100
,
0001
1000
0001
0000
0010
0000
0100
0000
1000
0000
0010
0000
0100
0000
0001
0000
,
1000
0100
0020
0000
0032
0000
1003
0010
,
0200
3030
0320
0303
,
1030
1100
0110
0011
,
2002
0000
3003
0000
;

//---------------dance-single - ----------------
#NOTES:
     dance-single:
     :
     Medium:
     10:
     0.528530,0.626359,0.650499,0.823288,0.015246,364.000000,300.000000,64.000000,81.000000,0.000000,0.000000,0.528530,0.626359,0.650499,0.823288,0.015246,364.000000,300.000000,64.000000,81.000000,0.000000,0.000000:
0000
0000
0000
0000
,
0000
0000
0000
0000
,
0000
0000
0000
0000
,
2002
3003
0220
0330
,
0001
0100
0010
1000
,
0001
0010
0001
0000
1000
0000
0010
0000
,
0000
0100
0100
0010
,
1000
0100
1000
0000
0001
0000
0010
0000
,
0000
0100
0100
0100
,
1000
0001
1000
0000
0001
0000
0100
0000
,
0000
0010
0010
0010
,
2020
3030
0202
0303
,
1000
0100
0010
0001
,
1000
0000
0001
0100
0010
0000
1000
0000
,
0002
0010
0010
0013
,
0001
0100
0001
0100
0001
0000
0010
0000
,
0200
1000
1000
1300
,
0001
0000
1000
0010
1000
0000
0001
0000
,
0020
0100
0100
0130
,
1000
0001
1000
0001
1000
0000
0010
0000
,
0200
0010
0010
0310
,
1000
1010
0001
0011
,
1000
1100
0001
0101
,
2000
0000
3100
0010
0002
0000
0203
0000
,
0320
0100
0100
0130
,
0001
0101
1000
1100
,
0001
0011
1000
1010
,
2002
3003
0220
0330
,
0000
1001
1001
1001
,
0001
0100
0020
0000
1030
0000
0001
0010
,
0100
1100
1100
1100
,
1000
0010
0200
0000
0301
0000
1000
0100
,
0010
0011
0011
0011
,
0001
0100
0020
0000
1030
0000
0001
1000
,
0010
1010
1010
1010
,
2002
3003
0220
0330
,
0010
1001
1001
1001
,
0220
0000
0330
0000
0001
0100
0001
0000
,
2000
3020
0130
0001
,
1000
0000
0001
0010
0100
1000
0000
0000
,
0010
0010
0100
0001
,
1000
0000
0001
0010
0000
0100
1000
0000
,
0020
0230
0302
0013
,
0100
0000
0000
0000
1000
0000
0000
0000
2200
3300
0000
0000
0022
0033
0000
0000
,
2002
3003
0000
0000
0002
0000
0000
0000
0100
0000
0000
0000
1003
0000
0000
0000
,
1000
0001
2000
0000
0100
0000
3001
0000
,
0001
1000
0020
0000
0230
0000
0302
0000
,
2003
3200
0000
0300
,
1000
0001
2000
0000
0010
0000
3001
0000
,
0001
1000
0002
0000
0010
0000
1003
0000
,
1000
0001
0200
0000
0320
0000
2030
0000
,
3002
0023
0000
0030
,
2002
0000
3003
0000
0000
1000
0100
0010
,
2002
0000
3003
0000
0000
0001
0100
0010
,
2002
0000
3003
0000
0000
1000
0100
0013
,
0022
3333
2200
3300
0000
1001
1001
1001
,
0001
0100
0020
0000
1030
0000
0001
1000
,
0001
1000
0100
0000
2200
0000
3300
0000
,
1000
0010
0200
0000
0301
0000
1000
0001
,
1000
0001
0010
0000
0022
0000
0033
0000
,
1000
0001
0200
0000
0310
0000
1030
0010
,
1000
0010
0200
0000
0302
0000
1003
0000
,
2200
3303
0022
0033
,
1001
0110
1001
0110
,
0001
1000
0001
1000
0001
1000
0001
1000
,
0010
1010
1010
1010
,
1000
0001
1000
0001
1000
0001
1000
0001
,
0010
0011
0011
0011
,
1000
0100
1000
0100
0010
0001
0010
0001
,
1000
1001
1001
1001
,
0002
0030
2003
0300
,
3010
0110
0110
0110
,
2002
0000
3003
0000
;

//---------------dance-single - ----------------
#NOTES:
     dance-single:
     :
     Easy:
     7:
     0.313633,0.368447,0.050820,0.233773,0.015246,216.000000,211.000000,5.000000,23.000000,0.000000,0.000000,0.313633,0.368447,0.050820,0.233773,0.015246,216.000000,211.000000,5.000000,23.000000,0.000000,0.000000:
0000
0000
0000
0000
,
0000
0000
0000
0000
,
0000
0000
0000
0000
,
2000
3000
0002
0003
,
0100
0010
0010
0010
,
1000
0100
0010
0001
,
0000
1000
1000
1000
,
0001
0100
0010
1000
,
0000
0001
0001
0001
,
1000
0100
0010
0001
,
0000
1000
1000
1000
,
0020
0030
0200
0300
,
0001
1000
0001
1000
,
0100
0000
0100
0000
,
1000
0100
0010
0000
,
0001
0000
0001
0000
,
1000
0001
0100
0000
,
0001
0000
0100
0000
,
0010
1000
0010
0000
,
1000
0000
0100
0000
,
0010
0001
0010
0000
,
0001
0001
0001
0000
,
1000
1000
1000
0000
,
0001
0100
0010
1000
,
0200
0000
0300
0000
,
1000
1000
1000
0000
,
0001
0001
0001
0000
,
1000
0010
0100
0001
,
0000
0010
0010
0010
,
0001
1000
0010
0100
,
0000
0010
0010
0010
,
1000
0100
0010
0001
,
0000
0100
0100
0100
,
0001
0010
0100
1000
,
0000
0001
0001
0001
,
0200
0300
0020
0030
,
1000
0001
1000
0001
,
1000
0000
0100
0000
,
0010
0000
0010
0000
,
0001
0100
0010
0000
,
1000
0100
0010
0000
,
0001
0000
1000
0000
,
0010
0010
0010
0000
,
1000
0000
0000
0000
0000
0000
0000
0000
0020
0030
0000
0000
0020
0030
0000
0000
,
0020
0030
0000
0000
1000
0000
0000
0000
1000
0000
0000
0000
1000
0000
0000
0000
,
0001
0010
0010
0010
,
0000
0001
0100
0010
,
1000
0002
0000
0003
,
0000
0001
0001
0001
,
0010
0100
0100
0100
,
1000
0020
0030
0200
,
0300
2002
0000
3003
,
1001
0000
0000
0000
0000
0010
0010
0000
,
1001
0000
0000
0000
0000
0010
0010
0000
,
1001
0000
0000
0000
0000
0010
0010
0000
,
2000
0000
3200
0000
0300
0010
0010
0010
,
0001
0000
1000
0000
,
0001
0100
0010
1000
,
0100
0000
0010
0000
,
0001
1000
0010
0100
,
0001
0000
1000
0000
,
0001
0010
0100
1000
,
0020
0000
0230
0000
,
0301
1000
0001
1000
,
0001
0001
0010
0100
,
0000
1000
0001
1000
,
1000
1000
0100
0010
,
0000
0001
1000
0001
,
0001
0001
0100
0010
,
0000
1000
1000
0001
,
0020
0000
0230
0000
,
0300
0010
0010
0010
,
2002
0000
3003
0000
;

//---------------dance-single - ----------------
#NOTES:
     dance-single:
     :
     Beginner:
     4:
     0.175693,0.221068,0.040656,0.020328,0.000000,121.000000,117.000000,4.000000,2.000000,0.000000,0.000000,0.175693,0.221068,0.040656,0.020328,0.000000,121.000000,117.000000,4.000000,2.000000,0.000000,0.000000:
0000
0000
0000
0000
,
0000
0000
0000
0000
,
0000
0000
0000
0000
,
1000
0000
1000
0000
,
1000
0000
0000
0000
,
0100
0000
0000
0000
,
0000
0010
0010
0000
,
0010
0000
0000
0000
,
0000
0001
0001
0000
,
0001
0000
0000
0000
,
0000
0100
0100
0000
,
0100
0000
0100
0000
,
0100
0000
0000
0000
,
0010
0000
0010
0000
,
0010
0000
0000
0000
,
1000
0000
1000
0000
,
1000
0000
0000
0000
,
0100
0000
0100
0000
,
0100
0000
0000
0000
,
0010
0000
0010
0000
,
0010
0000
0000
0000
,
0001
0001
0001
0000
,
0001
0000
0000
0000
,
0100
0100
0100
0000
,
0100
0000
0000
0000
,
0010
0010
0010
0000
,
0010
0000
0000
0000
,
1000
0000
1000
0000
,
1000
0000
0000
0000
,
0001
0000
0001
0000
,
0000
0010
0010
0000
,
0010
0000
0010
0000
,
0000
0100
0100
0000
,
0100
0000
0100
0000
,
0000
1000
1000
0000
,
1000
0000
0000
0000
,
0001
0000
0000
0000
,
1001
0000
0000
0000
,
1000
0000
0000
0000
,
0010
0000
0010
0000
,
0010
0000
0000
0000
,
0100
0000
0000
0000
,
0001
0000
0000
0000
,
0000
0000
0010
0000
,
0000
1001
0000
0000
,
0000
1000
0000
0000
,
0000
0010
0010
0010
,
0010
0010
0000
0000
,
0000
1000
0000
0000
,
0000
0001
0000
0000
,
0000
0010
0010
0010
,
0010
0010
0000
0000
,
0001
0000
0000
0000
,
1000
0000
0000
0000
,
0010
0000
0000
0000
,
0100
0100
0100
0000
,
1001
0000
0000
0000
,
0000
0001
0001
0001
,
0001
0000
0000
0000
,
0000
0010
0010
0010
,
0010
0000
0000
0000
,
0000
0100
0100
0100
,
0100
0000
0100
0000
,
0100
0000
0000
0000
,
1000
0000
0000
0000
,
0010
0010
0010
0010
,
0010
0000
0000
0000
,
0100
0100
0100
0100
,
0100
0000
0000
0000
,
0001
0001
0001
0001
,
0001
0000
0000
0000
,
0010
0000
0000
0000
,
2002
0000
3003
0000
;

//---------------dance-double - ----------------
#NOTES:
     dance-double:
     :
     Hard:
     13:
     0.638883,0.700049,0.792796,0.782632,0.035574,440.000000,362.000000,78.000000,77.000000,0.000000,0.000000,0.638883,0.700049,0.792796,0.782632,0.035574,440.000000,362.000000,78.000000,77.000000,0.000000,0.000000:
00000000
00000000
00000000
00000000
,
00000000
00000000
00000000
00000000
,
00000000
00000000
00000000
00000000
,
10010000
00000000
00011000
00000000
,
00001001
00000110
00000110
00000110
,
00000001
00000100
00000020
00000000
00001030
00000000
00000100
00010000
,
00001000
00011000
00011000
00011000
,
00001000
01000000
00020000
00000000
10030000
00000000
00010000
00100000
,
01000000
11000000
11000000
11000000
,
10000000
00100000
02000000
00000000
03010000
00000000
00100000
00001000
,
00010000
00011000
00011000
00011000
,
00020010
00031000
00102000
00013000
,
00011000
00000000
00010000
00001000
00000100
00000010
00001000
00000001
,
00000020
00000000
00000000
00000000
00000031
00000000
00000100
00000000
00000010
00000000
00000000
00000010
00000000
00000000
00001000
00000000
,
00000100
00010100
00011000
00201000
,
00310000
10000000
00010000
10000000
00200000
00000000
10300000
00010000
,
01000000
01001000
00011000
00010020
,
00001030
00000100
00000001
00000100
00002000
00000000
00003010
00010000
,
00001000
00011000
01100000
10010000
,
03010000
00100000
10000000
00100000
00020000
00000000
01030000
00001000
,
00010000
00011000
00000110
00001002
,
00000023
00000000
00000031
00000100
00000010
00000000
00001000
00000100
,
00000010
00000000
00001000
00010000
01000000
00000000
00100000
00010000
,
02000000
10000000
00100000
03020000
,
10030000
10010000
01100000
20010000
,
32000000
00000000
13000000
00100000
01000000
00000000
00010000
00100000
,
01000000
00000000
00010000
00001000
00000010
00000000
00000100
00001000
,
00002100
00000000
00003001
00000100
00000102
00000000
00001003
00000020
,
00000000
00000000
00000100
00000000
00000100
00000000
00000130
00000001
,
00000010
00002000
00000000
00003020
00000000
00002030
00000000
00023000
,
00000000
00130000
10000000
00000000
20100000
00000000
30010000
10000000
,
01000000
00020000
00000000
02030000
00000000
03020000
00000000
00032000
,
00000000
00003100
00000001
00000000
00000102
00000000
00001003
00000001
,
00000010
00002000
00000000
00003020
00000000
00002030
00000000
00023000
,
00000000
00130000
10000000
00000000
10100000
00000000
01010000
00000000
,
20010000
00000000
31000000
00100000
02000000
00000000
03010000
00001000
,
00020000
00030010
00010010
00001010
,
00002002
00000000
00003003
00000000
00000001
00000100
00001000
00000100
,
00000002
00000000
00001003
00000100
02000000
00000000
03013000
00000000
,
01010000
00000000
10000000
00100000
01000000
00010000
00000000
00000000
,
20000000
30020000
00130000
00101000
,
00011000
00000000
00010000
00000010
00000000
00000010
00000200
00000000
,
00000301
00000000
00001000
00000100
00000010
00000000
00000012
00000000
,
00000103
00000000
00000010
00000000
00001000
00000000
00000000
00000000
00002002
00003003
00000000
00000000
00022000
00033000
00000000
00000000
,
20020000
30030000
00000000
00000000
10000000
00000000
01000000
00000000
10000000
00000000
01000000
00000000
00100000
00000000
00010000
00000000
,
02000000
00000000
03010000
10000000
00010000
10000000
01000000
00100000
,
00002000
00010000
00000100
00023000
,
01000000
00031000
00011000
00000110
,
00001000
00000001
00000200
00000000
00001000
00000000
00000301
00000000
,
00000001
00001000
00000200
00000000
00000001
00000000
00001300
00000000
,
00000010
00010000
00002000
00000000
00100000
00000000
00023000
00000000
,
00000010
00002000
00000000
00033000
,
00012000
00000000
01000000
00000000
00013000
00100000
10000000
00001000
,
00021000
00000000
00000010
00000000
00031000
00000010
00000001
00010000
,
00012000
00000000
10000000
00000000
00013000
00100000
01000000
00001000
,
02002000
03003000
00020200
00030300
00000000
00011000
00011000
00011000
,
00001000
00100000
00010000
00100000
01000000
00100000
10000000
00100000
,
00010000
00000000
10000000
00100000
01000000
00000000
01002000
00000000
,
00013000
00000100
00001000
00000100
00000010
00000100
00000001
00000100
,
00001000
00000000
00000001
00000100
00000010
00000000
00020010
00000000
,
00031000
01000000
00010000
01000000
00100000
01000000
10000000
01000000
,
00010000
00000000
10000000
01000000
00100000
00000000
00101000
00000000
,
00012000
01003000
00021000
00030100
,
00011000
00000000
00010000
00001000
00000100
00000010
00002000
00000000
,
00003001
00000100
00000001
00000000
00001000
00000000
00000100
00000000
00001000
00000000
00000100
00000000
00001000
00000000
00000100
00000000
,
00000010
00001001
00011000
10010000
,
10030000
00100000
10000000
00000000
00010000
00000000
00100000
00000000
00010000
00000000
00100000
00000000
00010000
00000000
00100000
00000000
,
01000000
10010000
00011000
00001001
,
00000001
00001000
00000001
00000000
00000010
00000000
00000100
00000000
00000010
00000000
00000100
00000000
00000010
00000000
00000100
00000000
,
00001000
00001001
00011000
10010000
,
20200000
30300000
02020000
03030000
,
10000000
00010000
00001000
00000001
,
00002002
00000000
00003003
00000000
;

//---------------dance-double - ----------------
#NOTES:
     dance-double:
     :
     Medium:
     10:
     0.512558,0.552670,0.559023,0.772468,0.015246,353.000000,298.000000,55.000000,76.000000,0.000000,0.000000,0.512558,0.552670,0.559023,0.772468,0.015246,353.000000,298.000000,55.000000,76.000000,0.000000,0.000000:
00000000
00000000
00000000
00000000
,
00000000
00000000
00000000
00000000
,
00000000
00000000
00000000
00000000
,
00022000
00000000
00033000
00033000
00022000
00000000
00033000
00000000
,
00001000
00013000
00130000
10300000
,
00010000
10000000
00010000
00000000
00100000
00000000
00001000
00000000
,
00000000
00010000
00010000
00010000
,
00000010
00001000
00000010
00000000
00001000
00000000
00000001
00000000
,
00000000
00000010
00000010
00000010
,
00000001
00000100
00000001
00000000
00001000
00000000
00000100
00000000
,
00000000
00010000
00010000
00010000
,
00020020
00030030
00202000
00303000
,
00001000
00010000
00100000
10000000
,
00010000
00000000
10000000
01000000
10000000
00000000
00010000
00000000
,
01000000
00100000
00100000
00000000
,
10000000
00010000
10000000
00010000
10000000
00000000
00010000
00000000
,
00100000
00001000
00001000
00000000
,
00010000
00001000
00010000
00001000
00010000
00000000
00000010
00000000
,
00001000
00000001
00000001
00000000
,
00001000
00000100
00001000
00000100
00001000
00000000
00000001
00000000
,
00000100
00000010
00000010
00000000
,
00001000
00001010
00000001
00000011
,
00001000
00001100
00010000
00011000
,
00200000
00320000
20030000
30200000
,
02300000
00000000
03010000
10000000
00010000
00000000
10010000
00000000
,
00010000
01010000
10000000
11000000
,
00010000
00110000
00001000
00011000
,
00000200
00002300
00003002
00000203
,
00000310
00001031
00001001
00001001
,
00000001
00000100
00000010
00000000
00001000
00000000
00000100
00010000
,
00001000
00011000
00011000
00011000
,
00100000
00010000
01000000
00000000
00010000
00000000
10000000
00100000
,
01000000
10010000
10010000
10010000
,
10000000
01000000
00100000
00000000
00010000
00000000
01000000
00001000
,
00010000
00011000
00011000
00011000
,
00202000
00303000
00020020
00030030
,
00010000
00011000
00011000
00011000
,
00002020
00000000
00303030
00000000
00000001
00001000
00000001
00001000
,
00000020
00020030
00030200
00000300
,
00010000
00000000
00001000
00100000
00001000
00100000
00000000
00000000
,
00002000
00203000
02300000
03000000
,
10000000
00000000
00010000
01000000
00000000
00100000
20000000
00000000
,
30020000
30230000
00302000
00013000
,
00010000
00000000
00000000
00000000
00001000
00000000
00000000
00000000
00022000
00033000
00000000
00000000
00000220
00000330
00000000
00000000
,
00002002
00003003
00000000
00000000
00000002
00000000
00000000
00000000
00000203
00000000
00000000
00000000
00002300
00000000
00000000
00000000
,
00023000
00230000
20300000
32000000
,
03020000
00000000
00031000
00000000
00100000
00010000
00100000
00000000
,
00002000
02003000
03100000
10010000
,
10010000
20000000
01000000
31000000
,
10000000
01000000
00200000
00000000
00010000
00000000
00310000
00000000
,
00010000
01000000
00002000
00000000
00023000
00000000
00030020
00000000
,
00000230
00000310
00002002
00003003
,
00000002
00000000
00000010
00000000
00001003
00000100
00000100
00000100
,
00020000
00000000
00000010
00000000
00031000
00100000
00100000
00100000
,
00020000
00000000
01000000
00000000
10030000
00100000
00100000
00100000
,
10010000
00000000
10010000
00000000
00000000
00100000
00100000
00100000
,
10010000
00000000
10000000
00000000
00010000
01000000
00100000
00000000
,
10000000
01000000
00200000
00000000
00302000
00000000
00023000
00000000
,
00030100
00000000
00001000
00000000
00000001
00000100
00000010
00000000
,
00001000
00000100
00000020
00000000
00000032
00000000
00002003
00000000
,
00003010
00000000
00001000
00000000
00000100
00010000
00001000
00000000
,
00100000
00002000
00023000
00031000
,
00202000
00303000
00020020
00030030
,
00100000
00011000
00011000
00011000
,
00100000
00010000
00100000
00010000
00100000
00010000
00100000
00000000
,
00000000
10010000
10010000
10010000
,
00001000
01000000
00001000
01000000
00001000
01000000
00001000
00000000
,
00000000
00011000
00011000
00011000
,
00010000
00000100
00010000
00000100
00010000
00000100
00010000
00000000
,
00000000
00001100
00001100
00001100
,
00000002
00000000
00002003
00000000
,
00013000
10000000
00100000
01000000
,
20020000
00000000
30030000
00000000
;

//---------------dance-double - ----------------
#NOTES:
     dance-double:
     :
     Easy:
     7:
     0.329606,0.442136,0.111805,0.132133,0.000000,227.000000,216.000000,11.000000,13.000000,0.000000,0.000000,0.329606,0.442136,0.111805,0.132133,0.000000,227.000000,216.000000,11.000000,13.000000,0.000000,0.000000:
00000000
00000000
00000000
00000000
,
00000000
00000000
00000000
00000000
,
00000000
00000000
00000000
00000000
,
00010000
00000000
00010000
00000000
,
00001000
00000000
00001000
00000000
,
00100000
00010000
10000000
00100000
,
00000000
01000000
01000000
01000000
,
00010000
01000000
00001000
00010000
,
00000000
00000100
00000100
00000100
,
00001000
00000100
00000010
00000001
,
00000000
00001000
00001000
00001000
,
00000020
00000000
00020030
00000000
,
00031000
00100000
00010000
01000000
,
10010000
00000000
10000000
00000000
,
00010000
01000000
00001000
00000000
,
00010000
00000000
00000100
00000000
,
00010000
00000010
00001000
00000000
,
00000001
00000001
00001000
00001000
,
00000100
00000000
00010000
00000000
,
00001000
00001000
00100000
00100000
,
00010000
00000000
10000000
00000000
,
00010000
01000000
00010000
00000000
,
10000000
00100000
10000000
00000000
,
00010000
00100000
00001000
00010000
,
00000200
00000000
00000300
00000000
,
00001000
00000010
00001000
00000000
,
00000001
00000100
00000001
00000000
,
00001000
00000100
00010000
00001000
,
00200000
00000000
00300000
00000000
,
10010000
10000000
00100000
01000000
,
00000000
00010000
00010000
00010000
,
01000000
00001000
00010000
00000100
,
00000000
00000010
00000010
00000010
,
00000001
00001000
00000010
00010000
,
00000000
00001000
00001000
00001000
,
00200000
00000000
02300000
00000000
,
13000000
00010000
01000000
00100000
,
01100000
00000000
10000000
00000000
,
00100000
01000000
00010000
00000000
,
10000000
00000000
01000000
00000000
,
00100000
00001000
00010000
00000000
,
00000100
00000000
00001000
00000000
,
00000001
00000100
00000010
00000000
,
00001000
00000000
00001001
00001001
,
00001001
00000001
00000100
00000010
,
00001000
00000100
00010000
00001000
,
00100000
00010000
01000000
00100000
,
10000000
02000000
00000000
03000000
,
00000000
10000000
00100000
01000000
,
00010000
00100000
00001000
00010000
,
00000010
00001000
00000001
00000010
,
00000100
00010000
00000000
00000000
,
00011000
00001000
00100000
00000000
,
00011000
00010000
00000010
00000000
,
00011000
00001000
01000000
00000000
,
00011000
00000000
00010000
00000000
00000000
00001000
00010000
00001000
,
00100000
00000000
00100000
00000000
,
00001000
00100000
01000000
10000000
,
00100000
00000000
00100000
00000000
,
10000000
00100000
01000000
00001000
,
00010000
00000000
00010000
00000000
,
00010000
00000100
00000010
00000001
,
00002000
00000000
00003002
00000000
,
00000103
00000010
00000010
00000010
,
00001000
00000001
00000010
00000100
,
00010000
00001000
00001000
00001000
,
00100000
00010000
10000000
00100000
,
01000000
00100000
00100000
00100000
,
10000000
01000000
00100000
00010000
,
01000000
00001000
00001000
00001000
,
00020000
00000000
00030200
00000000
,
00000310
00000010
00000010
00000010
,
00002002
00000000
00003003
00000000
;
