#TITLE:Suit Up;
#SUBTITLE:;
#ARTIST:Blue Stahli;
#TITLETRANSLIT:;
#SUBTITLETRANSLIT:;
#ARTISTTRANSLIT:;
#GENRE:;
#CREDIT:;
#MUSIC:Suit Up.ogg;
#BANNER:banner.png;
#BACKGROUND:background.png;
#CDTITLE:;
#SAMPLESTART:17.950;
#SAMPLELENGTH:20.000;
#SELECTABLE:YES;
#OFFSET:1.673;
#BPMS:0.000=110.000;
#STOPS:;
#ORIGIN:;
#TAGS:;
#PREVIEWVID:;
#JACKET:jacket.png;
#CDIMAGE:;
#DISCIMAGE:;
#BGCHANGES:;
#FGCHANGES:;

//--------------- dance-single - ----------------
#NOTES:
     dance-single:
     :
     Beginner:
     4:
     0.137682,0.205436,0.028986,0,0,133,129,4,0,0,0,0,0,0,0.137682,0.205436,0.028986,0,0,133,129,4,0,0,0,0,0,0:
0000
0000
0000
0000
,
0000
0000
0000
0000
,
0000
0000
0000
0000
,
0000
0000
0000
0000
,
0000
0000
0000
0000
,
0001
0000
0010
0000
,
0100
0000
1000
0000
,
0010
0000
0100
0000
,
0010
0010
0100
0000
,
0001
0000
1000
0000
,
0100
0000
0010
0100
,
1000
0000
0001
0000
,
0010
0000
0001
0000
,
1000
0000
0001
0000
,
0100
0000
0010
0100
,
0001
0000
1000
0000
,
0010
0000
1000
0000
,
0100
0000
0010
0000
,
0001
0000
1000
0000
,
0010
0000
1000
0000
,
0001
0000
0000
0000
,
1000
0000
0100
0000
,
1000
0000
0010
0000
,
0100
0000
0001
0000
,
1000
0000
0000
0000
,
0100
0000
0100
0000
,
0010
0000
0010
0000
,
0001
0000
1000
0000
,
0010
0010
0100
0000
,
0001
0000
1000
0000
,
0100
0000
0010
0001
,
0100
0000
0010
0000
,
1000
0000
0001
0001
,
1000
0000
0001
0000
,
0100
0000
0010
1000
,
0100
0000
0010
0000
,
0001
0000
1000
0000
,
0010
0000
0100
0000
,
0001
0000
0100
0000
,
0010
0000
1000
0000
,
0001
0001
0000
0000
,
0010
0000
0100
0000
,
1000
0000
0001
0000
,
0100
0000
0010
0000
,
1000
0000
0000
0000
,
0100
0000
0000
0000
,
1000
0000
0000
0000
,
0001
0000
0000
0000
,
0100
0000
0010
0010
,
0100
0000
0000
0001
,
1000
0000
0000
0001
,
0010
0000
0100
0000
,
1000
1000
0001
0000
,
0100
0000
0010
0100
,
0001
0000
1000
0000
,
0100
0000
0010
0001
,
1000
0000
0010
0000
,
1000
0000
0100
0000
,
0010
0000
0001
1000
,
0010
0000
0100
0000
,
0001
0000
0000
0000
,
1001
0000
1001
0000
,
0110
0000
0110
0000
,
0001
0000
0000
0000
;

//--------------- dance-single - ----------------
#NOTES:
     dance-single:
     :
     Easy:
     7:
     0.30435,0.342394,0.050725,0,0.036232,294,287,7,0,0,0,0,0,0,0.30435,0.342394,0.050725,0,0.036232,294,287,7,0,0,0,0,0,0:
0000
0000
0000
0000
,
0000
0000
0000
0000
,
0000
0000
0000
0000
,
0000
0000
0000
0000
,
0000
0000
0000
0000
,
0001
0010
0100
0000
,
0010
0001
1000
0000
,
0001
0100
0010
1000
,
0001
1000
0001
1000
0010
0000
0000
0000
,
1000
0000
0001
0000
0010
0100
1000
0000
,
0001
0000
0100
0000
0001
1000
0010
1000
,
0001
0000
1000
0000
0100
0010
0001
0000
,
1000
0000
0000
0000
0001
0000
0000
0000
0010
0000
0000
0010
0000
0000
0100
0000
,
1000
0000
0001
0000
0100
0010
1000
0000
,
0001
0000
0010
0000
0001
1000
0100
1000
,
0001
0000
1000
0000
0010
0100
0001
0000
,
1000
0000
0001
0000
0200
0000
0000
0310
,
1000
0001
0010
0001
,
0100
0000
0000
0000
0010
0000
0000
0000
1000
0000
0000
1000
0000
0000
0001
0000
,
0100
0001
1000
0100
,
0010
0100
1000
0000
,
0001
0100
0001
0010
,
0100
0000
0000
0000
1000
0000
0000
0000
0001
0000
0000
0001
0000
0000
1000
0000
,
0010
0100
0001
1000
,
0001
0010
0100
0000
,
1000
0001
0100
0000
,
0010
0100
0001
0000
,
0010
0100
0010
0100
,
1000
0001
1000
0001
0100
0000
0000
0000
,
0010
0000
0100
0000
0001
0010
0100
0000
,
1000
0000
0001
0000
0010
0001
0100
0001
,
0010
0000
0100
0000
1000
0010
0100
0000
,
0001
0100
1001
1100
,
0100
0000
0010
0000
0001
0100
0010
0000
,
1000
0000
0001
0000
0100
0001
0010
0001
,
0100
0000
0010
0000
1000
0100
0010
0000
,
0001
0000
0000
0000
0010
0000
0000
0000
0100
0000
0000
0100
0000
0000
1000
0000
,
0010
1000
0100
0010
,
0001
0000
0100
0000
0001
0000
1000
0010
,
0100
0001
1000
0100
,
0010
0000
0100
1000
0000
0000
0000
0000
,
0010
0100
0001
1000
,
0100
1000
0001
0010
,
0100
1000
0001
0100
,
0010
1000
0100
0000
0000
0000
0000
0000
,
0010
0100
1000
0000
,
0001
0100
0010
0000
,
1000
0010
0100
0000
,
0001
0000
0000
0000
1000
0000
0000
0000
0100
0000
0000
0100
0000
0000
1000
0000
,
0001
0000
1000
0000
0000
0010
0010
0000
,
0100
0000
0001
0000
0000
1000
1000
0000
,
0100
0010
0001
1000
,
0010
0100
0010
0100
0001
0000
0000
0000
,
1000
0000
0100
0000
0010
0001
0100
0000
,
0010
0000
1000
0000
0001
0010
0100
0000
,
1000
0000
0001
0000
0100
0010
1000
0001
,
0010
0000
0000
0000
0100
0000
0000
0000
0010
0000
0000
0010
0000
0000
0001
0000
,
0100
0000
0000
0000
0010
0000
0000
0000
1000
0000
0001
0000
0000
0001
0000
0000
,
0010
0000
0100
0000
1000
0100
0010
0001
,
0100
0000
0000
0000
0001
0000
0000
0000
1000
0000
0100
0000
0000
0100
0000
0000
,
1000
0000
0001
0000
0101
0100
0010
0000
,
1010
1000
1001
0001
,
0011
0010
0110
0100
,
1000
0000
0000
0000
;

//--------------- dance-single - ----------------
#NOTES:
     dance-single:
     :
     Medium:
     12:
     0.520708,0.575185,0.188407,0.492757,0.731889,503,477,26,68,0,0,0,0,0,0.520708,0.575185,0.188407,0.492757,0.731889,503,477,26,68,0,0,0,0,0:
0000
0000
0000
0000
,
0000
0000
0000
0000
,
0000
0000
0000
0000
,
0000
0000
0000
0000
,
0000
0000
0000
0000
,
0001
0010
0000
0001
0010
0000
0000
0000
0100
0010
0000
0100
0010
0000
0000
0000
,
0100
1000
0000
0100
1000
0000
0000
0000
0001
0100
0000
0001
0100
0000
0000
0000
,
0010
1000
0100
0010
0100
1000
0010
0100
,
0001
0000
0001
0000
1000
0100
1000
0100
0010
0000
0000
0000
0000
0000
0000
0000
,
0001
0000
0000
0000
0020
0030
0000
0000
0000
0000
0000
0000
0020
0030
0000
0000
1000
0000
0000
0000
0000
0000
0000
0000
0010
0000
0000
0000
0000
0000
0000
0000
0100
0000
0000
0000
0010
0000
0000
0000
1000
0000
0000
0000
0000
0000
0000
0000
0001
0000
0000
0000
1000
0000
0000
0000
0000
0000
0000
0000
0000
0000
0000
0000
,
0001
0000
0000
0000
0200
0300
0000
0000
0000
0000
0000
0000
0200
0300
0000
0000
1000
0000
0000
0000
0000
0000
0000
0000
0100
0000
0000
0000
0000
0000
0000
0000
0010
0000
0000
0000
0100
0000
0000
0000
1000
0000
0000
0000
0001
0000
0000
0000
0100
0000
0000
0000
0000
0000
0000
0000
0010
0000
0000
0000
0000
0000
0000
0000
,
1000
0000
0000
0000
0020
0030
0000
0000
0000
0000
0000
0000
0020
0030
0000
0000
0001
0000
0000
0000
0000
0000
0000
0000
0010
0000
0000
0000
0000
0000
0000
0000
0100
0000
0000
0000
0010
0000
0000
0000
0001
0000
0000
0000
0000
0000
0000
0000
1000
0000
0000
0000
0001
0000
0000
0000
0000
0000
0000
0000
0000
0000
0000
0000
,
1000
0000
0000
0000
0200
0300
0000
0000
0000
0000
0000
0000
0200
0300
0000
0000
0001
0000
0000
0000
0000
0000
0000
0000
0100
0000
0000
0000
0000
0000
0000
0000
0110
0000
0000
0000
0000
0000
0000
0000
0000
0000
0000
0000
0101
0000
0000
0000
0000
0000
0000
0000
0000
0000
0000
0000
1001
0000
0000
0000
0000
0000
0000
0000
,
1000
0000
0000
0000
0020
0030
0000
0000
0000
0000
0000
0000
0020
0030
0000
0000
0001
0000
0000
0000
0000
0000
0000
0000
0010
0000
0000
0000
0000
0000
0000
0000
0100
0000
0000
0000
0010
0000
0000
0000
0001
0000
0000
0000
0000
0000
0000
0000
1000
0000
0000
0000
0001
0000
0000
0000
0000
0000
0000
0000
0000
0000
0000
0000
,
1000
0000
0000
0000
0200
0300
0000
0000
0000
0000
0000
0000
0200
0300
0000
0000
0001
0000
0000
0000
0000
0000
0000
0000
0100
0000
0000
0000
0000
0000
0000
0000
0010
0000
0000
0000
0100
0000
0000
0000
0001
0000
0000
0000
1000
0000
0000
0000
0100
0000
0000
0000
0000
0000
0000
0000
0010
0000
0000
0000
0000
0000
0000
0000
,
0001
0000
0000
0000
0020
0030
0000
0000
0000
0000
0000
0000
0020
0030
0000
0000
1000
0000
0000
0000
0000
0000
0000
0000
0010
0000
0000
0000
0000
0000
0000
0000
0100
0000
0000
0000
0010
0000
0000
0000
1000
0000
0000
0000
0000
0000
0000
0000
0001
0000
0000
0000
1000
0000
0000
0000
0000
0000
0000
0000
0000
0000
0000
0000
,
0001
0000
0000
0000
0200
0300
0000
0000
0000
0000
0000
0000
0200
0300
0000
0000
1000
0000
0000
0000
0000
0000
0000
0000
0100
0000
0000
0000
0000
0000
0000
0000
0010
0000
0000
0000
0000
0000
0000
0000
0100
0000
0000
0000
1000
0000
0000
0000
0100
0000
0000
0000
1000
0000
0000
0000
0001
0000
0000
0000
0000
0000
0000
0000
,
2000
0000
3010
0100
0001
1000
0010
1000
,
0001
0010
0001
0010
0001
0000
1000
0000
0010
0000
0100
0010
0000
0100
0010
0000
,
2000
0000
0000
3000
0100
0000
0010
0000
0001
0000
1000
0000
0010
0000
1000
0000
,
0001
0010
0100
0000
1000
0000
0001
0000
0200
0000
0000
0310
1000
0000
0010
0000
,
0200
0000
0000
0000
0302
0000
1003
0000
0100
0000
2000
3000
0010
0000
0100
0000
,
0010
1000
0010
1000
0010
0000
1000
0000
0001
0000
1000
0100
0000
1000
0100
0000
,
0020
0000
0000
0000
0032
0000
1003
0000
0010
0100
0001
0000
1000
0000
0100
0000
,
0010
0100
0010
0100
0010
0000
0001
0000
2000
0000
0000
0000
3001
0000
1000
0000
,
0010
0100
0000
0010
0100
0000
0000
0000
0010
1000
0000
0010
1000
0000
0000
0000
,
0001
0010
0000
0001
0010
0000
0000
0000
0100
1000
0000
0100
1000
0000
0000
0000
,
0001
1000
0010
0100
0001
0010
0100
1000
,
0010
0000
0010
0000
0100
0001
0100
0001
1000
0000
0000
0000
0000
0000
0000
0000
,
0001
0000
0000
0000
0200
0300
0000
0000
0000
0000
0000
0000
0200
0300
0000
0000
0010
0000
0000
0000
0000
0000
0000
0000
0001
0000
0000
0000
0000
0000
0000
0000
1000
0000
0000
0000
0100
0000
0000
0000
0010
0000
0000
0000
0000
0000
0000
0000
0001
0000
0000
0000
1000
0000
0000
0000
0000
0000
0000
0000
0000
0000
0000
0000
,
0001
0000
0000
0000
0020
0030
0000
0000
0000
0000
0000
0000
0020
0030
0000
0000
0100
0000
0000
0000
0000
0000
0000
0000
0001
0000
0000
0000
0000
0000
0000
0000
1000
0000
0000
0000
0100
0000
0000
0000
0010
0000
0000
0000
0001
0000
0000
0000
1000
0000
0000
0000
0000
0000
0000
0000
0010
0000
0000
0000
0000
0000
0000
0000
,
1000
0000
0000
0000
0200
0300
0000
0000
0000
0000
0000
0000
0200
0300
0000
0000
0010
0000
0000
0000
0000
0000
0000
0000
1000
0000
0000
0000
0000
0000
0000
0000
0001
0000
0000
0000
0100
0000
0000
0000
0010
0000
0000
0000
0000
0000
0000
0000
1000
0000
0000
0000
0001
0000
0000
0000
0000
0000
0000
0000
0000
0000
0000
0000
,
1000
0000
0000
0000
0020
0030
0000
0000
0000
0000
0000
0000
0020
0030
0000
0000
0100
0000
0000
0000
0000
0000
0000
0000
0010
0000
0000
0000
0000
0000
0000
0000
0011
0000
0000
0000
0000
0000
0000
0000
0001
0000
0000
0000
1000
0000
0000
0000
0001
0000
0000
0000
1000
0000
0000
0000
0010
0000
0000
0000
0000
0000
0000
0000
,
1000
0000
0000
0000
0200
0300
0000
0000
0000
0000
0000
0000
0200
0300
0000
0000
0010
0000
0000
0000
0000
0000
0000
0000
1000
0000
0000
0000
0000
0000
0000
0000
0001
0000
0000
0000
0100
0000
0000
0000
0010
0000
0000
0000
0000
0000
0000
0000
1000
0000
0000
0000
0001
0000
0000
0000
0000
0000
0000
0000
0000
0000
0000
0000
,
1000
0000
0000
0000
0020
0030
0000
0000
0000
0000
0000
0000
0020
0030
0000
0000
0100
0000
0000
0000
0000
0000
0000
0000
1000
0000
0000
0000
0000
0000
0000
0000
0001
0000
0000
0000
0100
0000
0000
0000
0010
0000
0000
0000
1000
0000
0000
0000
0001
0000
0000
0000
0000
0000
0000
0000
0010
0000
0000
0000
0000
0000
0000
0000
,
0001
0000
0000
0000
0200
0300
0000
0000
0000
0000
0000
0000
0200
0300
0000
0000
0010
0000
0000
0000
0000
0000
0000
0000
0001
0000
0000
0000
0000
0000
0000
0000
1000
0000
0000
0000
0100
0000
0000
0000
0010
0000
0000
0000
0000
0000
0000
0000
0001
0000
0000
0000
1000
0000
0000
0000
0000
0000
0000
0000
0000
0000
0000
0000
,
0001
0000
0000
0000
0020
0030
0000
0000
0000
0000
0000
0000
0020
0030
0000
0000
0100
0000
0000
0000
0000
0000
0000
0000
0001
0000
0000
0000
0000
0000
0000
0000
1001
0000
0000
0000
0000
0000
0000
0000
1000
0000
0000
0000
0100
0000
0000
0000
0000
0000
0000
0000
1000
0000
0000
0000
0010
0000
0000
0000
1000
0000
0000
0000
,
0002
0000
1003
0100
0010
0100
1000
0001
,
0100
0010
0100
0010
1000
0000
0001
0000
0010
0000
0100
0000
2000
0000
3001
0000
,
0200
0000
0310
1000
0100
0010
0100
2000
,
3001
0100
0001
0100
0010
0000
1000
0010
0000
0100
0000
0001
0000
0010
0100
0010
,
0200
0000
0310
0001
1000
0010
0100
0001
,
1000
0001
0010
0001
1000
0000
0100
0000
1000
0000
0010
0000
0100
0002
0003
0100
,
0020
0000
1030
0001
1000
0100
0010
0002
,
0103
0010
1000
0010
0100
0000
0001
0000
0010
0100
1000
0000
0001
0000
1000
0000
,
0010
0100
0000
0000
0001
0000
0000
1000
0000
0000
0100
0000
1000
0000
0000
0000
,
0001
0100
0000
0000
0010
0000
0000
1000
0000
0000
0001
0000
0010
0000
0000
0000
,
0100
0010
0000
0000
0001
0000
0000
1000
0000
0000
0010
0000
0100
0000
0000
0000
,
0010
1000
0000
0000
0001
0000
0000
0000
0010
0000
0100
0010
0000
0100
0010
0000
,
0001
1000
0000
0000
1001
0000
0000
0000
0000
0000
0001
0000
0101
0000
0000
0000
,
0100
0000
1010
0000
0000
1000
1001
0000
,
0001
0100
0010
1000
0100
1000
0010
1000
,
0100
0000
0100
0000
0010
0001
0010
0001
1000
0000
0000
0000
0000
0000
0000
0000
,
0100
0000
0000
0000
0020
0030
0000
0000
0000
0000
0000
0000
0020
0030
0000
0000
1000
0000
0000
0000
0000
0000
0000
0000
0001
0000
0000
0000
0010
0000
0000
0000
0100
0000
0000
0000
0000
0000
0000
0000
1000
0000
0000
0000
0000
0000
0000
0000
0001
0000
0000
0000
0000
0000
0000
0000
0100
0000
0000
0000
0000
0000
0000
0000
,
0010
0000
0000
0000
0200
0300
0000
0000
0000
0000
0000
0000
0200
0300
0000
0000
1000
0000
0000
0000
0000
0000
0000
0000
0100
0000
0000
0000
0000
0000
0000
0000
0110
0000
0000
0000
0000
0000
0000
0000
1000
0000
0000
0000
0000
0000
0000
0000
0001
0000
0000
0000
2000
0000
0000
0000
0000
0000
0000
0000
0000
0000
0000
0000
,
3010
0000
0000
0000
0200
0300
0000
0000
0000
0000
0000
0000
0200
0300
0000
0000
1000
0000
0000
0000
0000
0000
0000
0000
0010
0000
0000
0000
0100
0000
0000
0000
0001
0000
0000
0000
0000
0000
0000
0000
1000
0000
0000
0000
0000
0000
0000
0000
1001
0000
0000
0000
0000
0000
0000
0000
1000
0000
0000
0000
0000
0000
0000
0000
,
0100
0000
0000
0000
0020
0030
0000
0000
0000
0000
0000
0000
0020
0030
0000
0000
1000
0000
0000
0000
0000
0000
0000
0000
0010
0000
0000
0000
1000
0000
0000
0000
0100
0000
0000
0000
0000
0000
0000
0000
0000
0000
0000
0000
0110
0000
0000
0000
0000
0000
0000
0000
0000
0000
0000
0000
0011
0000
0000
0000
0000
0000
0000
0000
,
0010
0000
0000
0000
0200
0300
0000
0000
0000
0000
0000
0000
0200
0300
0000
0000
0001
0000
0000
0000
0000
0000
0000
0000
1000
0000
0000
0000
0010
0000
0000
0000
0100
0000
0000
0000
0000
0000
0000
0000
0101
0000
0000
0000
0000
0000
0000
0000
0000
0000
0000
0000
0101
0000
0000
0000
0000
0000
0000
0000
0000
0000
0000
0000
,
0100
0000
0000
0000
0020
0030
0000
0000
0000
0000
0000
0000
0020
0030
0000
0000
0001
0000
0000
0000
0000
0000
0000
0000
1000
0000
0000
0000
0100
0000
0000
0000
0010
0000
0000
0000
0000
0000
0000
0000
0001
0000
0000
0000
1000
0000
0000
0000
0001
0000
0000
0000
1000
0000
0000
0000
0010
0000
0000
0000
0000
0000
0000
0000
,
0100
0000
0000
0000
0020
0030
0000
0000
0000
0000
0000
0000
0020
0030
0000
0000
0001
0000
0000
0000
0000
0000
0000
0000
0010
0000
0000
0000
0100
0000
0000
0000
1000
0000
0000
0000
0000
0000
0000
0000
0001
0000
0000
0000
0000
0000
0000
0000
1000
0000
0000
0000
0100
0000
0000
0000
0000
0000
0000
0000
0000
0000
0000
0000
,
0010
0000
0000
0000
0200
0300
0000
0000
0000
0000
0000
0000
0200
0300
0000
0000
0001
0000
0000
0000
0000
0000
0000
0000
0100
0000
0000
0000
0001
0000
0000
0000
0010
0000
0000
0000
0000
0000
0000
0000
0100
0000
0000
0000
0000
0000
0000
0000
1000
0000
0000
0000
0000
0000
0000
0000
0001
0000
0000
0000
0000
0000
0000
0000
,
0101
0000
0000
0001
0100
0000
0000
0000
1010
0000
0000
1000
0010
0000
0000
0000
,
1100
0000
0000
0100
1000
0000
0000
0000
0011
0000
0000
0010
0001
0000
0000
0000
,
2002
0000
3003
0000
;

//--------------- dance-single - ----------------
#NOTES:
     dance-single:
     :
     Hard:
     15:
     0.698763,0.667215,0.152175,0.594207,1.221023,675,654,21,82,0,0,0,0,0,0.698763,0.667215,0.152175,0.594207,1.221023,675,654,21,82,0,0,0,0,0:
0000
0000
0000
0000
,
0000
0000
0000
0000
,
0000
0000
0000
0000
,
0000
0000
0000
0000
,
0000
0000
0000
0000
0000
0000
0000
0000
0000
0000
0000
0000
0000
0000
0000
0000
0000
0000
0000
0000
0000
0000
0000
0000
0000
0000
0000
0000
0000
0000
0001
1000
,
0001
0010
0000
0100
1000
0000
0100
1000
0001
0100
0000
0010
1000
0000
0010
1000
,
0001
0000
0010
0000
0000
0000
0100
0000
1000
0000
0000
0000
0100
0000
1000
0000
0010
0000
0100
0000
0000
0000
0001
0000
1000
0000
0000
0000
0100
0000
0010
0001
,
0010
0001
1000
0010
0100
0001
1000
0100
,
0010
0100
0010
0100
1000
0001
1000
0001
0100
0000
0000
0000
0000
0000
0000
0000
,
0001
0000
0000
0000
0020
0030
0000
0000
0000
0000
0000
0000
0020
0030
0000
0000
1000
0000
0000
0000
0000
0000
0000
0000
0001
0000
0000
0000
1000
0000
0000
0000
0100
0000
0000
0000
0010
0000
0000
0000
0001
0000
0000
0000
0000
0000
0000
0000
1000
0000
0000
0000
0001
0000
0000
0000
0000
0000
0000
0000
0000
0000
0000
0000
,
1000
0000
0000
0000
0020
0030
0000
0000
0000
0000
0000
0000
0020
0030
0000
0000
0001
0000
0000
0000
0000
0000
0000
0000
1000
0000
0000
0000
0001
0000
0000
0000
0100
0000
0000
0000
0100
0000
0000
0000
1000
0000
0000
0000
0100
0000
0000
0000
0100
0000
0000
0000
0001
0000
0000
0000
0100
0000
0000
0000
0010
0000
0000
0000
,
1000
0000
0000
0000
0200
0300
0000
0000
0000
0000
0000
0000
0200
0300
0000
0000
0001
0000
0000
0000
0000
0000
0000
0000
1000
0000
0000
0000
0001
0000
0000
0000
0010
0000
0000
0000
0100
0000
0000
0000
1000
0000
0000
0000
0000
0000
0000
0000
0001
0000
0000
0000
1000
0000
0000
0000
0000
0000
0000
0000
0000
0000
0000
0000
,
0001
0000
0000
0000
0200
0300
0000
0000
0000
0000
0000
0000
0200
0300
0000
0000
1000
0000
0000
0000
0000
0000
0000
0000
0100
0000
0000
0000
1000
0000
0000
0000
0001
0000
0000
0000
0010
0000
0000
0000
0001
0000
0000
0000
1000
0000
0000
0000
0010
0000
0000
0000
1000
0000
0000
0000
0001
0000
0000
0000
0010
0000
0000
0000
,
0001
0000
0000
0000
0200
0300
0000
0000
0000
0000
0000
0000
0200
0300
0000
0000
1000
0000
0000
0000
0000
0000
0000
0000
0001
0000
0000
0000
1000
0000
0000
0000
0010
0000
0000
0000
0100
0000
0000
0000
0001
0000
0000
0000
0000
0000
0000
0000
1000
0000
0000
0000
0001
0000
0000
0000
0000
0000
0000
0000
0000
0000
0000
0000
,
1000
0000
0000
0000
0200
0300
0000
0000
0000
0000
0000
0000
0200
0300
0000
0000
0001
0000
0000
0000
0000
0000
0000
0000
1000
0000
0000
0000
0001
0000
0000
0000
0010
0000
0000
0000
0010
0000
0000
0000
1000
0000
0000
0000
0010
0000
0000
0000
0010
0000
0000
0000
0001
0000
0000
0000
0010
0000
0000
0000
0100
0000
0000
0000
,
1000
0000
0000
0000
0020
0030
0000
0000
0000
0000
0000
0000
0020
0030
0000
0000
0001
0000
0000
0000
0000
0000
0000
0000
1000
0000
0000
0000
0001
0000
0000
0000
0100
0000
0000
0000
0010
0000
0000
0000
1000
0000
0000
0000
0000
0000
0000
0000
0001
0000
0000
0000
1000
0000
0000
0000
0000
0000
0000
0000
0000
0000
0000
0000
,
0001
0000
0000
0000
0020
0030
0000
0000
0000
0000
0000
0000
0020
0030
0000
0000
1000
0000
0000
0000
0000
0000
0000
0000
0001
0000
0000
0000
1000
0000
0000
0000
0100
0000
0000
0000
0010
0000
0000
0000
0001
0000
0000
0000
0010
0000
0000
0000
0100
0000
0000
0000
1000
0000
0000
0000
0001
0000
0000
0000
0100
0000
0000
0000
,
0020
0000
0000
0000
1030
0000
0001
1000
0001
0010
0100
0000
1000
0000
0001
0000
,
0100
0010
0100
0010
1000
0000
0001
0000
0100
0100
1000
0100
0100
0001
1000
0001
,
0020
0000
0000
0130
1000
0000
0001
0000
1000
0001
1000
0001
0100
0000
0001
0100
,
0010
0000
0000
0000
0000
0000
1000
0000
0000
0000
0000
0000
0100
0000
0000
0000
0000
0000
0010
0000
0000
0000
0000
0000
0001
0000
0000
0000
0000
0000
0000
0000
0000
0000
0000
0000
1000
0000
0000
0000
0000
0000
0001
0000
0000
0000
0000
0000
2000
0000
0000
0000
0000
0000
0000
0000
0000
0000
0000
0000
0000
0000
0000
0000
0000
0000
3001
0000
0000
0100
0000
0000
0001
0000
0000
0000
0000
0000
0100
0000
0000
0000
0000
0000
0010
0000
0000
0000
1000
0000
0000
0000
0010
0000
0000
0000
,
2000
0000
0000
0000
3002
0000
0013
0000
0100
0010
0002
1003
0010
0000
1000
0000
,
0100
0010
0100
0010
0001
0000
1000
0000
0100
0100
0001
0100
0100
1000
0001
0100
,
0020
0000
0000
0000
2030
0000
3010
0000
0100
0100
1000
0000
0001
0000
1000
0000
,
0100
1000
0100
1000
0001
0100
0010
1000
0002
0000
2003
0000
3001
0010
0100
1000
,
0001
1000
0000
0100
1000
0000
0100
1000
0001
0100
0000
0010
1000
0000
0010
1000
,
0001
0010
0000
0100
1000
0000
0100
1000
0010
0100
0000
0001
1000
0000
0100
0010
,
0001
0001
1000
1000
0010
0010
0100
0100
,
0001
0000
1000
0000
0001
0000
1000
0000
0010
0100
0010
0000
1000
0010
1000
0000
0001
0000
0000
0000
0000
0000
0000
0000
0000
0000
0000
0000
0000
0000
0000
0000
,
1000
0000
0000
0000
0020
0030
0000
0000
0000
0000
0000
0000
0020
0030
0000
0000
0100
0000
0000
0000
0000
0000
0000
0000
0010
0000
0000
0000
0001
0000
0000
0000
0100
0000
0000
0000
0010
0000
0000
0000
1000
0000
0000
0000
0000
0000
0000
0000
0001
0000
0000
0000
1000
0000
0000
0000
0000
0000
0000
0000
0000
0000
0000
0000
,
0001
0000
0000
0000
0020
0030
0000
0000
0000
0000
0000
0000
0020
0030
0000
0000
0100
0000
0000
0000
0000
0000
0000
0000
0010
0000
0000
0000
1000
0000
0000
0000
0100
0000
0000
0000
0100
0000
0000
0000
0001
0000
0000
0000
0010
0000
0000
0000
0010
0000
0000
0000
1000
0000
0000
0000
0100
0000
0000
0000
0010
0000
0000
0000
,
0001
0000
0000
0000
0200
0300
0000
0000
0000
0000
0000
0000
0200
0300
0000
0000
0010
0000
0000
0000
0000
0000
0000
0000
0100
0000
0000
0000
1000
0000
0000
0000
0010
0000
0000
0000
0100
0000
0000
0000
0001
0000
0000
0000
0000
0000
0000
0000
1000
0000
0000
0000
0001
0000
0000
0000
0000
0000
0000
0000
0000
0000
0000
0000
,
1000
0000
0000
0000
0200
0300
0000
0000
0000
0000
0000
0000
0200
0300
0000
0000
0010
0000
0000
0000
0000
0000
0000
0000
0100
0000
0000
0000
0000
0000
0000
0000
1001
0000
0000
0000
0000
0000
0000
0000
1000
0000
0000
0000
1000
0000
0000
0000
0001
0000
0000
0000
0001
0000
0000
0000
0100
0000
0000
0000
0010
0000
0000
0000
,
1000
0000
0000
0000
0200
0300
0000
0000
0000
0000
0000
0000
0200
0300
0000
0000
0010
0000
0000
0000
0000
0000
0000
0000
0100
0000
0000
0000
0001
0000
0000
0000
0010
0000
0000
0000
0100
0000
0000
0000
1000
0000
0000
0000
0000
0000
0000
0000
0001
0000
0000
0000
1000
0000
0000
0000
0000
0000
0000
0000
0000
0000
0000
0000
,
0001
0000
0000
0000
0200
0300
0000
0000
0000
0000
0000
0000
0200
0300
0000
0000
0010
0000
0000
0000
0000
0000
0000
0000
0100
0000
0000
0000
1000
0000
0000
0000
0010
0000
0000
0000
0010
0000
0000
0000
0001
0000
0000
0000
0100
0000
0000
0000
0100
0000
0000
0000
1000
0000
0000
0000
0010
0000
0000
0000
0100
0000
0000
0000
,
0001
0000
0000
0000
0020
0030
0000
0000
0000
0000
0000
0000
0020
0030
0000
0000
0100
0000
0000
0000
0000
0000
0000
0000
0010
0000
0000
0000
1000
0000
0000
0000
0100
0000
0000
0000
0010
0000
0000
0000
0001
0000
0000
0000
0000
0000
0000
0000
1000
0000
0000
0000
0001
0000
0000
0000
0000
0000
0000
0000
0000
0000
0000
0000
,
1000
0000
0000
0000
0020
0030
0000
0000
0000
0000
0000
0000
0020
0030
0000
0000
0100
0000
0000
0000
0000
0000
0000
0000
0010
0000
0000
0000
0001
0000
0000
0000
1000
0000
0000
0000
0100
0000
0000
0000
0010
0000
0000
0000
0001
0000
0000
0000
0010
0000
0000
0000
0100
0000
0000
0000
1000
0000
0000
0000
0010
0000
0000
0000
,
0200
0000
0000
0000
0301
0000
1000
0001
1000
0100
0010
0000
0001
0000
1000
0010
,
0100
0001
0100
0001
1000
0000
0100
0010
0100
1000
0001
0000
0200
0000
0310
0000
,
2000
0000
0000
0000
3100
0000
0010
0001
0010
0100
1000
0000
0001
0000
0200
0000
,
0310
0000
0000
0000
0100
0000
0000
0000
0001
0000
0000
0000
1000
0000
0000
0000
0100
0000
0000
0000
1000
0000
0000
0000
0001
0000
0000
0000
0020
0030
0000
0000
0000
0000
0000
0000
0020
0030
0000
0000
1000
0000
0000
0000
0200
0300
0000
0000
0000
0000
0000
0000
0200
0300
0000
0000
0001
0000
0000
0000
0010
0000
0000
0000
,
0200
0000
0000
0000
1300
0000
0100
1000
0001
0100
0010
0000
0100
0000
0001
0000
,
0010
0100
1000
0001
0100
0000
0010
0000
1000
0001
0010
0000
0100
2000
3000
0001
,
0200
0000
0000
0000
0310
0000
0100
0001
1000
0100
0010
0000
0001
0000
0020
0000
,
0130
1000
0100
1000
0001
0000
0010
0001
0100
0010
0100
0000
0101
0000
0001
0000
,
1001
1000
0000
0000
0100
0000
1000
0100
0000
0010
0001
0000
1000
0000
0000
0000
,
0010
1000
0000
0001
1000
0000
0100
0010
0000
0001
1000
0000
0010
0000
0000
0000
,
1000
0001
0000
0010
0001
0000
1000
0001
0000
0010
0100
0000
1000
0000
0000
0000
,
0001
0100
0000
0010
0100
0000
0001
1000
0100
0100
0001
0100
0100
1000
0001
0010
,
0110
0100
0000
0000
1000
0000
0000
0000
0000
0000
0001
0000
0011
0000
0000
0000
,
1000
0000
0000
0000
1010
0000
0000
0000
0000
0000
0010
0000
0110
0000
0100
0001
,
0010
0010
0100
0100
1000
1000
0001
0001
,
0100
0000
0010
0000
0100
0000
0010
0000
1000
0001
1000
0000
0001
0010
0001
0000
1000
0000
0000
0000
0000
0000
0000
0000
0000
0000
0000
0000
0000
0000
0000
0000
,
0010
0000
0000
0000
0200
0300
0000
0000
0000
0000
0000
0000
0200
0300
0000
0000
1000
0000
0000
0000
0000
0000
0000
0000
0001
0000
0000
0000
1000
0000
0000
0000
0100
0000
0000
0000
0010
0000
0000
0000
0001
0000
1000
0000
0001
0000
0000
0000
0200
0000
0000
0000
0000
0000
0000
0000
0301
0000
0000
0000
0000
0000
0000
0000
,
0010
0000
0000
0000
0200
0300
0000
0000
0000
0000
0000
0000
0200
0300
0000
0000
0001
0000
0000
0000
0000
0000
0000
0000
0100
0000
0000
0000
0010
0000
0000
0000
0110
0000
0000
0000
0000
0000
0000
0000
0001
0000
0000
0000
1000
0000
0000
0000
0100
0000
0000
0000
0020
0000
0000
0000
0000
0000
0000
0000
0130
0000
0010
0000
,
0100
0000
0000
0000
0020
0030
0000
0000
0000
0000
0000
0000
0020
0030
0000
0000
1000
0000
0000
0000
0000
0000
0000
0000
0010
0000
0000
0000
0100
0000
0000
0000
0101
0000
0000
0000
0000
0000
0000
0000
0001
0000
0000
0000
0000
0000
0000
0000
1000
0000
0000
0000
0100
0000
0000
0000
0010
0000
0000
0000
0001
0000
0000
0000
,
0100
0000
0000
0000
0020
0030
0000
0000
0000
0000
0000
0000
0020
0030
0000
0000
0001
0000
0000
0000
0000
0000
0000
0000
1000
0000
0000
0000
0001
0000
0000
0000
1001
0000
0000
0000
0000
0000
0000
0000
0000
0000
0000
0000
1100
0000
0000
0000
0000
0000
0000
0000
0000
0000
0000
0000
0011
0000
0000
0000
0000
0000
0000
0000
,
0010
0000
0000
0000
0200
0300
0000
0000
0000
0000
0000
0000
0200
0300
0000
0000
0001
0000
0000
0000
0000
0000
0000
0000
0100
0000
0000
0000
0001
0000
0000
0000
1001
0000
0000
0000
1000
0000
0000
0000
0010
0000
0000
0000
0000
0000
0000
0000
1000
0000
0000
0000
1100
0000
0000
0000
0000
0000
0000
0000
0000
0000
0000
0000
,
0100
0000
0000
0000
0020
0030
0000
0000
0000
0000
0000
0000
0020
0030
0000
0000
1000
0000
0000
0000
0000
0000
0000
0000
0001
0000
0000
0000
1000
0000
0000
0000
0100
0000
0000
0000
0100
0000
0000
0000
0001
0000
0000
0000
0010
0000
0000
0000
0010
0000
0000
0000
1000
0000
0000
0000
0001
0000
0000
0000
1000
0000
0000
0000
,
0010
0000
0000
0000
0200
0300
0000
0000
0000
0000
0000
0000
0200
0300
0000
0000
0010
0000
0000
0000
0000
0000
0000
0000
0001
0000
0000
0000
1000
0000
0000
0000
1010
0000
0000
0000
0010
0000
0000
0000
0100
0000
0000
0000
0000
0000
0000
0000
0001
0000
0000
0000
1000
0000
0000
0000
0000
0000
0000
0000
0000
0000
0000
0000
,
0100
0000
0000
0000
0020
0030
0000
0000
0000
0000
0000
0000
0020
0030
0000
0000
0100
0000
0000
0000
0000
0000
0000
0000
0010
0000
0000
0000
1000
0000
0000
0000
0110
0000
0000
0000
0000
0000
0000
0000
1000
0000
0000
0000
0000
0000
0000
0000
0001
0000
0000
0000
0000
0000
0000
0000
0010
0000
0000
0000
0000
0000
0000
0000
,
1100
0000
0000
0000
0200
0300
0000
0000
0000
0000
0000
0000
0200
0300
0000
0000
0001
0000
0000
0000
0000
0000
0000
0000
0000
0000
0000
0000
0000
0000
0000
0000
0101
0000
0000
0000
0200
0300
0000
0000
0000
0000
0000
0000
0200
0300
0000
0000
1000
0000
0000
0000
0000
0000
0000
0000
0000
0000
0000
0000
0000
0000
0000
0000
,
1010
0000
0000
0000
0020
0030
0000
0000
0000
0000
0000
0000
0020
0030
0000
0000
0001
0000
0000
0000
0000
0000
0000
0000
0000
0000
0000
0000
0000
0000
0000
0000
0011
0000
0000
0000
0020
0030
0000
0000
0000
0000
0000
0000
0020
0030
0000
0000
1000
0000
0000
0000
0000
0000
0000
0000
0000
0000
0000
0000
0000
0000
0000
0000
,
2002
0000
3003
0000
;
