#TITLE:Still unbreakable;
#SUBTITLE:;
#ARTIST:Des-ROW feat. Vanilla Ice;
#TITLETRANSLIT:;
#SUBTITLETRANSLIT:;
#ARTISTTRANSLIT:;
#GENRE:;
#CREDIT:;
#MUSIC:Still unbreakable.ogg;
#BANNER:banner.png;
#BACKGROUND:background.png;
#CDTITLE:;
#SAMPLESTART:83.814;
#SAMPLELENGTH:19.175;
#SELECTABLE:YES;
#OFFSET:0.000;
#BPMS:0.000=97.000;
#STOPS:53.750=0.619;
#BGCHANGES:;
#FGCHANGES:;

//--------------- dance-single - ----------------
#NOTES:
     dance-single:
     :
     Hard:
     12:
     0,0,0,0,0:
0000
0000
0000
0000
,
0000
0000
0000
0000
0000
0000
0000
0001
,
1000
0000
0001
0000
2002
0000
0000
3003
0000
0000
0001
0100
0001
0000
0000
0000
,
0010
0000
0001
1000
0001
1000
0001
0000
0100
0000
0010
0100
0010
0000
0000
0000
,
1000
0000
0010
1000
0010
1000
0010
0000
0100
0000
0001
0010
0001
0000
0000
0000
,
1000
0000
0100
0010
0100
0010
0100
0000
0220
0000
0330
0000
0001
0000
1000
0000
,
0101
0000
1000
0010
1000
0000
0001
0000
0010
0000
0100
1000
0001
0100
0000
0000
,
0110
0000
1000
0010
1000
0000
0001
0000
0010
0000
0001
1000
0100
0001
0000
0000
,
0100
0000
1000
0100
0010
0000
0001
0100
0001
0000
0101
0000
1000
0010
0000
0000
,
0100
0000
0100
0000
0001
0001
1000
0000
1001
0000
0000
0110
0000
0000
1001
0000
,
0001
0000
0010
0100
0010
0000
0001
0000
0010
0100
1000
0100
0010
0000
0001
0000
,
1000
0000
0010
0100
0010
0000
1000
0000
0100
0010
0001
0000
0110
0000
0000
0000
,
0002
0000
2003
0000
3001
0000
0100
0000
0010
1000
0001
1000
0010
0000
0000
0000
,
1010
0000
0001
0000
1000
0100
1000
0010
0000
0000
0000
0000
0101
0000
2000
0000
,
3000
0000
0001
0010
1000
0000
0010
0001
0010
0000
0011
0000
0000
1000
0001
1000
,
0001
0000
0100
0000
0110
0000
0010
0000
1000
0001
1000
0100
0000
0000
0010
0001
,
0010
0000
0100
0000
1000
0010
1000
0000
0002
0000
2003
0000
3010
0000
0100
0000
,
0001
0001
1000
0000
0010
0000
0000
0100
0000
0000
0010
0000
1000
0100
1000
0100
,
0001
0000
0000
0000
0100
1000
0100
0000
0011
0000
0000
0000
0101
0000
1000
0010
,
1000
0000
0001
0000
0010
0100
0010
0000
1100
0000
0000
0000
0101
0000
1000
0100
,
1000
0000
0000
0010
0100
0010
0100
0000
0110
0000
0001
0000
1001
0000
1000
0100
,
1000
0000
0000
0010
0200
0000
0001
0000
0010
0000
0310
0000
0000
0000
0001
0010
,
0100
0000
0010
0001
0010
0000
0100
1000
0010
0000
0101
0000
0000
0010
1000
0010
,
0100
0000
0001
0000
0011
0000
1000
0100
1000
0000
0001
0000
0000
0100
0010
0100
,
0010
0000
1000
0000
0100
0010
0001
0000
0012
0000
0100
0000
0003
0000
0100
0010
,
0100
0001
0010
1000
0100
0001
1001
0000
,
2000
0000
0010
0000
0010
0000
0000
3001
0000
0000
2200
0000
0000
3300
0000
0000
,
0002
0000
0010
0000
0010
0000
0000
1003
0000
0000
0202
0000
0000
0303
0000
0000
,
1000
0000
0001
0000
1001
0000
0000
0110
0000
0000
2002
0000
3003
0000
0001
0000
,
0010
0100
0010
0000
0001
0000
0100
0010
0100
0000
1000
0000
0000
0000
0100
0000
,
0002
0000
0100
0000
1000
0000
0000
0103
0000
0000
0022
0000
0000
0033
0000
0000
,
2000
0000
0100
0000
0001
0000
0000
3100
0000
0000
2020
0000
0000
3030
0000
0000
,
1000
0000
0001
0000
1001
0000
0000
0110
0000
0000
2002
0000
3003
0000
1000
0000
,
0010
0100
0010
0000
1000
0100
0010
0000
0001
0000
0110
0000
1100
0000
0101
0000
,
1001
0000
1000
0000
0010
0000
0100
0010
0100
0000
0001
0000
0101
0000
1000
0000
,
0100
0000
0010
0001
1000
0000
0010
0100
0010
0000
1000
0000
0001
0100
1000
0100
,
0001
0100
1000
0000
0100
0001
0010
0000
0110
0000
0001
0000
1000
0100
0001
0100
,
1000
0100
0001
0000
0100
1000
0010
0000
0110
0000
0001
0000
0101
0000
1100
0000
,
1001
0000
0001
0000
0010
0000
0100
1000
0001
0000
0100
0000
0110
0000
0000
0000
,
1000
1000
0010
0000
1000
0000
0110
0000
0002
0023
0230
0300
1000
0010
0001
0010
,
1000
0010
0001
0000
0010
1000
0100
0000
0110
0000
1000
0000
0001
0010
1000
0010
,
0001
0010
1000
0000
0010
0000
0001
1000
0001
0000
1001
0000
0110
0000
0000
0000
,
1000
0000
0000
1000
0000
0000
0010
0000
1000
0000
0000
0000
0002
0000
0023
0000
,
2030
3020
0032
0023
0230
0300
1000
0000
,
0001
0000
0000
0001
0000
0000
0100
0000
0001
0000
0000
0000
0110
0000
1000
0000
,
0001
0100
1000
0000
0100
0001
1000
0001
0100
0000
0010
0000
1001
0000
0000
0000
;
