#VERSION:0.83;
#TITLE:Somebody Set Up Us the Bob-omb;
#SUBTITLE:;
#ARTIST:Theory of N;
#TITLETRANSLIT:;
#SUBTITLETRANSLIT:;
#ARTISTTRANSLIT:;
#GENRE:;
#CREDIT:;
#MUSIC:Somebody Set Up Us the Bob-Omb.ogg;
#BANNER:Somebody Set Us Up the Bob-Omb.png;
#BACKGROUND:Somebody Set Us Up the Bob-Omb-bg.png;
#CDTITLE:;
#SAMPLESTART:8.076;
#SAMPLELENGTH:12.692;
#SELECTABLE:YES;
#OFFSET:0.924;
#BPMS:0.000=130.000
,132.000=260.000
,134.000=130.000
,171.500=260.000
,175.000=130.000
,224.000=129.000
,230.000=127.000
,231.000=123.000
,232.000=118.300
,232.750=115.030
,233.500=111.060
,234.250=107.700
,235.000=107.000
,235.500=53.500
;
#STOPS:132.000=0.115
,132.500=0.115
,133.000=0.115
,133.500=0.115
,171.500=0.029
,171.625=0.029
,171.750=0.029
,171.875=0.029
,172.000=0.029
,172.125=0.029
,172.250=0.029
,172.375=0.029
,172.500=0.029
,172.625=0.029
,172.750=0.029
,172.875=0.029
,173.000=0.029
,173.125=0.029
,173.250=0.029
,173.375=0.029
,173.500=0.029
,173.625=0.029
,173.750=0.029
,173.875=0.029
,174.000=0.029
,174.125=0.029
,174.250=0.029
,174.375=0.029
,174.500=0.029
,174.625=0.029
,174.750=0.029
,174.875=0.029
;
#ATTACKS:TIME=38.550:LEN=1.500:MODS=*0.75 35% Tiny :TIME=39.700:LEN=6.930:MODS=*0.03 No Tiny,20% Beat :TIME=46.620:LEN=0.010:MODS=*100 -20 Tiny :TIME=75.699:LEN=1.150:MODS=*0.3 35% Tiny :TIME=76.740:LEN=3.000:MODS=*0.03 No Tiny,*100 20% Beat :TIME=79.860:LEN=0.050:MODS=*100 -20 Tiny
;
#DISPLAYBPM:107.000:130.000;
#BGCHANGES:;
#FGCHANGES:;

//--------------- dance-single - OrangeRight ----------------
#NOTEDATA:;
#STEPSTYPE:dance-single;
#DESCRIPTION:OrangeRight;
#DIFFICULTY:Beginner;
#METER:3;
#RADARVALUES:0.123133,0.154501,0.025858,0.060335,0,100,97,3,7,0,0,0.123133,0.154501,0.025858,0.060335,0,100,97,3,7,0,0;
#NOTES:
0000
0000
0000
0000
,
0000
0000
0000
0000
,
0000
0000
0000
0000
,
0000
0000
0000
0000
,
0000
0000
0000
0000
,
1000
0000
1000
0000
,
0001
0000
0001
0000
,
0100
0000
0010
0000
,
0100
0000
0000
0000
,
0001
0000
0001
0000
,
1000
0000
1000
0000
,
0100
0000
0100
0000
,
0010
0000
0000
0000
,
1001
0000
0000
0000
,
1000
0000
1000
0000
,
0001
0000
0100
0000
,
0001
0000
0001
0000
,
1000
0000
0100
0000
,
1000
0000
0010
0000
,
0100
0000
0001
0000
,
0001
0000
0010
0000
,
0100
0000
1000
0000
,
2000
0000
3000
0000
,
0002
0000
0003
0000
,
2000
0000
3000
0000
,
0002
0000
0003
0000
,
1000
0000
1000
0000
,
0100
0000
0100
0000
,
0010
0000
0010
0000
,
0001
0000
0001
0000
,
0100
0000
0100
0000
,
0010
0000
0010
0000
,
1000
0000
0001
0000
,
1001
0000
0000
0000
,
0001
0000
0001
0000
,
1000
0000
1000
0000
,
0100
0000
0100
0000
,
0010
0000
0100
0000
,
1000
0000
1000
0000
,
0001
0000
0001
0000
,
0100
0000
0100
0000
,
0010
0000
1000
0000
,
0002
0000
0000
0000
,
0000
0000
0000
0003
,
1000
0000
0100
0000
,
0001
0000
0010
0000
,
1000
0000
1000
0000
,
0001
0000
1000
0000
,
0001
0000
0100
0000
,
1000
0000
0010
0000
,
0001
0000
0001
0000
,
1000
0000
0001
0000
,
1000
0000
1000
0000
,
0001
0000
0001
0000
,
0100
0000
0100
0000
,
0010
0000
0010
0000
,
1000
0000
0100
0000
,
0010
0000
0001
0000
,
1000
0000
0000
0000
0000
0000
0000
2002
,
0000
0000
0000
3003
;

//--------------- dance-single - OrangeRight ----------------
#NOTEDATA:;
#STEPSTYPE:dance-single;
#DESCRIPTION:OrangeRight;
#DIFFICULTY:Easy;
#METER:5;
#RADARVALUES:0.203169,0.257501,0.077574,0.396487,0,165,156,9,46,0,0,0.203169,0.257501,0.077574,0.396487,0,165,156,9,46,0,0;
#NOTES:
0000
0000
0000
0000
,
0000
0000
0000
0000
,
0000
0000
0000
0000
,
0000
0000
0000
0000
,
0000
0000
0000
0000
,
1000
0100
1000
0000
,
0001
0100
0001
0000
,
1000
0100
0010
0001
,
1000
0001
1000
0000
,
0001
0100
0001
0000
,
1000
0100
1000
0000
,
0100
0010
0100
0010
,
0001
0000
1000
0000
,
0002
0000
0003
0000
,
2000
3000
0002
0003
,
0100
0001
0200
0300
,
0002
0003
2000
3000
,
0100
1000
0200
0300
,
1000
1000
0001
0001
,
1000
0100
0020
0030
,
0001
0001
1000
1000
,
0010
0100
0002
0003
,
2000
0000
3000
0000
,
0002
0000
0003
0000
,
2000
0000
3000
0000
,
0002
0000
0003
0000
,
2000
3000
0002
0003
,
1000
0010
0100
0001
,
2000
3000
0002
0003
,
1000
0100
0010
0001
,
2002
3003
2002
3003
,
0001
0100
0010
1000
,
2002
3003
2002
3003
,
1000
0001
1001
0000
,
2000
3000
0200
0300
,
0002
0003
0020
0030
,
2000
3000
0002
0003
,
1000
0001
1000
0001
,
1000
0100
2000
3000
,
0001
0100
0002
0003
,
1000
0010
2000
3000
,
0100
0010
0001
1000
,
0002
0003
2000
0000
,
0000
0000
0000
3000
,
1000
0100
1000
0100
,
0010
0001
1000
0000
,
0001
0100
0001
0100
,
0010
1000
0001
0000
,
1000
0100
0010
0100
,
1000
0010
0100
0001
,
0010
0100
1000
0001
,
0100
0010
1000
0001
,
2002
3003
2002
3003
,
1000
0100
0010
0001
,
2002
3003
2002
3003
,
0001
0100
0010
1000
,
0100
0010
0100
1000
,
0001
0100
0010
0100
,
0001
0000
0000
1000
0000
0000
0002
2000
,
0000
0000
0000
3003
;

//--------------- dance-single - OrangeRight ----------------
#NOTEDATA:;
#STEPSTYPE:dance-single;
#DESCRIPTION:OrangeRight;
#DIFFICULTY:Medium;
#METER:10;
#RADARVALUES:0.385405,0.412002,0.215482,0.491299,0.043096,313,288,25,57,0,0,0.385405,0.412002,0.215482,0.491299,0.043096,313,288,25,57,0,0;
#NOTES:
0000
0000
0000
0000
,
0000
0000
0000
0000
,
0000
0000
0000
0000
,
0000
0000
0000
0000
,
0000
0000
0000
0000
,
1000
0001
0100
0001
1000
0000
1000
0000
,
0001
1000
0100
1000
0001
0000
0001
0000
,
1000
0001
0010
0000
0001
1000
0010
0000
,
0100
0001
1000
0001
0010
0000
0010
0000
,
0001
1000
0010
1000
0001
0000
0001
0000
,
1000
0001
0010
0001
1000
0000
1000
0000
,
0001
1000
0010
0000
1000
0001
0010
0000
,
0001
0000
0100
0000
0001
0010
0100
2000
,
0000
0001
0001
3001
,
2001
3100
1002
0103
,
0001
0000
0000
0001
0000
0000
0001
0000
1000
0000
0100
0000
1000
0000
0000
0000
,
1002
0013
2001
3010
,
1000
0000
0000
1000
0000
0000
1000
0000
0001
0000
0100
0000
0001
0000
0000
0000
,
1001
1001
1100
1100
,
1000
0000
0000
0010
0000
0000
0200
0000
0000
0000
0001
0000
0301
0000
0000
0000
,
1001
1001
0101
0101
,
0001
0000
0000
1000
0000
0000
2002
0000
0000
0000
0000
0000
3003
0000
0000
0000
,
2000
3001
0002
1003
,
2000
3001
0002
1003
,
2000
3100
0200
0310
,
0020
0031
0001
1001
,
1000
0010
2000
0000
3001
0010
0002
0000
,
1003
0001
2000
0000
3001
0000
0101
0000
,
0001
0100
0002
0000
1003
0100
2000
0000
,
3001
1000
0002
0000
1003
0000
1010
0000
,
1000
0010
2000
0000
3010
1000
0020
0000
,
1030
0001
0200
0000
0301
0000
0011
0000
,
0001
0010
0200
0000
1300
0010
0200
0000
,
0301
1000
0001
1000
0001
0000
1001
0000
,
2200
0000
3300
0202
0000
0000
0303
0022
,
0000
0000
0033
2020
0000
0000
3030
0000
,
0022
0000
0033
0202
0000
0000
0303
2200
,
0000
3300
0100
0000
0010
0000
0001
0000
,
1000
0010
0100
0001
1000
0000
1000
0000
,
0001
0010
0100
1000
0001
0000
1000
0010
,
0100
0000
0001
0000
1000
0000
0100
0000
1000
0000
0001
0000
0100
0000
0000
0010
,
0000
1000
0001
0000
1000
0000
0001
0000
,
2000
0000
3100
0000
0200
0000
0310
0002
,
0000
0000
0000
1003
,
1000
0010
1000
0010
0100
0001
1000
0002
,
0000
0013
0100
0010
0001
0100
0001
0000
,
1000
0000
0000
0010
0000
0000
0100
0000
0000
0000
0001
0000
0010
0000
0000
0000
,
0002
0000
0000
0000
1003
0000
0000
1000
0000
0000
0001
0000
0100
0000
0010
0000
,
1000
0100
0010
0001
1000
0100
0010
0001
,
1000
0010
0100
0001
0020
0000
0130
0000
,
0100
0000
1000
0000
0010
0000
0100
0000
0010
0000
0000
1000
0000
0000
0001
0000
,
0010
0100
1000
0001
0100
0010
1000
0100
,
1000
0001
0200
0000
0301
1000
0200
0000
,
1300
0001
0020
0000
0031
1000
0001
1000
,
0001
0010
0200
0000
1300
0010
0200
0000
,
0301
0100
0020
0000
1030
0100
1000
0100
,
0010
0001
0200
0000
0310
1000
0200
0000
,
1300
0010
0200
0000
0301
0010
0100
1000
,
0010
0000
0000
0100
0000
0000
0001
0000
0000
0010
0000
0000
0002
0000
2000
0000
,
0000
0000
0000
3003
;

//--------------- dance-single - OrangeRight ----------------
#NOTEDATA:;
#STEPSTYPE:dance-single;
#DESCRIPTION:OrangeRight;
#DIFFICULTY:Hard;
#METER:13;
#RADARVALUES:0.515925,0.540752,0.172386,0.448202,0.499918,419,399,20,52,0,0,0.515925,0.540752,0.172386,0.448202,0.499918,419,399,20,52,0,0;
#NOTES:
0000
0000
0000
0000
,
0000
0000
0000
0000
,
0000
0000
0000
0000
,
0000
0000
0000
0000
,
0000
0000
0000
0000
,
1000
0010
1000
0000
0001
0000
0010
0001
0000
0000
0010
0000
0001
0000
1000
0000
,
0001
0100
0001
0000
1000
0000
0100
1000
0000
0000
0001
0000
1000
0000
0010
0000
,
1000
0010
1000
0000
0001
0000
1000
0100
0000
1000
0000
0001
0100
0000
0001
0000
,
1000
0000
0001
0000
0010
0001
0000
0100
0000
0010
1000
0000
0001
0000
0000
0000
,
1000
0010
1000
0000
0001
0000
0010
0001
0000
0000
0010
0000
0001
0000
1000
0000
,
0001
0100
0001
0000
0010
0000
0100
1000
0000
0000
0001
0000
1000
0000
0010
0000
,
1000
0100
1000
0000
0001
0000
0100
0001
0100
0000
0010
0000
1000
0000
0001
0000
,
1002
0000
0103
0010
1000
0100
0010
0012
,
0000
0000
0000
0000
0100
0000
0000
0000
1003
0000
0000
0000
1000
0001
1000
0001
,
1000
0000
0000
1000
0010
0000
0100
0000
0001
0000
0000
0001
0010
0000
0100
0000
,
1000
0000
0001
1000
0000
1000
0002
0000
0000
0000
0100
0000
0103
0000
0000
0000
,
0001
0000
0000
0001
0010
0000
0100
0000
1000
0000
0000
1000
0010
0000
0100
0000
,
0001
0000
1000
0001
0000
0001
2000
0000
0000
0000
0100
0000
3100
0000
0000
0000
,
1100
0101
0101
1100
,
1000
0000
0010
0100
0000
0100
0001
0000
1000
0000
0001
0000
1000
0000
0000
0000
,
1010
0011
0011
1010
,
1000
0000
0100
0010
0000
0010
0002
0000
0000
0000
0000
0000
1003
0000
0000
0000
,
2000
0010
3002
0010
,
2003
0100
3002
1000
,
0203
0010
0302
1000
,
0023
0100
0031
1001
,
1000
0010
0000
2000
0000
0000
3100
0000
0010
0001
0000
0020
0000
0000
0130
0000
,
1000
0010
0000
0200
0000
0000
0301
0000
1000
0100
0000
0010
0001
0000
1000
0000
,
0001
0010
0000
0002
0000
0000
0103
0000
0010
1000
0000
0020
0000
0000
0130
0000
,
0001
0010
0000
0200
0000
0000
1300
0000
0001
0100
0000
0010
0000
0100
0001
0000
,
1000
0100
0000
0200
0000
0000
0310
0000
0001
0100
0000
0200
0000
0000
0310
0000
,
1000
0001
0000
0002
0000
0000
0103
0000
0010
1000
0000
1000
0001
0000
0100
0000
,
0001
0010
0000
0020
0000
0000
0130
0000
1000
0010
0000
0020
0000
0000
0130
0000
,
0001
0000
0010
0000
1000
0000
0010
0000
0001
0000
0000
0001
1000
0000
0000
0000
,
2100
0000
3001
0102
0000
0000
1003
2001
,
0000
3100
0010
0012
0000
0100
0103
0000
,
0102
0000
1003
2100
0000
3001
1000
1020
,
0000
0130
0001
0010
0100
1000
0001
1000
,
0001
0100
0001
0000
1000
0000
0100
0000
0010
0001
0000
0001
0000
1000
0000
1000
,
0000
0000
0001
0000
0100
0001
0000
2000
0000
0000
3001
0000
0010
0000
1000
0000
,
0010
0000
0001
0000
0100
0000
0010
0000
1000
0000
0100
0000
0001
0000
0100
0010
,
0000
0000
0001
0000
1000
0001
0000
2000
0000
0000
0000
0000
3001
0000
0000
0000
,
2001
0000
0010
0000
3002
0000
0100
2000
,
0000
0000
0000
0000
0000
0000
0000
0000
3003
0000
0000
0000
1000
0000
0001
1000
,
0001
0000
0100
0000
0001
0000
0010
0000
0100
1000
0000
0010
0000
1000
0002
0000
,
0000
0013
1000
0010
0001
0100
0010
1000
,
0100
1000
0000
0002
0000
0000
0023
0000
0000
0000
0130
0000
1000
0000
0001
0000
,
2000
0000
0000
0000
3001
0100
0000
0010
0000
1000
0000
0001
0000
0001
1000
0000
,
0100
1000
0100
0000
0010
0000
0001
0100
0001
0000
0010
0000
0100
1000
0100
0000
,
0010
0000
0001
0000
1000
0000
0010
0100
0000
0000
0100
0001
0000
0100
0000
0001
,
0000
1000
0001
0010
1000
0010
0001
1000
,
0001
1000
0000
0010
0000
0100
0000
0001
0000
0010
0100
0000
1000
0000
0001
0000
,
1000
0010
0000
2000
0000
0000
3100
0000
0010
0001
0000
0020
0000
0000
0130
0000
,
1000
0010
0000
0200
0000
0000
0301
0000
1000
0100
0000
0010
0001
0000
1000
0000
,
0001
0100
0000
0200
0000
0000
0310
0000
1000
0100
0000
0200
0000
0000
0310
0000
,
0001
1000
0000
2000
0000
0000
3001
0000
1000
0010
0000
0100
0000
0001
1000
0000
,
0001
0010
0000
0200
0000
0000
1300
0000
1000
0010
0000
0200
0000
0000
0301
0000
,
0001
1000
0000
0020
0000
0000
0130
0000
0001
0010
0000
0100
1000
0000
0001
0000
,
1000
0001
0000
0020
0000
0000
0031
1000
0000
0200
0000
0000
1300
0000
2002
0000
,
0000
0000
0000
3003
;

//--------------- dance-single - OrangeRight ----------------
#NOTEDATA:;
#STEPSTYPE:dance-single;
#DESCRIPTION:OrangeRight;
#DIFFICULTY:Challenge;
#METER:15;
#RADARVALUES:0.690774,0.772503,0.422345,0.491299,0.948121,561,512,49,57,11,0,0.690774,0.772503,0.422345,0.491299,0.948121,561,512,49,57,11,0;
#NOTES:
0000
0000
0000
0000
,
0000
0000
0000
0000
,
0000
0000
0000
0000
,
0000
0000
0000
0000
,
0000
0000
0000
0000
0000
0000
0000
0000
0000
0000
0000
0000
0000
0000
1000
0100
,
1000
0100
1000
0000
0001
0100
0001
0100
00M0
0100
1000
0000
0001
0000
1000
0010
,
1000
0010
1000
0000
0001
0010
0001
0010
0M00
0010
1000
0000
0001
0000
1000
0001
,
0010
0001
1000
0000
0001
0100
0001
1000
0000
0010
1000
0001
0010
0000
0001
1000
,
0100
1000
0001
0000
0100
0010
0000
1000
0000
0001
0010
0100
1000
0000
0001
0010
,
0001
0010
0001
0000
1000
0010
1000
0010
0M00
0010
0001
0000
1000
0000
0001
0100
,
0001
0100
0001
0000
0100
0010
1000
0100
00M0
0100
0001
0000
0010
0000
0001
1000
,
0010
1000
0001
0000
0100
0000
0001
1000
0001
0100
0000
0001
0010
0100
1000
0000
,
1010
0000
0000
0000
0000
0000
1000
0001
1000
0000
0100
0000
0010
0000
0001
0000
1000
0000
0000
0000
0001
0000
0000
0000
0100
0000
0000
0000
0102
0000
0000
0000
,
0000
0000
1003
0000
0100
0000
0010
0000
0001
0000
0100
0000
0010
1000
0001
0000
,
0201
0000
0000
0301
1000
0000
0100
0000
1200
0000
0000
1300
0001
0000
0100
0000
,
0010
1000
0001
0100
0001
1000
0020
0000
0000
0000
1030
0000
0001
0000
1000
0000
,
1200
0000
0000
1300
0001
0000
0100
0000
0201
0000
0000
0301
1000
0000
0100
0000
,
0010
0001
1000
0100
1000
0001
0200
0000
0000
0000
0301
0000
1000
0100
0000
0000
,
1100
0000
1000
0000
0001
0100
0001
0000
0101
0000
0001
0000
1000
0100
1000
0000
,
0001
1000
0001
0010
0100
0010
0002
0000
0000
0000
1003
0000
0001
0000
0100
0000
,
0101
0000
0001
0000
1000
0100
1000
0000
1100
0000
0100
1000
0010
0100
0001
0000
,
1000
0100
1000
0010
0100
0010
2000
0000
0000
0000
0000
0000
3001
0000
0000
0000
,
2000
0000
0001
0000
0000
0100
0000
0000
3002
0000
1000
0000
0000
0100
0000
0000
,
2003
0000
0100
0000
0000
0001
0000
0000
3002
0000
0100
0000
0000
1000
0000
0000
,
2003
0000
0001
0000
0000
0010
0000
0000
3002
0000
1000
0000
0000
0010
0000
0000
,
1003
0000
0001
0010
0M00
0010
1000
0000
0001
0000
1000
0000
1001
0000
0000
0000
,
1000
0010
0000
2010
0000
0000
3001
0000
0001
0010
0000
0012
0000
0000
1003
0000
,
1000
0100
0000
1200
0000
0000
0310
0000
0001
0100
00M0
0100
1000
0010
0100
0001
,
0010
0001
0000
0012
0000
0000
1003
0000
0010
1000
0000
2010
0000
0000
3001
0000
,
0100
0001
0000
0201
0000
0000
0310
0000
1000
0100
0000
0010
0000
0001
1000
0010
,
1000
0001
0000
0012
0000
0000
0103
0000
0001
1000
0000
2010
0000
0000
3100
0000
,
1000
0001
0000
0201
0000
0000
0301
0000
1000
0100
00M0
0100
0001
1000
0001
0010
,
0100
1000
0000
1200
0000
0000
0310
0000
0010
0001
0000
0201
0000
0000
0310
0000
,
1010
0000
0000
0000
1010
0000
0000
0000
0101
0000
0000
0000
0101
0000
0000
0000
1001
0000
0000
0000
0000
0000
1000
0001
1000
0000
0100
0000
0000
0000
0000
0000
,
1100
0100
0010
0012
0000
0000
1003
1020
,
0000
0130
0001
0021
0000
0031
0100
0001
,
0101
0100
0010
2010
0000
3001
1000
1200
,
0000
0000
0000
0000
0000
0000
0000
0000
0010
0000
0000
0000
0000
0000
0000
0000
1300
0000
0000
0000
0000
0000
1000
0001
1000
0000
0000
0000
0010
0000
0000
0000
,
1000
0100
1000
0000
0001
0100
0001
1000
0010
0100
0000
0001
0000
0010
0000
0200
,
0000
0000
1300
0000
0010
1000
0000
0002
0000
0000
1003
0001
0100
0001
1000
0001
,
0010
0100
1000
0001
0100
0010
0100
0001
0010
0100
1000
0010
0100
0010
0000
2000
,
0000
0000
3001
0000
1000
0001
0000
2002
0000
0000
0000
0000
3003
0000
0000
0000
,
2000
0000
0100
0000
0000
0001
0000
0000
3002
0000
0010
0000
0000
2000
0000
0000
,
0000
0000
0000
0000
0000
0000
0000
0000
0000
3003
0000
0000
0001
0000
1000
0001
,
1000
0000
0200
0000
0010
0000
1300
0000
0001
0100
0000
0010
0000
1000
0002
0000
,
1000
0000
0000
0000
1003
0000
0000
0000
0001
0000
0010
0000
0001
0000
1000
0000
0001
0000
0100
0000
0010
0000
1000
0000
0001
0000
1000
0100
1000
0000
0001
0000
,
0100
0010
0000
2010
0000
0000
3002
0000
0000
0000
0013
0000
0001
0100
0010
2000
,
0000
0000
3001
0000
1000
0100
0000
0001
0000
0100
0000
1000
0000
0010
0100
0001
,
1000
0100
0010
0001
1000
0001
0100
0010
1000
0001
1000
0100
0010
0100
1000
0001
,
0100
0010
1000
0001
0010
0100
0010
0002
0000
0000
1003
0010
0000
0100
0000
0002
,
0000
0000
0000
0000
0103
0000
0000
0000
0001
0000
0010
0000
0100
0000
1000
0000
0001
0000
0100
0000
0000
0000
0010
0000
0000
0000
1000
0010
1000
0000
0000
0000
,
0001
0010
0000
1000
0000
0010
0000
0001
0000
0100
0010
1000
0100
0010
0100
1000
,
0001
0010
0000
0012
0000
0000
1003
0000
1000
0010
0000
2010
0000
0000
3001
0000
,
0001
0100
0000
0201
0000
0000
0310
0000
1000
0100
00M0
0100
0001
0010
0100
1000
,
0010
1000
0000
2010
0000
0000
3001
0000
0010
0001
0000
0012
0000
0000
1003
0000
,
0100
1000
0000
1200
0000
0000
0310
0000
0001
0100
0000
0010
0000
1000
0001
0010
,
0001
1000
0000
2010
0000
0000
3100
0000
1000
0001
0000
0012
0000
0000
0103
0000
,
0001
1000
0000
1200
0000
0000
1300
0000
0001
0100
00M0
0100
1000
0001
1000
0010
,
1000
0100
00M0
0101
0000
0000
0001
0010
0M00
1010
0000
0000
0110
0000
2002
0000
,
0000
0000
0000
3003
;

//--------------- dance-double - OrangeRight ----------------
#NOTEDATA:;
#STEPSTYPE:dance-double;
#DESCRIPTION:OrangeRight;
#DIFFICULTY:Easy;
#METER:6;
#RADARVALUES:0.213019,0.231751,0.034477,0.267198,0,173,169,4,31,0,0,0.213019,0.231751,0.034477,0.267198,0,173,169,4,31,0,0;
#NOTES:
00000000
00000000
00000000
00000000
,
00000000
00000000
00000000
00000000
,
00000000
00000000
00000000
00000000
,
00000000
00000000
00000000
00000000
,
00000000
00000000
00000000
00000000
,
00100000
00010000
00100000
00000000
,
00001000
00010000
00001000
00000000
,
01000000
00010000
00100000
00001000
,
00010000
00000100
00001000
00000000
,
00000010
00001000
00000010
00000000
,
00010000
00001000
00010000
00000000
,
00001000
00100000
00010000
01000000
,
00100000
00000000
01000000
00000000
,
20020000
00000000
30030000
00000000
,
10000000
01000000
10000000
00010000
,
01000000
00000000
01000000
00000000
,
00010000
01000000
00001000
00010000
,
00001000
00000000
00010000
00000000
,
00001000
00010000
00000100
00001000
,
00000010
00000100
00000010
00000000
,
00001000
00000100
00000010
00000001
,
00001000
00000001
00002002
00003003
,
00002000
00003000
00000002
00000003
,
00020000
00030000
00002000
00003000
,
20000000
30000000
00020000
00030000
,
02000000
03000000
00200000
00300000
,
20000000
01000000
00000000
31000000
,
10000000
00010000
01000000
00010000
,
00200000
00010000
00000000
00310000
,
00100000
00001000
00010000
00000100
,
00002000
00000010
00000000
00003010
,
00001000
00000100
00000010
00000001
,
00000200
00000010
00000000
00000310
,
00001001
00000000
00001001
00000000
,
00001000
00000100
00000020
00000030
,
00000001
00000100
00000020
00000030
,
00001000
00000010
00020000
00030000
,
00001000
00100000
00010000
00100000
,
00001000
00010000
00002000
00003000
,
00100000
00010000
00200000
00300000
,
00010000
01000000
00020000
00030000
,
10000000
00010000
10000000
00010000
,
20000000
00000000
30000000
00020000
,
00000000
00000000
00000000
00030000
,
10000000
00010000
00100000
00010000
,
10000000
00100000
01000000
00010000
,
00100000
00001000
00100000
00010000
,
01000000
00001000
00010000
00000100
,
00001000
00000010
00000100
00000001
,
00000010
00000100
00001000
00000001
,
00000200
00000300
00000020
00000030
,
00001000
00000001
00001000
00000001
,
00002000
00000100
00000000
00003100
,
00001000
00000100
00010000
00001000
,
00020000
00001000
00000000
00031000
,
00010000
00001000
00100000
00010000
,
02000000
00100000
00000000
03100000
,
01000000
00010000
10000000
01000000
,
00100000
00000000
00000000
00010000
00000000
00000000
02000000
00200000
,
00000000
00000000
00000000
03300000
;

//--------------- dance-double - OrangeRight ----------------
#NOTEDATA:;
#STEPSTYPE:dance-double;
#DESCRIPTION:OrangeRight;
#DIFFICULTY:Medium;
#METER:10;
#RADARVALUES:0,0,0,0,0;
#NOTES:
00000000
00000000
00000000
00000000
,
00000000
00000000
00000000
00000000
,
00000000
00000000
00000000
00000000
,
00000000
00000000
00000000
00000000
,
00000000
00000000
00000000
00000000
,
10000000
00010000
00100000
00010000
10000000
00000000
00010000
00000000
,
01000000
00001000
00010000
00001000
00100000
00000000
00001000
00000000
,
00010000
00001000
00010000
00000000
00001000
00010000
00001000
00000000
,
00010000
00000100
00001000
00000010
00001000
00000100
00000010
00000000
,
00000001
00001000
00000010
00001000
00000001
00000000
00001000
00000000
,
00000100
00010000
00000100
00001000
00000010
00000000
00001000
00000000
,
00000100
00010000
00001000
00000000
00100000
00001000
00010000
00000000
,
00022000
00000000
00033000
00000000
00001000
00010000
00001000
00200000
,
00000000
00000000
00320000
00000000
20030000
00000000
30010000
10000000
,
00020000
00000000
01030000
00010000
02000000
00000000
03010000
00100000
,
00001000
00000000
00000000
00001000
00000000
00000000
00001000
00000000
00010000
00000000
00000100
00000000
00001000
00000000
00000000
00000000
,
00002000
00000000
00003010
00001000
00000020
00000000
00001030
00000100
,
00010000
00000000
00000000
00010000
00000000
00000000
00010000
00000000
00001000
00000000
00100000
00000000
00010000
00000000
00000000
00000000
,
10010000
10010000
01010000
01010000
,
00010000
01000000
00001000
00010000
00000100
00000000
00001000
00000000
,
00001100
00001100
00001001
00001001
,
00000100
00000000
00000000
00000010
00000000
00000000
00000220
00000000
00000000
00000000
00000000
00000000
00000330
00000000
00000000
00000000
,
00000020
00001030
00002000
00003100
,
00000200
00010300
00020000
00031000
,
00002000
00103000
00200000
00310000
,
00020000
10030000
00010000
10010000
,
10000000
00100000
20000000
00000000
30010000
00100000
00020000
00000000
,
01030000
00010000
02000000
00000000
03010000
01000000
00001000
00000000
,
00010000
00001000
00020000
00000000
00030100
00001000
00000200
00000000
,
00001300
00000010
00002000
00000000
00003001
00000010
00000100
00001000
,
00000001
00000010
00000002
00000000
00001003
00000010
00002000
00000000
,
00003100
00001000
00000200
00000000
00001300
00000100
00010000
00000000
,
00001000
00010000
00002000
00000000
01003000
00010000
02000000
00000000
,
03010000
10000000
00010000
10000000
00010000
00000000
10010000
00000000
,
02020000
00000000
03030000
00220000
00000000
00000000
00330000
00202000
,
00000000
00000000
00303000
00022000
00000000
00000000
00033000
00000000
,
00020200
00000000
00030300
00002200
00000000
00000000
00003300
00002010
,
00000000
00000001
00000100
00003001
,
00001000
00000100
00001000
00000100
00000010
00000000
00000001
00000000
,
00000100
00000010
00000100
00000010
00001000
00000000
00000100
00000000
,
00010000
00001000
00010000
00001000
00100000
00010000
00100000
00010000
,
01000000
00100000
10000000
00010000
20000000
00000000
30010000
00000000
,
20000000
00000000
30010000
00000000
00020000
00000000
20030000
00020000
,
00000000
00000000
30030000
10010000
,
10000000
01000000
10000000
01000000
00100000
00010000
01000000
00000000
,
00010000
01000000
00001000
00010000
00001000
00100000
00010000
00000000
,
01000000
00000000
00000000
00001000
00000000
00000000
00010000
00000000
00000000
00000000
00000100
00000000
00001000
00000000
00000010
00000000
,
00000100
00000000
00000001
00001000
00000001
00001000
00000100
00000010
,
00000001
00000100
00000010
00001000
00000010
00001000
00000100
00010000
,
00000100
00010000
00001000
00100000
00010000
00000000
01000000
00001000
,
00010000
00000000
00001000
00010000
00000100
00001000
00000100
00000000
,
00010000
00001000
00010000
00001000
00010000
00001000
00010000
00000000
,
00001000
00100000
00020000
00000000
00130000
00001000
00020000
00000000
,
00031000
00010000
00000200
00000000
00001300
00000010
00001000
00000010
,
00010000
00000100
00002000
00000000
00003100
00010000
00002000
00000000
,
00013000
00001000
00200000
00000000
00310000
01000000
00010000
01000000
,
00001000
00100000
00020000
00000000
01030000
00001000
00020000
00000000
,
00030100
00001000
00000002
00000000
00000103
00000010
00001000
00000001
,
00001000
00000000
00000000
00000100
00000000
00000000
00000010
00000000
00000000
00000001
00000000
00000000
00000100
00000000
00000220
00000000
,
00000000
00000000
00000000
00000330
;

//--------------- dance-double - OrangeRight ----------------
#NOTEDATA:;
#STEPSTYPE:dance-double;
#DESCRIPTION:OrangeRight;
#DIFFICULTY:Hard;
#METER:13;
#RADARVALUES:0,0,0,0,0;
#NOTES:
00000000
00000000
00000000
00000000
,
00000000
00000000
00000000
00000000
,
00000000
00000000
00000000
00000000
,
00000000
00000000
00000000
00000000
,
00000000
00000000
00000000
00000000
,
00100000
00010000
00100000
00000000
00010000
00000000
01000000
00001000
00000000
00000000
00010000
00000000
00000100
00000000
00001000
00000000
,
00000010
00001000
00000010
00000000
00001000
00000000
00000100
00010000
00000000
00000000
00001000
00000000
01000000
00000000
00010000
00000000
,
00100000
01000000
00100000
00000000
00010000
00000000
10000000
00100000
00000000
01000000
00000000
00010000
00100000
00000000
00001000
00000000
,
00010000
00000000
00000100
00000000
00001000
00000010
00000000
00010000
00000000
00000100
00001000
00000000
00000010
00000000
00000000
00000000
,
00001000
00000100
00001000
00000000
00000010
00000000
00010000
00001000
00000000
00000000
00010000
00000000
00001000
00000000
00100000
00000000
,
00010000
01000000
00010000
00000000
10000000
00000000
00100000
01000000
00000000
00000000
00010000
00000000
00100000
00000000
00010000
00000000
,
10000000
00100000
10000000
00000000
00010000
00000000
00100000
00010000
00100000
00000000
00010000
00000000
10000000
00000000
00010000
00000000
,
20010000
00000000
31000000
00100000
00010000
01000000
00001000
00012000
,
00000000
00000000
00000000
00000000
00010000
00000000
00000000
00000000
00013000
00000000
00000000
00000000
00010000
00001000
00010000
00001000
,
00020000
00000000
00000000
00001000
00000000
00000000
01000000
00000000
00032000
00000000
00000000
00010000
00000000
00000000
00000100
00000000
,
00013000
00000000
00001000
00100000
00000000
00100000
00010000
00000000
01000000
00000000
00001000
00000000
00010000
00000000
00000000
00000000
,
00002000
00000000
00000000
00010000
00000000
00000000
00000010
00000000
00023000
00000000
00000000
00001000
00000000
00000000
00100000
00000000
,
00031000
00000000
00010000
00000100
00000000
00000100
00001000
00000000
00000010
00000000
00000100
00000000
00000001
00000000
00000000
00000000
,
00000101
00001010
00010100
00101000
,
00100000
00000000
00010000
01000000
00000000
01000000
00100000
00000000
10000000
00000000
01000000
00000000
10000000
00000000
00000000
00000000
,
11000000
00110000
01001000
00010010
,
00000010
00000000
00001000
00000100
00000000
00000100
00020000
00000000
00000000
00000000
00000000
00000000
00031000
00000000
00000000
00000000
,
00002000
00100000
00023000
00000010
,
00032000
01000000
00023000
00000100
,
00032000
00000100
00023000
01000000
,
00032000
00000010
00013000
00011000
,
00001000
00100000
00000000
00020000
00000000
00000000
00130000
00000000
00100000
00001000
00000000
00020000
00000000
00000000
00031000
00000000
,
00010000
00000100
00000000
00002000
00000000
00000000
00003100
00000000
00001000
00000100
00000000
00000100
00000010
00000000
00000001
00000000
,
00001000
00000010
00000000
00000020
00000000
00000000
00000130
00000000
00000100
00000001
00000000
00000002
00000000
00000000
00001003
00000000
,
00001000
00000100
00000000
00000200
00000000
00000000
00010300
00000000
00010000
00001000
00000000
00001000
00000000
00010000
00001000
00000000
,
00010000
00000010
00000000
00002000
00000000
00000000
00003010
00000000
00000010
00010000
00000000
00002000
00000000
00000000
00013000
00000000
,
00001000
01000000
00000000
00020000
00000000
00000000
01030000
00000000
00010000
01000000
00000000
01000000
00100000
00000000
10000000
00000000
,
00010000
00100000
00000000
00200000
00000000
00000000
01300000
00000000
01000000
10000000
00000000
20000000
00000000
00000000
30010000
00000000
,
10000000
00000000
01000000
00000000
00010000
00000000
01000000
00000000
10000000
00000000
00000000
10000000
00010000
00000000
00000000
00000000
,
10020000
00000000
01030000
01020000
00000000
00000000
00130000
00102000
,
00000000
00013000
00001000
00021000
00000000
00001000
00031000
00000000
,
00021000
00000000
00030010
00010020
00000000
00001030
00000010
00002010
,
00000000
00000001
00000100
00003001
,
00000001
00000100
00000010
00001000
00000100
00000001
00000100
00001000
,
00000010
00010000
00001000
00100000
00010000
01000000
00100000
10000000
,
01000000
00010000
01000000
00100000
01000000
10000000
00100000
01000000
,
00010000
00000000
00100000
00000000
00001000
00010000
00000000
00002000
00000000
00000000
00000000
00000000
00013000
00000000
00000000
00000000
,
00020000
00000000
01000000
00000000
00032000
00000000
00000010
00020000
,
00000000
00000000
00000000
00000000
00000000
00033000
00011000
00000000
,
00001000
00200000
00000000
00310000
01000000
00010000
00100000
00001000
,
00010000
00000100
00001000
00000010
00000001
00000010
00001000
00000100
,
00000010
00000000
00000000
00000001
00000000
00000000
00000200
00000000
00000000
00000000
00000310
00000000
00001000
00000000
00000100
00000000
,
00020000
00000000
00031000
00010000
00100000
00010000
00001000
00100000
,
00001000
00010000
00001000
00000000
00100000
00000000
00010000
01000000
00010000
00000000
00100000
00000000
00001000
00010000
00001000
00000000
,
00010000
00000000
00000100
00000000
00001000
00000000
00000010
00000100
00000000
00000000
00000100
00000001
00000000
00000100
00000000
00000001
,
00000000
00001000
00000100
00000001
00000100
00001000
00000010
00010000
,
00001000
00010000
00000000
00001000
00000000
00010000
00000000
00001000
00000000
00010000
00001000
00000000
00100000
00000000
00010000
00000000
,
01000000
00010000
00000000
00020000
00000000
00000000
00130000
00000000
00100000
00001000
00000000
00002000
00000000
00000000
00013000
00000000
,
00010000
00000100
00000000
00000200
00000000
00000000
00001300
00000000
00001000
00000010
00000000
00000010
00000100
00000000
00000010
00000000
,
00001000
00000100
00000000
00002000
00000000
00000000
00003001
00000000
00001000
00000010
00000000
00020000
00000000
00000000
00031000
00000000
,
00010000
00001000
00000000
00200000
00000000
00000000
00310000
00000000
00010000
01000000
00000000
00100000
00000000
10000000
00010000
00000000
,
10000000
01000000
00000000
00200000
00000000
00000000
00310000
00000000
01000000
00001000
00000000
00020000
00000000
00000000
00030100
00000000
,
00001000
00000010
00000000
00000200
00000000
00000000
00000301
00000000
00001000
00000001
00000000
00000001
00001000
00000000
00000100
00000000
,
00000010
00000001
00000000
00000100
00000000
00000000
00000010
00001000
00000000
00000100
00000000
00000000
00000110
00000000
00002002
00000000
,
00000000
00000000
00000000
00003003
;

//--------------- dance-double - OrangeRight ----------------
#NOTEDATA:;
#STEPSTYPE:dance-double;
#DESCRIPTION:OrangeRight;
#DIFFICULTY:Challenge;
#METER:15;
#RADARVALUES:0.683386,0.772503,0.456822,0.499918,0.913643,555,502,53,58,2,0,0.683386,0.772503,0.456822,0.499918,0.913643,555,502,53,58,2,0;
#NOTES:
00000000
00000000
00000000
00000000
,
00000000
00000000
00000000
00000000
,
00000000
00000000
00000000
00000000
,
00000000
00000000
00000000
00000000
,
00000000
00000000
00000000
00000000
00000000
00000000
00000000
00000000
00000000
00000000
00000000
00000000
00000000
00000000
00100000
00010000
,
00100000
00010000
00100000
00000000
00001000
00010000
00000100
00001000
00000000
00001000
00000010
00000000
00010000
00000000
00000010
00001000
,
00000010
00001000
00000010
00000000
00010000
00001000
01000000
00010000
00000000
00010000
00100000
00000000
00001000
00000000
00100000
00010000
,
00100000
00010000
10000000
00000000
00100000
10000000
00100000
10000000
00000000
10000000
01000000
10000000
01000000
00000000
01000000
00100000
,
00010000
01000000
00001000
00000000
00001000
00100000
00000000
00010000
00000000
01000000
00010000
01000000
00000000
00000000
00010000
00100000
,
00010000
00100000
00010000
00000000
01000000
00010000
01000000
00001000
00000000
00001000
00010000
00000000
00000100
00000000
00001000
00000010
,
00001000
00000010
00001000
00000000
00000010
00010000
00001000
00100000
00000000
00100000
00010000
00000000
01000000
00000000
00010000
01000000
,
00010000
01000000
00010000
00000000
01000000
00000000
00001000
00010000
00001000
00010000
00000000
00000010
00001000
00000010
00001000
00000000
,
00001001
00000000
00000000
00000000
00000000
00000000
00001000
00000100
00001000
00000000
00000010
00000000
00000100
00000000
00000001
00000000
00001000
00000000
00000000
00000000
00000001
00000000
00000000
00000000
00001000
00000000
00000000
00000000
00002001
00000000
00000000
00000000
,
00000000
00000000
00000000
00000000
00000100
00000000
00000000
00000000
00000010
00000000
00000000
00000000
00003001
00001000
00000001
00000000
,
00000201
00000000
00000000
00000301
00001000
00000000
00000100
00000000
00001200
00000000
00000000
00001300
00000001
00000000
00000100
00000000
,
00000010
00001000
00000100
00010000
00000100
00001000
00000020
00000000
00000000
00000000
00001000
00000000
00001030
00000000
00000100
00000000
,
00002100
00000000
00000000
00003100
00010000
00000000
00001000
00000000
00201000
00000000
00000000
00310000
01000000
00000000
00100000
00000000
,
10000000
01000000
10000000
00010000
01000000
00010000
20000000
00000000
00000000
00000000
00010000
00000000
30010000
10000000
00000000
00000000
,
10010000
00010000
01010000
01000000
01001000
00001000
00011000
00010000
,
00000100
00010000
00001000
00100000
00001000
00010000
00000200
00000000
00000000
00000000
00001000
00000000
00001300
00000000
00000001
00000000
,
00001001
00001000
00001010
00000010
00010010
00010000
00011000
00001000
,
00100000
00001000
00010000
00000100
00010000
00001000
00200000
00000000
00000000
00000000
00000000
00000000
00301000
00000000
00000000
00000000
,
00002000
00000000
00010000
00000000
00000000
00100000
00000000
00000000
00023000
00000000
00001000
00000000
00000000
00000010
00000000
00000000
,
00032000
00000000
01000000
00000000
00000000
00010000
00000000
00000000
00023000
00000000
00000100
00000000
00000000
00001000
00000000
00000000
,
00030200
00000000
00001000
00000000
00000000
00010000
00000000
00000000
00002300
00000000
00000001
00000000
00000000
00000100
00000000
00000000
,
00003001
00000000
00001000
00000010
00000000
00000100
00000001
00000000
00001000
00000000
00000100
00000010
00000002
00000000
00000000
00000000
,
00001003
00000010
00000000
00002010
00000000
00000000
00003001
00000000
00000001
00000010
00000000
00000012
00000000
00000000
00001003
00000000
,
00001000
00000100
00000000
00001200
00000000
00000000
00010300
00000000
00000100
00010000
00000000
00010000
00001000
00100000
00010000
10000000
,
00010000
00100000
00000000
00120000
00000000
00000000
10030000
00000000
10000000
00100000
00000000
20100000
00000000
00000000
30010000
00000000
,
00010000
01000000
00000000
02010000
00000000
00000000
03001000
00000000
00010000
00001000
00000000
00100000
00000000
00010000
01000000
00001000
,
00010000
00000100
00000000
00001200
00000000
00000000
00010300
00000000
00000100
00001000
00000000
00001020
00000000
00000000
00000130
00000000
,
00000100
00000001
00000000
00002001
00000000
00000000
00003100
00000000
00001000
00000100
00000000
00010000
00001000
00100000
00001000
00010000
,
00001000
01000000
00000000
02010000
00000000
00000000
03001000
00000000
01000000
00010000
00000000
00210000
00000000
00000000
01300000
00000000
,
11000000
00000000
00000000
00000000
11000000
00000000
00000000
00000000
00110000
00000000
00000000
00000000
00110000
00000000
00000000
00000000
10010000
00000000
00000000
00000000
00000000
00000000
10000000
00010000
10000000
00000000
00010000
00000000
00000000
00000000
00000000
00000000
,
10010000
00010000
00100000
00102000
00000000
00000000
00013000
00010200
,
00000000
00001300
00000010
00000210
00000000
00000001
00000301
00001000
,
00001001
00001000
00000010
00020010
00000000
00031000
00100000
00120000
,
00000000
00000000
00000000
00000000
01030000
00000000
00000000
00000000
00100000
00000000
00000000
00000000
10000000
00000000
00000000
00000000
01000000
00000000
00000000
00000000
00100000
00000000
00010000
10000000
00010000
00000000
00000000
00000000
01000000
00000000
00000000
00000000
,
00010000
00000000
00100000
00000000
00001000
00000000
00010000
00000000
00000100
00001000
00000000
00000010
00000000
00010000
00000000
00002000
,
00000000
00000000
00103000
00000000
00001000
00010000
00000000
00000020
00000000
00000000
00001030
00000100
00000010
00000100
00010000
00001000
,
00100000
00010000
01000000
00100000
01000000
00010000
00100000
01000000
10000000
00100000
01000000
00010000
00100000
00001000
00000000
00020000
,
00000000
00000000
00031000
00000000
00010000
00001000
00000000
00022000
00000000
00000000
00000000
00000000
00033000
00000000
00000000
00000000
,
00002000
00000000
00100000
00000000
00000000
00010000
00000000
00000000
00023000
00000000
00000100
00000000
00000000
00002000
00000000
00000000
,
00000000
00000000
00000000
00000000
00000000
00000000
00000000
00000000
00000000
00000000
00033000
00000000
00011000
00000000
00001000
00100000
,
00010000
00000000
02000000
00000000
00100000
00000000
03010000
00000000
00100000
01000000
00000000
10000000
00000000
00100000
02000000
00000000
,
00000000
00000000
03010000
00000000
01000000
00010000
00100000
01000000
00100000
00010000
01000000
00001000
00010000
00001000
00100000
00001000
,
00010000
00000100
00000000
00002100
00000000
00000000
00003020
00000000
00000000
00000000
00000031
00000000
00000010
00001000
00000100
00000020
,
00000000
00000000
00000031
00000000
00000010
00000001
00000000
00000100
00000000
00001000
00000000
00000100
00000000
00000010
00001000
00000100
,
00010000
00001000
00100000
00010000
01000000
00001000
00010000
00000100
00001000
00000010
00010000
00001000
00100000
00010000
01000000
00001000
,
00010000
00000100
00001000
00000010
00000100
00000001
00001000
00000200
00000000
00000000
00000310
00000001
00000000
00001000
00000000
00000020
,
00000000
00000000
00000000
00000000
00000130
00000000
00000000
00000000
00000010
00000000
00001000
00000000
00000100
00000000
00010000
00000000
00001000
00000000
00100000
00000000
00000000
00000000
00010000
00000000
00000000
00000000
01000000
00010000
01000000
00000000
00000000
00000000
,
00010000
00100000
00000000
01000000
00000000
10000000
00000000
00100000
00000000
01000000
00010000
00100000
00001000
00100000
00010000
01000000
,
00001000
00010000
00000000
00010200
00000000
00000000
00001300
00000000
00000100
00010000
00000000
00012000
00000000
00000000
00013000
00000000
,
00010000
00001000
00000000
02001000
00000000
00000000
03010000
00000000
01000000
00010000
00000000
00010000
00100000
00001000
00010000
00000100
,
00010000
00001000
00000000
02001000
00000000
00000000
03010000
00000000
01000000
00001000
00000000
00021000
00000000
00000000
00031000
00000000
,
00001000
00010000
00000000
00010200
00000000
00000000
00001300
00000000
00000100
00001000
00000000
00000010
00000000
00000100
00000001
00001000
,
00000100
00000010
00000000
00000012
00000000
00000000
00000103
00000000
00000100
00000010
00000000
00002010
00000000
00000000
00003100
00000000
,
00000100
00010000
00000000
00012000
00000000
00000000
00103000
00000000
00100000
00010000
00000000
01000000
00100000
10000000
01000000
00100000
,
00010000
01000000
00M00000
11000000
00000000
00000000
10000000
00100000
0M000000
00110000
00000000
00000000
01100000
00000000
20020000
00000000
,
00000000
00000000
00000000
30030000
;
