#TITLE:シリウスの輝きのように;
#SUBTITLE:;
#ARTIST:シリウス;
#TITLETRANSLIT:Sirius no Kagayaki no you ni;
#SUBTITLETRANSLIT:;
#ARTISTTRANSLIT:Sirius;
#GENRE:IDOL J-POP;
#CREDIT:;
#BANNER:Sirius no Kagayaki no you ni.png;
#BACKGROUND:Sirius no Kagayaki no you ni-bg.png;
#LYRICSPATH:;
#CDTITLE:cdtitle.png;
#MUSIC:Sirius no Kagayaki no you ni.ogg;
#OFFSET:0.000000;
#SAMPLESTART:72.816002;
#SAMPLELENGTH:15.000000;
#SELECTABLE:YES;
#BPMS:0.000000=158.000000
,171.000000=200.000000
;
#STOPS:40.000000=1.899000
;
#BGCHANGES:0.000=Sirius no Kagayaki no you ni.avi=1.000=0=0=0=StretchNoLoop==CrossFade_Fastest==,
99999=-nosongbg-=1.000=0=0=0 // don't automatically add -songbackground-
;
#KEYSOUNDS:;
#ATTACKS:;

//---------------dance-single - Daff_4K----------------
#NOTES:
     dance-single:
     Daff_4K:
     Beginner:
     4:
     0.148293,0.208700,0.078508,0.000000,0.000000,119.000000,110.000000,9.000000,0.000000,0.000000,0.000000,0.148293,0.208700,0.078508,0.000000,0.000000,119.000000,110.000000,9.000000,0.000000,0.000000,0.000000:
// measure 0
0000
0000
0000
0000
,  // measure 1
0000
0000
0000
0000
,  // measure 2
0000
0000
0000
0000
,  // measure 3
0000
0000
0000
0000
,  // measure 4
0000
0000
0000
0000
,  // measure 5
0000
0000
0000
0000
,  // measure 6
1000
0000
0000
0000
,  // measure 7
0000
0000
0000
0000
,  // measure 8
0001
0000
0000
0000
,  // measure 9
0000
0000
0000
0000
,  // measure 10
1001
0000
0000
1000
,  // measure 11
0000
0100
0000
1000
,  // measure 12
0000
0000
0000
0001
,  // measure 13
0000
0100
0000
0001
,  // measure 14
0000
0000
0000
1000
,  // measure 15
0000
0010
0000
1000
,  // measure 16
0000
0000
0000
0001
,  // measure 17
0000
0010
0000
0001
,  // measure 18
0000
0000
0000
1000
,  // measure 19
0000
0000
0000
0010
,  // measure 20
0000
0000
0000
1000
,  // measure 21
0000
0100
0000
0010
,  // measure 22
0000
0000
0000
0001
,  // measure 23
0001
0000
0000
1000
,  // measure 24
1000
0000
0000
0010
,  // measure 25
0000
0000
0000
0100
,  // measure 26
0000
0100
0000
0001
,  // measure 27
0000
0000
0000
0010
,  // measure 28
0000
0000
0000
0001
,  // measure 29
0000
0100
0000
0010
,  // measure 30
0000
0000
0000
1000
,  // measure 31
1000
0000
0000
0001
,  // measure 32
0001
0000
0000
0010
,  // measure 33
0000
0100
0000
0010
,  // measure 34
0000
0100
0000
0010
,  // measure 35
0000
0000
0000
1001
,  // measure 36
0000
0000
0000
1000
,  // measure 37
0000
0001
0000
1000
,  // measure 38
0000
0001
0000
0000
,  // measure 39
0000
0000
0000
0010
,  // measure 40
0010
0010
0000
0100
,  // measure 41
0000
0000
0000
1000
,  // measure 42
0000
0001
0000
0000
,  // measure 43
0000
0000
0000
0100
,  // measure 44
0000
0000
0000
0010
,  // measure 45
0000
0000
0000
1000
,  // measure 46
0000
0001
0000
1001
,  // measure 47
0000
0000
0000
1001
,  // measure 48
0000
0000
0000
1000
,  // measure 49
0000
0100
0000
0010
,  // measure 50
0000
0000
0000
0001
,  // measure 51
0000
1000
0000
0010
,  // measure 52
0000
0000
0000
0100
,  // measure 53
0000
0000
0000
0001
,  // measure 54
0000
0000
0000
1000
,  // measure 55
0000
0001
0000
1001
,  // measure 56
0000
0000
0000
1000
,  // measure 57
0000
0100
0000
0110
,  // measure 58
0000
0000
0000
0010
,  // measure 59
0000
0001
0000
1000
,  // measure 60
0000
1000
0000
0001
,  // measure 61
0000
0001
0000
0100
,  // measure 62
0000
0010
0000
0100
,  // measure 63
0000
0000
0000
1001
,  // measure 64
0000
0000
0000
0001
,  // measure 65
0000
0100
0000
0010
,  // measure 66
0000
0000
0000
1000
,  // measure 67
0000
0001
0000
0010
,  // measure 68
0000
0010
0000
0100
,  // measure 69
0000
0100
0000
1000
,  // measure 70
0000
0000
0000
0001
,  // measure 71
0000
1000
0000
1001
,  // measure 72
0000
0000
0000
0001
,  // measure 73
0000
0100
0000
0010
,  // measure 74
0000
1000
0000
0100
,  // measure 75
0000
0010
0000
0001
,  // measure 76
0000
0001
0000
1000
,  // measure 77
0000
1000
0000
0010
,  // measure 78
0000
0100
0000
0001
,  // measure 79
0000
1000
0000
1001
;

//---------------dance-single - Daff_4K----------------
#NOTES:
     dance-single:
     Daff_4K:
     Easy:
     7:
     0.287863,0.459272,0.226801,0.270416,0.000000,231.000000,205.000000,26.000000,31.000000,0.000000,0.000000,0.287863,0.459272,0.226801,0.270416,0.000000,231.000000,205.000000,26.000000,31.000000,0.000000,0.000000:
// measure 0
0000
0000
0000
0000
,  // measure 1
0000
0000
0000
0000
,  // measure 2
0000
0000
0000
0000
,  // measure 3
0000
0000
0000
0000
,  // measure 4
0000
0000
0000
0000
,  // measure 5
0000
0000
0000
0000
,  // measure 6
2000
0000
0000
0000
,  // measure 7
3002
0000
0000
0000
,  // measure 8
0203
0000
0000
0000
,  // measure 9
0320
0000
1030
0001
,  // measure 10
1001
0000
0000
1000
,  // measure 11
0100
1000
0000
0001
,  // measure 12
1000
0001
0000
1000
,  // measure 13
0010
0100
0010
1000
,  // measure 14
1000
0100
0010
0001
,  // measure 15
0100
0001
0000
1000
,  // measure 16
0001
1000
0000
1001
,  // measure 17
0000
0110
0000
1001
,  // measure 18
0000
0001
1000
0002
,  // measure 19
0000
0203
0000
0310
,  // measure 20
1000
0002
0003
1000
,  // measure 21
0100
0010
0001
0200
,  // measure 22
0000
0310
1000
0001
,  // measure 23
0010
0011
0000
1000
,  // measure 24
0010
1010
0000
1000
,  // measure 25
0001
0010
0100
1000
,  // measure 26
1001
0001
1001
2000
,  // measure 27
0000
3200
0000
0310
,  // measure 28
0001
2000
3000
0001
,  // measure 29
0100
0010
1000
0200
,  // measure 30
0000
0310
0001
1000
,  // measure 31
0010
1010
0000
0001
,  // measure 32
0010
0011
0000
0001
,  // measure 33
1001
1000
1010
0010
,  // measure 34
0110
0100
0001
2002
,  // measure 35
0000
0000
0000
0000
3003
0000
0000
0100
,  // measure 36
0000
0010
0000
0110
0000
0000
2000
0000
,  // measure 37
3100
0002
0103
2000
,  // measure 38
3010
0002
0013
1000
,  // measure 39
0001
0010
0100
0110
,  // measure 40
1001
0001
1000
0001
,  // measure 41
0010
1000
0010
0001
,  // measure 42
1000
2002
0000
3003
,  // measure 43
0000
0000
0000
0001
,  // measure 44
0100
0001
0000
1000
,  // measure 45
0100
1000
0000
0020
,  // measure 46
0000
0100
0000
0200
,  // measure 47
0000
0000
0330
1001
,  // measure 48
0000
1000
0000
0010
,  // measure 49
1000
0001
0000
0020
,  // measure 50
0000
0100
0000
0001
,  // measure 51
0000
0130
0000
1000
,  // measure 52
0000
0001
0000
0010
,  // measure 53
0001
1000
0000
0020
,  // measure 54
0000
0130
0000
0002
,  // measure 55
0000
1003
0000
0001
,  // measure 56
0000
0010
0000
0100
,  // measure 57
0010
0001
0000
1000
,  // measure 58
0000
0010
0000
0100
,  // measure 59
0010
1000
0000
0001
,  // measure 60
0010
0100
0000
1000
,  // measure 61
0010
0100
0000
1001
,  // measure 62
0000
0110
0000
2002
,  // measure 63
0000
0000
3003
0001
,  // measure 64
0100
0001
0100
0010
,  // measure 65
1000
0010
1000
0200
,  // measure 66
0000
0010
0000
1300
,  // measure 67
0000
0001
0000
1000
,  // measure 68
0100
1000
0100
0010
,  // measure 69
0001
0010
0001
0200
,  // measure 70
0000
0310
0000
1001
,  // measure 71
0000
0110
0000
1001
,  // measure 72
0000
1000
0000
0100
,  // measure 73
0010
0100
0000
0001
,  // measure 74
0000
0100
0000
1000
,  // measure 75
0000
0001
0000
0100
,  // measure 76
0010
0100
0010
1000
,  // measure 77
0001
1000
0001
0010
,  // measure 78
0000
0100
0000
1000
,  // measure 79
0001
1000
0001
2002
,  // measure 80
0000
0000
0000
0000
,  // measure 81
3003
0000
0000
0000
;

//---------------dance-single - Daff_4K----------------
#NOTES:
     dance-single:
     Daff_4K:
     Medium:
     10:
     0.397525,0.494600,0.348924,0.479771,0.004362,319.000000,279.000000,40.000000,55.000000,0.000000,0.000000,0.397525,0.494600,0.348924,0.479771,0.004362,319.000000,279.000000,40.000000,55.000000,0.000000,0.000000:
// measure 0
0000
0000
0000
0000
,  // measure 1
0000
0000
0000
0000
,  // measure 2
0000
0000
0000
0000
,  // measure 3
0000
0000
0000
0000
,  // measure 4
0000
0000
0000
0000
,  // measure 5
0000
0000
0000
0000
,  // measure 6
2020
0000
0000
0030
,  // measure 7
0200
0000
0000
3300
,  // measure 8
0022
0000
0000
0030
,  // measure 9
0200
0000
0000
0303
,  // measure 10
1001
1000
0001
2000
,  // measure 11
0100
0000
3002
0000
0103
0010
0000
0100
,  // measure 12
0000
0001
1000
0000
0001
0000
0010
0000
,  // measure 13
0110
0000
0100
0000
1000
0002
0000
0203
,  // measure 14
0000
0320
0000
1030
0001
1000
0002
0000
,  // measure 15
0100
0000
2003
0000
3100
0010
0000
0100
,  // measure 16
0000
1000
0001
0000
1000
0000
0010
0100
,  // measure 17
0000
0010
0100
0000
0001
1000
0000
0001
,  // measure 18
1000
0000
0100
0010
0100
0000
2000
0000
,  // measure 19
0010
3200
0010
1300
,  // measure 20
0001
0200
0000
0000
0310
0000
1000
0000
,  // measure 21
0001
1000
0010
0200
,  // measure 22
0010
0301
1000
1100
,  // measure 23
0100
0020
0000
0000
0031
0000
1001
0000
,  // measure 24
1000
0020
0000
0000
0130
0000
0001
0000
,  // measure 25
0010
1000
0010
0001
,  // measure 26
0101
1000
1100
0002
,  // measure 27
0010
0203
0010
0301
,  // measure 28
1000
0200
0000
0000
0310
0000
0001
0000
,  // measure 29
1000
0001
0010
0200
,  // measure 30
0010
1300
0001
0101
,  // measure 31
0100
0020
0000
0000
1030
0000
1001
0000
,  // measure 32
0001
0020
0000
0000
0130
0000
1000
0000
,  // measure 33
1010
0001
0011
1000
,  // measure 34
0100
0000
0001
0000
0100
0000
1000
0020
,  // measure 35
0000
0100
0000
0100
0000
0130
0000
0001
,  // measure 36
1000
0001
0000
2002
0000
3003
1000
0000
,  // measure 37
1100
0001
0101
1000
,  // measure 38
1010
0001
0011
1000
,  // measure 39
0001
0010
0100
0110
,  // measure 40
0110
0000
0000
0000
1001
0000
0000
1001
0000
0000
0000
0000
1000
0000
0000
0000
,  // measure 41
0001
0010
0100
1001
,  // measure 42
0110
2002
0000
3003
,  // measure 43
0000
0000
0000
1000
,  // measure 44
0100
1000
0100
0001
,  // measure 45
0100
0001
0100
1000
,  // measure 46
0001
0100
0010
2002
,  // measure 47
0000
0000
3003
1000
,  // measure 48
0100
0001
0100
1000
,  // measure 49
0001
0100
0010
2000
,  // measure 50
3200
0320
0032
0103
,  // measure 51
0010
1000
0000
0001
1000
0000
0001
0000
,  // measure 52
0100
1000
0100
0001
,  // measure 53
1000
0100
0010
0002
,  // measure 54
0203
0320
1030
0220
,  // measure 55
0330
2002
3003
0001
,  // measure 56
1000
0100
0001
0100
,  // measure 57
0020
0000
0031
1000
,  // measure 58
0001
0100
1000
0100
,  // measure 59
0010
1000
0001
1000
,  // measure 60
1100
0100
0110
0010
,  // measure 61
0011
0001
1000
1001
,  // measure 62
0000
0110
0000
0000
1001
0000
2002
0000
,  // measure 63
0000
0000
3003
0001
,  // measure 64
0100
1000
0100
0001
,  // measure 65
0010
1000
0010
0002
,  // measure 66
2003
3020
0230
0301
,  // measure 67
0010
0100
0000
0010
0100
0000
1000
0000
,  // measure 68
0100
0001
0100
1000
,  // measure 69
0010
0001
0010
2000
,  // measure 70
3002
0023
0230
1300
,  // measure 71
0001
1000
0000
0010
0100
0000
0010
0000
,  // measure 72
1000
0100
0001
0100
,  // measure 73
1000
0010
0100
0001
,  // measure 74
0010
1000
0010
0001
,  // measure 75
0100
0010
1000
0001
,  // measure 76
0011
0010
0110
0100
,  // measure 77
1100
1000
1001
0101
,  // measure 78
0000
1010
0000
0000
1000
0001
0000
0000
,  // measure 79
0010
1000
0100
0002
,  // measure 80
0000
0000
0000
0000
,  // measure 81
0003
0000
0000
0000
;

//---------------dance-single - Daff_4K----------------
#NOTES:
     dance-single:
     Daff_4K:
     Hard:
     13:
     0.598156,0.635915,0.471048,0.610618,0.061062,480.000000,426.000000,54.000000,70.000000,0.000000,0.000000,0.598156,0.635915,0.471048,0.610618,0.061062,480.000000,426.000000,54.000000,70.000000,0.000000,0.000000:
// measure 0
0000
0000
0000
0000
,  // measure 1
0000
0000
0000
0000
,  // measure 2
0000
0000
0000
0000
,  // measure 3
0000
0000
0000
0000
,  // measure 4
0000
0000
0000
0000
,  // measure 5
0000
0000
0000
0000
,  // measure 6
2020
0000
0000
3030
,  // measure 7
2200
0000
0000
3300
,  // measure 8
0022
0000
0000
0033
,  // measure 9
0202
0000
0000
0303
,  // measure 10
1001
0000
0001
1000
0001
1000
1001
0000
,  // measure 11
1020
0000
0130
0000
0010
1000
0000
1001
,  // measure 12
0000
0001
0010
1000
0010
0001
1000
0000
,  // measure 13
1010
0000
0101
0000
0001
1000
0000
1100
,  // measure 14
0000
0011
0000
0001
1000
0001
1001
0000
,  // measure 15
0021
0000
0130
0000
0010
0001
0000
1001
,  // measure 16
0000
1000
0010
0001
0010
1000
0001
0002
,  // measure 17
0000
1003
2000
0000
3100
0200
0000
0310
,  // measure 18
0001
1000
0001
0100
0010
1000
0002
0000
,  // measure 19
0010
0000
2003
0000
0010
0000
3001
1000
,  // measure 20
0100
0020
0000
0031
1000
0001
0100
1000
,  // measure 21
0100
0000
0010
0000
0100
0000
0000
0001
0000
0000
1000
0000
0200
0000
0000
0000
,  // measure 22
0010
0000
1300
0001
0100
0010
1000
0100
,  // measure 23
0010
0012
0000
1000
1003
0000
0001
0100
,  // measure 24
0010
2010
0000
0001
3001
0000
1000
0100
,  // measure 25
0010
0000
0001
0000
0100
0000
0010
0000
1000
0000
0001
0000
1001
0000
0000
1000
,  // measure 26
0100
0000
0000
0100
0010
0000
0000
0010
0001
0000
0000
0000
2001
0000
0000
0000
,  // measure 27
0010
0000
3002
0000
0010
0000
1003
0001
,  // measure 28
0100
0020
0000
1030
0001
1000
0100
0001
,  // measure 29
0100
0000
0010
0000
0100
0000
0000
1000
0000
0000
0001
0000
0200
0000
0000
0000
,  // measure 30
0010
0000
0301
1000
0100
0010
0001
0100
,  // measure 31
0010
2010
0000
0001
3001
0000
1000
0100
,  // measure 32
0010
0000
0012
0000
0000
0000
1000
0000
1003
0000
0001
0000
0101
0000
0000
0100
,  // measure 33
0010
0000
0000
0010
1000
0000
0000
1000
0001
0000
0000
0001
0010
0000
0000
0010
,  // measure 34
0100
0000
0000
0100
1000
0000
0000
1000
0001
0000
0100
0000
0010
0000
2000
0000
,  // measure 35
0000
3100
0001
0100
1000
0020
0000
0100
,  // measure 36
0100
0130
0000
1001
0000
0000
1000
0100
,  // measure 37
1000
0100
0001
0100
0001
0100
1000
0010
,  // measure 38
1000
0010
0001
0010
0001
0010
1000
0001
,  // measure 39
1000
0100
0010
0001
0100
0010
1000
0000
,  // measure 40
1001
0000
0000
0000
0110
0000
0000
2002
0000
0000
3003
0000
0001
0000
0100
0000
,  // measure 41
0001
1000
0100
1000
0001
0010
1000
0000
,  // measure 42
0110
2002
0000
3003
,  // measure 43
0000
0000
0000
0000
0000
0000
0001
0100
,  // measure 44
0001
0100
0010
1000
0001
1000
0100
1000
,  // measure 45
0100
0010
0001
1000
0001
0100
1000
0100
,  // measure 46
0001
0010
1000
0010
0001
1000
0020
0000
,  // measure 47
0100
0100
0130
1002
,  // measure 48
0013
0200
0000
0310
0001
2000
0000
3001
,  // measure 49
0100
0020
0000
1030
0100
0010
0001
0100
,  // measure 50
0001
1000
0001
0010
0001
1000
0020
0000
,  // measure 51
0130
0002
0000
0013
0100
0000
2001
0000
,  // measure 52
3010
0200
0000
0310
1000
0002
0000
1003
,  // measure 53
0100
0020
0000
0031
0100
0010
1000
0100
,  // measure 54
1000
0001
1000
0010
1000
0001
0020
0000
,  // measure 55
0130
2001
3010
0102
,  // measure 56
1000
0000
0023
0000
0130
1000
0020
0000
,  // measure 57
0230
0302
1003
2100
,  // measure 58
0001
0000
3020
0000
0130
0001
0000
0011
,  // measure 59
0000
1100
0000
1000
0002
0000
1003
0001
,  // measure 60
0010
0200
0000
1300
0010
0200
0000
0301
,  // measure 61
1000
0200
0000
1300
0001
0100
0220
0000
,  // measure 62
0330
2002
0000
3003
1000
0002
0000
0013
,  // measure 63
1000
0010
0100
0010
0001
0000
1000
0010
,  // measure 64
1000
0001
1000
0100
1000
0001
0100
0010
,  // measure 65
0100
1000
0100
0010
0100
0001
1000
0100
,  // measure 66
0010
0001
1000
0010
0100
0001
0000
0011
,  // measure 67
0000
1200
0000
0310
0001
1000
0001
0100
,  // measure 68
0001
1000
0001
0010
0001
1000
0010
0100
,  // measure 69
0010
0001
0010
0100
0010
1000
0001
0010
,  // measure 70
0100
1000
0001
0100
0010
1000
1002
0000
,  // measure 71
0013
0200
0000
1300
0001
0000
0201
0000
,  // measure 72
0010
0000
1300
0000
0100
0001
1000
0001
,  // measure 73
0020
0130
1001
1200
,  // measure 74
0010
0000
0301
0000
0100
1000
0000
1010
,  // measure 75
0000
0101
0000
0001
1000
0000
1100
0000
,  // measure 76
0101
0011
1010
0101
,  // measure 77
1100
1010
0011
2001
,  // measure 78
3100
0002
0000
0103
0010
0200
0000
1300
,  // measure 79
0001
0000
1000
0000
0010
0000
0100
0000
0001
1000
0001
0000
0020
0000
0000
0000
,  // measure 80
0000
0000
0000
0000
,  // measure 81
0030
0000
0000
0000
;

//---------------dance-single - Daff_4K----------------
#NOTES:
     dance-single:
     Daff_4K:
     Challenge:
     15:
     0.741464,0.812558,0.514664,0.619341,0.348924,595.000000,536.000000,59.000000,71.000000,0.000000,0.000000,0.741464,0.812558,0.514664,0.619341,0.348924,595.000000,536.000000,59.000000,71.000000,0.000000,0.000000:
// measure 0
0000
0000
0000
0000
,  // measure 1
0000
0000
0000
0000
,  // measure 2
0000
0000
0000
0000
,  // measure 3
0000
0000
0000
0000
,  // measure 4
0000
0000
0000
0000
,  // measure 5
0000
0000
0000
0000
,  // measure 6
2001
0000
0000
0010
0000
0000
0100
0000
,  // measure 7
3002
0000
0000
0010
0000
0000
0100
0000
,  // measure 8
1003
0001
1000
0001
0100
0010
1000
0100
,  // measure 9
0002
0000
0103
2000
0000
3010
0100
0000
,  // measure 10
1001
0000
0000
0000
0001
0000
1000
0001
1000
0001
1000
0001
1000
0000
0000
0000
,  // measure 11
0201
0000
1300
0100
0010
2000
0000
3001
,  // measure 12
1000
0000
0001
0010
0100
0010
0001
0010
0100
0010
0001
0000
1000
0000
0000
0000
,  // measure 13
2001
0000
3010
0100
0001
0011
0000
1001
,  // measure 14
0000
0000
1010
0000
0000
0000
0100
0001
0100
0000
0001
1000
0001
0000
0000
0000
,  // measure 15
1200
0000
0301
0100
0010
0002
0000
1003
,  // measure 16
0001
0000
1000
0010
0100
0010
1000
0010
0100
0010
1000
0000
0001
0000
0012
0000
,  // measure 17
0000
1003
2010
0000
3100
0210
0000
1300
,  // measure 18
1001
0000
0001
0000
0100
0001
0100
0000
0010
1000
0010
0000
2000
0000
0000
0000
,  // measure 19
3100
0010
0002
0000
1003
0010
0001
1000
,  // measure 20
0100
0002
0000
1000
1003
0001
0010
0100
,  // measure 21
0010
0000
1000
0000
0020
0000
0000
0032
0000
0000
1003
0000
0020
0000
0000
0000
,  // measure 22
0100
0000
1030
0001
0010
0100
1100
1000
,  // measure 23
0010
0000
2010
0000
0000
0000
3001
1000
0001
0000
0000
0000
0011
0000
0010
0000
,  // measure 24
0001
0000
0201
0000
0000
0000
0301
1000
0001
0000
0000
0000
0010
0000
0100
0000
,  // measure 25
1000
0000
0001
0000
0100
0000
0010
0100
0010
0000
1000
0000
1001
0000
0000
0001
,  // measure 26
0010
0000
0000
0000
1001
0000
0000
1000
0010
0000
0000
0000
1002
0000
0000
0000
,  // measure 27
0103
0000
0010
0000
2000
0000
0000
3002
0000
0000
0013
0000
0100
0000
0010
0000
,  // measure 28
0001
2000
0000
0001
3001
1000
0010
0100
,  // measure 29
0010
0000
0001
0000
0020
0000
0000
2030
0000
0000
3001
0000
0020
0000
0000
0000
,  // measure 30
0100
0000
0031
1000
0010
0100
0101
0001
,  // measure 31
0010
0000
0012
0000
0000
0000
1003
0001
1000
0000
0000
0000
1010
0000
0010
0000
,  // measure 32
1000
0000
1200
0000
0000
0000
1300
0001
1000
0000
0010
0000
0110
0000
0000
0100
,  // measure 33
0001
0000
0000
0001
1000
0000
0000
1000
0100
0000
0000
0100
0010
0000
0000
0010
,  // measure 34
0001
0000
0000
0001
1000
0000
0010
0000
0100
0010
0100
0000
0001
0000
2001
0000
,  // measure 35
0000
0000
3100
0000
0010
0000
0001
1000
0001
0000
0200
0000
0000
0000
0010
0000
,  // measure 36
0010
0000
0310
0000
0000
0000
1001
0000
0000
0000
0000
0000
1000
0010
0000
0100
,  // measure 37
0010
0000
1000
0000
0001
0010
0000
0100
0010
0000
0001
0000
1000
0001
0000
0100
,  // measure 38
0010
0000
0100
0000
0001
1000
0000
0100
0010
0000
0200
0000
0000
0000
1300
0000
,  // measure 39
0001
0000
0100
0010
0100
0000
0010
1000
0000
1000
0001
0000
0011
0000
0000
0000
,  // measure 40
1100
0000
0000
0000
0110
0000
0000
2002
0000
0000
3003
0000
1000
0000
0001
0000
,  // measure 41
0100
0000
0010
0000
0100
0000
1000
0100
0000
0100
0001
0000
1001
0000
0000
0000
,  // measure 42
0110
2002
3003
2000
,  // measure 43
0001
0000
0000
0000
3001
0000
1000
0001
1000
0000
0000
0000
0001
0000
0100
0000
,  // measure 44
0010
0100
0001
1000
0100
0010
0100
1000
,  // measure 45
0001
0000
0100
0000
0010
0000
1000
0001
1000
0000
0001
0000
0010
0000
0010
0000
,  // measure 46
0100
0000
0100
0000
1000
0001
1000
0001
1000
0001
1000
0001
0200
0000
0000
0000
,  // measure 47
0010
0010
0310
2001
,  // measure 48
3100
0020
0000
0031
1000
1020
0000
0130
,  // measure 49
0001
0021
0000
0130
0010
0001
2000
0010
,  // measure 50
3002
0100
2003
0010
3001
1000
0200
0000
,  // measure 51
0310
0000
0002
0000
0000
0000
1003
0001
1000
0000
0000
0000
1002
0000
0000
0000
,  // measure 52
0103
0020
0000
1030
0001
0021
0000
0130
,  // measure 53
1000
1020
0000
0130
0010
1000
0002
0010
,  // measure 54
2003
0100
3002
0010
1003
0001
0201
0000
,  // measure 55
0310
1000
1200
0000
0310
0000
1001
0000
,  // measure 56
1200
0000
0310
0100
1000
0001
1000
0010
,  // measure 57
0001
0110
1001
0201
,  // measure 58
0310
0100
0001
1000
0001
0010
0000
0110
,  // measure 59
0000
1001
0000
1000
0010
0100
0001
1000
,  // measure 60
0100
2100
0000
3001
0100
0102
0000
0013
,  // measure 61
0100
0000
0120
0000
0000
0000
0031
0000
1000
0001
1000
0000
0010
0100
0010
0000
,  // measure 62
0100
0000
0001
1000
0001
0000
1000
0000
0100
0000
0120
0000
0000
0000
0031
0000
,  // measure 63
0100
0000
0010
0000
1000
0001
1000
0001
1000
0001
1000
0001
1000
0000
0100
0000
,  // measure 64
0001
0100
1000
0001
0100
0010
1000
0001
,  // measure 65
0010
0000
1000
0000
0010
0000
0001
0000
0100
0000
0010
0000
1000
0000
0100
1000
,  // measure 66
0100
0000
0010
0001
0010
0000
0001
0000
1000
0000
0020
0000
0100
0000
2030
0000
,  // measure 67
0100
3002
0100
0013
0100
1000
0001
0100
,  // measure 68
1000
0100
0001
1000
0100
0010
0001
1000
,  // measure 69
0010
0000
0001
0000
0010
0000
1000
0000
0100
0000
0010
0000
0001
0000
0100
0001
,  // measure 70
0100
0000
0010
1000
0010
0000
1000
0000
0100
0000
0010
0000
0001
1000
0001
0000
,  // measure 71
1000
0000
0010
0100
0010
0000
0100
0000
0001
0000
0000
0000
0021
0000
0000
0000
,  // measure 72
0100
0000
1030
0010
0001
0000
1020
0000
,  // measure 73
0100
0000
0031
0010
1000
0000
1002
0000
,  // measure 74
0013
0200
0000
0310
0001
1001
0000
0110
,  // measure 75
0000
0000
1001
0000
0000
0000
1000
0000
0001
1000
0001
0000
1000
0100
0000
0000
,  // measure 76
0100
0010
0000
0000
0010
0001
0000
0000
0001
0000
1000
0000
0001
0100
0000
0000
,  // measure 77
0100
0010
0000
0000
0010
1000
0000
0000
1000
0000
0001
0000
1000
0100
1000
0000
,  // measure 78
0100
0000
0010
0001
0010
0000
0001
0000
1000
0000
1002
0000
0000
0000
0103
0000
,  // measure 79
1000
0000
0100
0000
0010
1000
0001
1000
0001
1000
0001
1000
0200
0000
0000
0000
,  // measure 80
0000
0000
0000
0000
,  // measure 81
0300
0000
0000
0000
;
