#TITLE:沈まない月のように;
#SUBTITLE:;
#ARTIST:兎味ペロリナ;
#TITLETRANSLIT:Shizumanai tsuki no you ni;
#SUBTITLETRANSLIT:;
#ARTISTTRANSLIT:Perolina Usami;
#GENRE:;
#CREDIT:;
#MUSIC:Shizumanai tsuki no you ni.ogg;
#BANNER:Shizumanai tsuki no you ni.png;
#BACKGROUND:Shizumanai tsuki no you ni-bg.png;
#CDTITLE:;
#SAMPLESTART:46.161;
#SAMPLELENGTH:15.000;
#SELECTABLE:YES;
#OFFSET:1.265;
#BPMS:0.000=136.000;
#STOPS:;
#BGCHANGES:;
#FGCHANGES:;

//--------------- dance-single - Princess Pamela ----------------
#NOTES:
     dance-single:
     Princess Pamela:
     Beginner:
     3:
     0,0,0,0,0:
0000
0000
0000
0000
,
0000
0000
0000
0000
,
0000
0000
0000
0000
,
0000
0000
0000
0000
,
0000
0000
0000
0000
,
0000
0000
0000
0000
,
0001
0000
0000
0000
,
1000
0000
0000
0000
,
0010
0000
0000
0000
,
0100
0000
0000
0000
,
0001
0000
0000
0000
,
0000
0000
0000
0000
,
1000
0000
0000
0000
,
0000
0000
0000
0000
,
0100
0000
0000
0000
,
0000
0000
0000
0000
,
0010
0000
0000
0000
,
0000
0000
0000
0000
,
0002
0000
0000
0000
,
0003
0000
0000
0000
,
2000
0000
0000
0000
,
3000
0000
0000
0000
,
0010
0000
0000
0000
,
0100
0000
0000
0000
,
0001
0000
0001
0000
,
1000
0000
1000
0000
,
0010
0000
0000
0000
,
1001
0000
0000
0000
,
1000
0000
0001
0000
,
1000
0000
0000
0000
,
0010
0000
0100
0000
,
0001
0000
0001
0000
,
1000
0000
1000
0000
,
0001
0000
0010
0000
,
0200
0000
0300
0000
,
1001
0000
0000
0000
,
0001
0000
1000
0000
,
0001
0000
0000
0000
,
0010
0000
0100
0000
,
1000
0000
1000
0000
,
0001
0000
0001
0000
,
1000
0000
0010
0000
,
0200
0000
0300
0000
,
0020
0000
0030
0000
,
1000
0000
0000
0000
,
0000
0000
0000
0000
,
0001
0000
0000
0000
,
0000
0000
0000
0000
,
0010
0000
0000
0000
,
0100
0000
0000
0000
,
1000
0000
0000
0000
,
0001
0000
0000
0000
,
1001
0000
0000
0000
,
1000
0000
0001
0000
,
1000
0000
0000
0000
,
0010
0000
0100
0000
,
0001
0000
0001
0000
,
1000
0000
1000
0000
,
0001
0000
0010
0000
,
0200
0000
0300
0000
,
0010
0010
0010
0000
,
0001
0000
0000
0000
,
1000
0000
0000
0000
,
0010
0000
0000
0000
,
0100
0000
0001
0000
,
1000
0000
0000
0000
,
0001
0000
0000
0000
,
0010
0000
0000
0000
,
0100
0000
1000
0000
,
0000
0000
2002
0000
,
3003
0000
0000
0000
;

//--------------- dance-single - Princess Pamela ----------------
#NOTES:
     dance-single:
     Princess Pamela:
     Easy:
     6:
     0,0,0,0,0:
0000
0000
0000
0000
,
0000
0000
0000
0000
,
0000
0000
0000
0000
,
0000
0000
0000
0000
,
0000
0000
0000
0000
,
0000
0000
0000
0000
,
0001
0100
0001
0000
,
1000
0100
1000
0000
,
0001
1000
0001
0000
,
0100
0100
0010
0010
,
1000
0000
1000
0000
,
1000
0001
0010
0000
,
0001
0000
0001
0000
,
0001
1000
0010
0000
,
0100
0000
0100
0000
,
0100
0001
1000
0000
,
0100
0000
0100
0000
,
0100
1000
0001
0000
,
0020
0000
0030
0000
,
0200
0000
0300
0000
,
2000
3000
0002
0003
,
2000
0000
3000
0000
,
0020
0000
0130
0000
,
0200
0000
0310
0000
,
0001
0001
1000
1000
,
0002
0003
0020
0030
,
0100
0000
0000
0100
0000
0000
0100
0000
0000
0000
0000
0000
0000
0000
0000
0000
,
1001
0000
0110
0000
,
0001
1000
0001
0000
,
0010
0100
1000
0000
,
0001
1000
0001
0000
,
1000
0100
0001
0000
,
0001
0100
1000
0000
,
0001
1000
0001
0100
,
0020
0000
0030
0000
,
1001
0000
0110
0000
,
1000
0001
1000
0000
,
0010
0100
0001
0000
,
1000
0001
1000
0000
,
0001
0100
1000
0000
,
1000
0100
0001
0000
,
1000
0001
1000
0100
,
0020
0000
0030
0000
,
0200
0000
0300
0000
,
1000
0000
0001
0000
,
1000
0000
0000
0000
,
0010
0000
0100
0000
,
0010
0000
0000
0000
,
1000
1000
1000
0000
,
0001
0001
0001
0000
,
0010
0000
0100
0000
,
1000
0000
0000
0000
,
1001
0000
0110
0000
,
0001
1000
0001
0000
,
0010
0100
1000
0000
,
0001
1000
0001
0000
,
1000
0010
0001
0000
,
0001
0010
1000
0000
,
0001
1000
0001
0010
,
0200
0000
0000
0300
,
0010
0000
0000
0010
0000
0000
0010
0000
0000
0000
0000
0000
0000
0000
0000
0000
,
0001
0100
0001
0000
,
1000
0100
1000
0000
,
0001
1000
0001
0000
,
0100
0100
0010
0000
,
1000
0100
1000
0000
,
0001
0100
0001
0000
,
1000
0001
1000
0000
,
0010
0010
0100
0000
,
0000
0000
0001
0000
0000
0001
0000
0000
2000
0000
0000
0000
0000
0000
0000
0000
,
3000
0000
0000
0000
;

//--------------- dance-single - Princess Pamela ----------------
#NOTES:
     dance-single:
     Princess Pamela:
     Medium:
     10:
     0,0,0,0,0:
0000
0000
0000
0000
,
0000
0000
0000
0000
,
0000
0000
0000
0000
,
0000
0000
0000
0000
,
0000
0000
0000
0000
,
0000
0000
0000
0000
,
0001
0000
0000
0100
0000
0000
0001
0000
0000
0000
0000
0000
1000
0000
0000
0000
,
0001
0000
0000
0010
0000
0000
0001
0000
0000
0000
0000
0000
1000
0000
0000
0000
,
0010
0000
0000
0100
0000
0000
0010
0000
0000
0000
0000
0000
1000
0000
0000
0000
,
0001
0000
0000
0001
0000
0000
0010
0000
0000
0010
0000
0000
0100
0000
0000
0000
,
1000
0010
1000
0010
,
0100
0001
0010
0100
,
1000
0001
1000
0001
,
0100
0000
0010
0000
0100
0001
0100
0000
,
0010
1000
0010
1000
,
0001
0010
0100
1000
,
0001
0100
0001
0100
,
0001
0000
1000
0000
0100
1000
0100
0000
,
1001
0001
0020
0030
,
0001
1000
0020
0030
,
0100
0001
0010
0001
,
1000
0000
0001
1000
0002
0000
0003
0000
,
0010
0000
0000
0010
0000
0000
0100
0000
0000
0000
0000
0000
0010
0000
0000
0000
,
0001
0000
0000
0001
0000
0000
1000
0000
0000
0000
0000
0000
0001
0000
0000
0000
,
1001
0000
0110
0000
,
0001
0000
0000
1000
0000
0000
0001
0000
0000
1000
0000
0000
0010
0000
0000
0000
,
0100
0000
0000
0010
0000
0000
0110
0000
0000
0000
0000
0000
0000
0000
0000
0000
,
1000
0001
1000
0000
0010
0100
0010
0000
,
1000
0000
0100
0010
0002
0000
0003
0000
,
1000
0010
1000
0000
0001
0010
0001
0000
,
0100
0000
0010
1000
0020
0000
0030
0000
,
0100
0010
0100
0000
0002
0000
0003
0000
,
0010
0100
0010
0000
0002
0000
0003
0000
,
1000
0100
0001
0100
,
1000
0000
0001
0010
0100
0000
0020
0000
,
0031
1000
0001
0000
0010
0100
0010
0000
,
0001
0000
0100
0010
2000
0000
3000
0000
,
0001
0010
0001
0000
1000
0010
1000
0000
,
0100
0000
0010
0001
0020
0000
0030
0000
,
0100
0010
0100
0000
2000
0000
3000
0000
,
0010
0100
0010
0000
2000
0000
3000
0000
,
0001
0100
1000
0100
,
0002
1000
1000
0010
,
2003
0001
0001
3010
,
0220
0330
2000
3000
,
0010
0100
0001
0000
,
2000
3000
0002
0003
,
0010
0100
1000
0000
,
0010
0010
0200
0300
,
0001
0001
0200
0300
,
0010
0100
0010
0000
1000
0000
0001
0000
,
0200
0000
0300
0000
,
0001
0010
0100
0000
1000
0010
0100
0000
,
0001
0000
0010
0100
0010
0000
0001
0000
,
1000
0010
0100
0000
0001
0010
0100
0000
,
1000
0000
0010
0100
0010
0000
0000
0000
,
1000
0100
0010
0000
0220
0000
0330
0000
,
0001
0100
0010
0000
0220
0000
0330
0000
,
1000
0001
1000
0000
0001
0100
0001
0000
,
2000
0010
0001
0010
,
3001
0000
0000
0001
0000
0000
0010
0000
0100
0000
1000
0000
0100
0000
0000
0000
,
0110
0000
0000
0001
0000
0000
0010
0000
0000
0000
0001
0000
1000
0000
0000
0000
,
0010
0000
0000
1000
0000
0000
0010
0000
0000
0000
0100
0000
0001
0000
0000
0000
,
1000
0000
0000
0001
0000
0000
1000
0000
0000
0000
0100
0000
0010
0000
0000
0000
,
0001
0000
0000
0100
0000
0000
0010
0000
0000
0000
1000
0000
0001
0000
0000
0000
,
0010
0000
0000
0100
0000
0000
2000
0000
0000
0000
3001
0000
0100
0000
0000
0000
,
0010
0000
0000
1000
0000
0000
0002
0000
0000
0000
0013
0000
0100
0000
0000
0000
,
1000
0000
0000
0001
0000
0000
0200
0000
0000
0000
0310
0000
1000
0000
0000
0000
,
0001
0000
0000
0010
0000
0000
0100
0000
0000
1000
0000
0000
0010
0000
0100
0000
,
0000
0000
0001
0000
0000
1000
0000
0000
2002
0000
0000
0000
0000
0000
0000
0000
,
3003
0000
0000
0000
;

//--------------- dance-single - Princess Pamela ----------------
#NOTES:
     dance-single:
     Princess Pamela:
     Hard:
     13:
     0,0,0,0,0:
0000
0000
0000
0000
,
0000
0000
0000
0000
,
0000
0000
0000
0000
,
0000
0000
0000
0000
,
0000
0000
0000
0000
,
0000
0000
0000
0000
,
0001
0000
0000
0100
0000
0000
1000
0000
0000
0000
0100
0000
0010
0000
0100
0000
,
0001
0000
0000
0010
0000
0000
1000
0000
0000
0000
0010
0000
0100
0000
0010
0000
,
0001
0000
0000
0100
0000
0000
1000
0000
0000
0000
0100
0000
0010
0000
0100
0000
,
0001
1000
0000
0001
1000
0000
0001
0010
0000
0100
1000
0100
0010
0000
0001
0000
,
1000
0000
1000
0010
1000
0010
0100
0010
,
0001
0000
0000
0010
0000
0000
1000
0000
0000
0000
0001
0000
1000
0000
0001
0000
,
0010
0000
0001
0010
0001
0010
1000
0010
,
0001
0000
1000
0000
0010
0000
0100
0000
0001
0000
1000
0001
0000
0000
0000
0000
,
0010
0100
0010
0100
0001
0100
1000
0100
,
0010
0000
0000
0001
0000
0000
1000
0000
0000
0010
0000
0000
0100
0000
0000
0000
,
0001
0000
0010
0000
0001
0000
0010
0100
0000
0000
1000
0000
0100
0000
1000
0001
,
0000
0000
0010
0000
0001
0000
0100
0000
0001
1000
0001
1000
0001
0000
0000
0000
,
1001
0000
0000
1000
0010
0000
0100
0000
1000
0000
0100
0000
0001
0000
0000
0000
,
1001
0000
0000
0001
0010
0000
0100
0000
0001
0000
0100
0000
1000
0000
0000
0000
,
1010
0000
0000
0001
1000
0000
0001
0000
0010
0000
0000
0100
0010
0000
0001
0000
,
1000
0000
0000
0010
0100
0000
0001
0000
0020
0000
0000
0000
0030
0000
0000
0000
,
0011
0000
0000
1001
0000
0000
0110
0000
0000
0000
0001
0000
1000
0000
0000
0000
,
1010
0000
0000
1001
0000
0000
0110
0000
0000
0000
1000
0000
0001
0000
0000
0000
,
0011
0000
0000
0001
0000
0000
0100
0000
0110
0000
0000
0110
0000
0000
1000
0000
,
0100
1000
0000
0100
1000
0000
0001
0010
0000
0100
1000
0000
0010
0000
0000
0000
,
1001
0000
0000
0110
0000
0000
1001
0000
0000
0000
0000
0000
0000
0000
1000
0001
,
1000
0000
0010
0000
1000
0000
0001
0010
0100
0000
1000
0010
0100
0000
0001
0000
,
1000
0000
0100
0000
0001
0000
0100
0010
0100
0000
0010
0000
0011
0000
0000
0000
,
0001
0000
0100
0000
0001
0000
1000
0100
0010
0000
0001
0100
0010
0000
1000
0000
,
1001
0000
0000
0000
0001
0010
0100
2000
0000
0000
3001
0000
0100
0000
0001
0000
,
1000
0000
0100
0000
0001
0000
0100
0020
0000
0000
0031
0000
1000
0000
0001
1000
,
0001
0000
0100
0000
1000
0000
0100
0020
0000
0000
1030
0000
0001
0000
1000
0001
,
1000
0000
0010
0100
0001
0000
1000
0000
0100
0000
0001
0000
0100
0000
1000
0000
,
0001
0000
0100
0001
1000
0000
0100
1000
0002
0000
0000
0000
0013
0000
0001
1000
,
0001
0000
0010
0000
0001
0000
1000
0010
0100
0000
0001
0010
0100
0000
1000
0000
,
0001
0000
0100
0000
1000
0000
0100
0010
0100
0000
0010
0000
1010
0000
0000
0000
,
1000
0000
0100
0000
1000
0000
0001
0100
0010
0000
1000
0100
0010
0000
0001
0000
,
1001
0000
0000
0000
1000
0010
0100
0002
0000
0000
1003
0000
0100
0000
1000
0000
,
0001
0000
0100
0000
1000
0000
0100
0020
0000
0000
1030
0000
0001
0000
1000
0001
,
1000
0000
0100
0000
0001
0000
0100
0020
0000
0000
0031
0000
1000
0000
0001
1000
,
0001
0000
0010
0100
1000
0000
0001
0000
0100
0000
1000
0000
0100
0000
0001
0000
,
1000
0000
0010
1000
0001
0000
0010
0001
1000
0000
0010
0100
0001
0000
0010
0000
,
0100
0000
1000
0001
0100
0000
0001
1000
0100
0000
0000
0010
0000
0000
0100
0000
,
2002
0000
3003
0000
0001
0010
0100
1000
,
0020
0000
0130
0001
0100
0010
1000
0001
,
2000
0000
3200
0000
0310
0001
1000
0010
,
0200
0000
0000
0300
0001
1000
0100
0010
,
0001
0000
1000
0000
0001
0000
0010
0200
0000
0000
0000
0300
0000
0000
0000
0000
,
1000
0000
0001
0000
1000
0000
0010
0200
0000
0000
0000
0300
0000
0000
0000
0000
,
0001
0000
1000
0001
0000
0000
0010
0000
0100
0000
1000
0000
1000
0000
0001
0000
,
0100
0000
0010
0200
0000
0000
0000
0000
0300
0000
0000
0000
0001
1000
0100
0010
,
0001
0000
0100
0000
0001
0000
1000
0010
0100
0000
0001
0010
0100
0000
1000
0000
,
0001
0000
0010
0000
1000
0000
0010
0100
0010
0000
0001
0000
0011
0000
0000
0000
,
1000
0000
0100
0000
1000
0000
0001
0100
0010
0000
1000
0100
0010
0000
0001
0000
,
1001
0000
0000
0000
1010
0000
0000
0110
0000
0000
0002
0000
0023
0000
0230
0000
,
1300
0000
0001
0000
0100
0000
1000
0200
0000
0000
0310
0000
0100
0000
0001
1000
,
0001
0000
1000
0000
0100
0000
0001
0200
0000
0000
0310
0001
0010
0000
0000
0000
,
1001
0000
0000
0001
1000
0000
0010
0000
0100
0000
1000
0000
0100
0000
0001
0000
,
1000
0000
0010
0100
0001
0000
0010
0100
1000
0000
0010
0100
0001
0000
1000
0000
,
1100
0000
0000
0101
0000
0000
1001
0000
1000
0000
0001
1000
0001
0000
0010
0100
,
1000
0000
0000
0100
0000
0000
0001
0000
0100
0000
1000
0000
0100
0000
0010
0000
,
0001
0000
0000
0100
0000
0000
1000
0000
0100
0000
0001
0000
0100
0000
0010
0000
,
1000
0000
0000
0001
0000
0000
0010
0000
1000
0000
0010
0000
0001
0000
0010
0000
,
0100
1000
0000
0100
1000
0000
0001
0100
0000
0000
0010
0000
1000
0001
1000
0000
,
0001
0000
0000
0010
0000
0000
1000
0000
0010
0000
0001
0000
0100
0000
0010
0000
,
1000
0000
0000
0100
0000
0000
0001
0000
0100
0000
1000
0000
0010
0000
0100
0000
,
0001
0000
0000
1000
0000
0000
0010
0000
0001
0000
0010
0000
1000
0000
0100
0000
,
1000
0001
0000
1000
0001
0000
0010
0100
0000
1000
0100
1000
0001
0000
0100
0010
,
0000
0000
1010
0000
0000
0011
0000
0000
2002
0000
0000
0000
0000
0000
0000
0000
,
3003
0000
0000
0000
;

//--------------- dance-double - Princess Pamela ----------------
#NOTES:
     dance-double:
     Princess Pamela:
     Easy:
     6:
     0,0,0,0,0:
00000000
00000000
00000000
00000000
,
00000000
00000000
00000000
00000000
,
00000000
00000000
00000000
00000000
,
00000000
00000000
00000000
00000000
,
00000000
00000000
00000000
00000000
,
00000000
00000000
00000000
00000000
,
00001000
00010000
00001000
00000000
,
00010000
00001000
00010000
00000000
,
00000100
00001000
00000100
00000000
,
00000010
00000010
00000001
00000000
,
00001000
00000000
00001000
00000000
,
00001000
00000001
00000100
00000000
,
00000010
00000000
00000010
00000000
,
00000010
00001000
00000100
00000000
,
00010000
00000000
00010000
00000000
,
00001000
00010000
00001000
00000000
,
01000000
00000000
01000000
00000000
,
01000000
00010000
10000000
00000000
,
02000000
00000000
03000000
00000000
,
00200000
00000000
00300000
00000000
,
00002000
00003000
00020000
00030000
,
00002000
00000000
00003000
00000000
,
00020000
00000000
00031000
00000000
,
00002000
00000000
00013000
00000000
,
00001000
00001000
00010000
00010000
,
00002000
00003000
00020000
00030000
,
00001000
00000000
00000000
00010000
00000000
00000000
00001000
00000000
00000000
00000000
00000000
00000000
00000000
00000000
00000000
00000000
,
00011000
00000000
00000010
00001000
,
00000010
00000100
00000001
00000000
,
00001000
00001000
00000001
00000000
,
00000010
00000100
00001000
00000000
,
00000020
00000000
00010030
00000000
,
00020000
00000000
00031000
00000000
,
00001000
00010000
00001000
01000000
,
00020000
00000000
00030000
00000000
,
10010000
00000000
10000000
01000000
,
10000000
00010000
00100000
00000000
,
00001000
00010000
00001000
00000000
,
00010000
00010000
00000100
00000000
,
00002000
00000000
00003001
00000000
,
00000002
00000000
00000013
00000000
,
00000001
00001000
00000001
00000100
,
00000020
00000000
00000030
00000000
,
00000200
00000000
00000300
00000000
,
00001000
00000000
00001000
00000000
,
00010000
00000000
00000000
00000000
,
00100000
00000000
00100000
00000000
,
01000000
00000000
00000000
00000000
,
00010000
00010000
00010000
00000000
,
10000000
10000000
10000000
00000000
,
01000000
00000000
00010000
00000000
,
00001000
00000000
00000000
00000000
,
00011000
00000000
00010000
00000100
,
00010000
00001000
00010000
00000000
,
00000010
00001000
00000010
00000000
,
00000100
00000100
00000001
00000000
,
00002000
00000000
00003100
00000000
,
00000200
00000000
00010300
00000000
,
00010000
00001000
00010000
00001000
,
00200000
00000000
00000000
00300000
,
01000000
00000000
00000000
01000000
00000000
00000000
01000000
00000000
00000000
00000000
00000000
00000000
00000000
00000000
00000000
00000000
,
10000000
01000000
10000000
00000000
,
00010000
01000000
00010000
00000000
,
00100000
00010000
00100000
00000000
,
00001000
00001000
00010000
00000000
,
00000010
00001000
00000010
00000000
,
00000100
00000001
00000100
00000000
,
00000001
00000010
00000001
00000000
,
00001000
00001000
00000100
00000000
,
00000000
00000000
00010000
00000000
00000000
00001000
00000000
00000000
00020000
00000000
00000000
00000000
00000000
00000000
00000000
00000000
,
00030000
00000000
00000000
00000000
;

//--------------- dance-double - Princess Pamela ----------------
#NOTES:
     dance-double:
     Princess Pamela:
     Medium:
     10:
     0,0,0,0,0:
00000000
00000000
00000000
00000000
,
00000000
00000000
00000000
00000000
,
00000000
00000000
00000000
00000000
,
00000000
00000000
00000000
00000000
,
00000000
00000000
00000000
00000000
,
00000000
00000000
00000000
00000000
,
00001000
00000000
00000000
00010000
00000000
00000000
00001000
00000000
00000000
00000000
00000000
00000000
00100000
00000000
00000000
00000000
,
00001000
00000000
00000000
00010000
00000000
00000000
00001000
00000000
00000000
00000000
00000000
00000000
01000000
00000000
00000000
00000000
,
00010000
00000000
00000000
01000000
00000000
00000000
00010000
00000000
00000000
00000000
00000000
00000000
10000000
00000000
00000000
00000000
,
01000000
00000000
00000000
01000000
00000000
00000000
00010000
00000000
00000000
00010000
00000000
00000000
00001000
00000000
00000000
00000000
,
00100000
00001000
00010000
00001000
,
01000000
00001000
00010000
00001000
,
00000010
00001000
00010000
00001000
,
00000010
00000000
00000001
00000000
00001000
00000001
00001000
00000000
,
00000010
00010000
00001000
00010000
,
00000100
00010000
00001000
00010000
,
00100000
10000000
00100000
00010000
,
00100000
00000000
10000000
00000000
01000000
10000000
01000000
00000000
,
10010000
00010000
00200000
00300000
,
00001000
00010000
00002000
00003000
,
00000010
00000001
00000100
00000001
,
00000010
00000000
00000100
00001000
00000200
00000000
00000300
00000000
,
00010000
00000000
00000000
00001000
00000000
00000000
00022000
00000000
00000000
00000000
00000000
00000000
00033000
00000000
00000000
00000000
,
00100000
00000000
00000000
00010000
00000000
00000000
00220000
00000000
00000000
00000000
00000000
00000000
00330000
00000000
00000000
00000000
,
20020000
30030000
02200000
03300000
,
10000000
00000000
00000000
10000000
00000000
00000000
01000000
00000000
00000000
00010000
00000000
00000000
00001000
00000000
00000000
00000000
,
00011000
00000000
00000000
00011000
00000000
00000000
00011000
00000000
00000000
00000000
00000000
00000000
00000000
00000000
00000000
00000000
,
00000010
00001000
00000010
00000000
00000100
00000001
00000100
00000000
,
00000010
00000000
00001000
00000100
00000020
00000000
00000030
00000000
,
00000001
00000100
00000001
00000000
00001000
00000100
00001000
00000000
,
00000010
00000000
00010000
00001000
00020000
00000000
00030000
00000000
,
00000010
00000100
00002000
00003000
,
00100000
01000000
00020000
00030000
,
00001000
00000010
00001000
00010000
,
00100000
00000000
01000000
00100000
01000000
00000000
00200000
00000000
,
10300000
00010000
10000000
00000000
01000000
10000000
01000000
00000000
,
00100000
00000000
00010000
01000000
00002000
00000000
00003000
00000000
,
00010000
00001000
00010000
00000000
00000010
00001000
00000010
00000000
,
00000100
00000000
00000001
00001000
00000002
00000000
00000003
00000000
,
00000010
00000100
00020000
00030000
,
00100000
01000000
00002000
00003000
,
00000010
00001000
00010000
00001000
,
00020000
00100000
00001000
00000100
,
00032000
00000010
00010000
01003000
,
02200000
00000000
03300000
00000000
,
10000000
01000000
00010000
00001000
,
00000020
00000000
00000200
00000330
,
00000001
00000100
00001000
00000000
,
00010000
00100000
00020000
00030000
,
00001000
00000010
00002000
00003000
,
00010000
00001000
00010000
00000000
00001000
00000000
00010000
00000000
,
02000000
00000000
03000000
00000000
,
00100000
00010000
00100000
00000000
01000000
10000000
01000000
00000000
,
00100000
00000000
00010000
01000000
00200000
00000000
00300000
00000000
,
10000000
01000000
10000000
00000000
00010000
01000000
00010000
00000000
,
00100000
00000000
00001000
00010000
00002000
00000000
00003000
00000000
,
00100000
01000000
00020000
00030000
,
00000010
00000100
00002000
00003000
,
00010000
00100000
00010000
00001000
,
00020000
01000000
00001000
00000010
,
00031000
00000000
00000000
00001000
00000000
00000000
00010000
00000000
00000000
00000000
00001000
00000000
00100000
00000000
00000000
00000000
,
01000000
00000000
00000000
10000000
00000000
00000000
01000000
00000000
00000000
00000000
00100000
00000000
00010000
00000000
00000000
00000000
,
01000000
00000000
00000000
00010000
00000000
00000000
01000000
00000000
00000000
00000000
00001000
00000000
00010000
00000000
00000000
00000000
,
00000010
00000000
00000000
00001000
00000000
00000000
00000010
00000000
00000000
00000000
00001000
00000000
00000001
00000000
00000000
00000000
,
00000010
00000000
00000000
00000100
00000000
00000000
00010000
00000000
00000000
00000000
00001000
00000000
00010000
00000000
00000000
00000000
,
00001000
00000000
00000000
00100000
00000000
00000000
00002000
00000000
00000000
00000000
01003000
00000000
00010000
00000000
00000000
00000000
,
10000000
00000000
00000000
00100000
00000000
00000000
20000000
00000000
00000000
00000000
30010000
00000000
00100000
00000000
00000000
00000000
,
00001000
00000000
00000000
00010000
00000000
00000000
00002000
00000000
00000000
00000000
00013000
00000000
00000100
00000000
00000000
00000000
,
00001000
00000000
00000000
00000010
00000000
00000000
00000100
00000000
00000000
00000001
00000000
00000000
00000010
00000000
00000100
00000000
,
00000000
00000000
00001000
00000000
00000000
00000001
00000000
00000000
00002002
00000000
00000000
00000000
00000000
00000000
00000000
00000000
,
00003003
00000000
00000000
00000000
;

//--------------- dance-double - Princess Pamela ----------------
#NOTES:
     dance-double:
     Princess Pamela:
     Hard:
     13:
     0,0,0,0,0:
00000000
00000000
00000000
00000000
,
00000000
00000000
00000000
00000000
,
00000000
00000000
00000000
00000000
,
00000000
00000000
00000000
00000000
,
00000000
00000000
00000000
00000000
,
00000000
00000000
00000000
00000000
,
00001000
00000000
00000000
00010000
00000000
00000000
01000000
00000000
00000000
00000000
00100000
00000000
01000000
00000000
10000000
00000000
,
01000000
00000000
00000000
00010000
00000000
00000000
00001000
00000000
00000000
00000000
00000100
00000000
00000010
00000000
00000100
00000000
,
00000001
00000000
00000000
00000100
00000000
00000000
00001000
00000000
00000000
00000000
00010000
00000000
00001000
00000000
00010000
00000000
,
00100000
10000000
00000000
00100000
10000000
00000000
00100000
01000000
00000000
00010000
01000000
00010000
01000000
00000000
00000000
00000000
,
00100000
10000000
00100000
10000000
01000000
00100000
00010000
00100000
,
01000000
00000000
00000000
00010000
00000000
00000000
00002000
00000000
00000000
00000000
00013000
00000000
00001000
00000000
00010000
00000000
,
00000010
00001000
00000010
00001000
00000001
00000010
00000100
00001000
,
00000010
00000000
00010000
00000000
00001000
00000000
00010000
00000000
00000100
00000000
00001000
00000200
00000000
00000000
00000300
00000000
,
00010000
00001000
00010000
00001000
00010000
00100000
10000000
00100000
,
01000000
00000000
00000000
00010000
00000000
00000000
00100000
00000000
00000000
01000000
00000000
00000000
00010000
00000000
00000000
00000000
,
00001000
00000000
00010000
00000000
00001000
00000000
00010000
00000100
00000000
00000000
00001000
00000000
00000010
00000000
00001000
00000010
,
00000000
00000000
00000100
00000000
00000010
00000000
00001000
00000000
00000001
00001000
00000001
00001000
00000001
00000000
00000000
00000000
,
00000100
00000000
00000000
00001000
00000000
00000000
00010000
00000000
00100000
00000000
01000000
00000000
00100000
00000000
10000000
00000000
,
01000000
00000000
00000000
00010000
00000000
00000000
00001000
00000000
00000010
00000000
00000100
00000000
00000010
00000000
00000100
00000000
,
00000001
00000000
00000000
00000100
00000000
00000000
00001000
00000000
00000100
00000000
00000000
00000010
00000000
00000000
00000001
00000000
,
00000100
00000000
00000000
00001000
00000000
00000000
00010000
00000000
00022000
00000000
00000000
00000000
00033000
00000000
00000000
00000000
,
00100000
00000000
00000000
01000000
00000000
00000000
01100000
00000000
00000000
00000000
00100000
00000000
00001000
00000000
00010000
00000000
,
00000010
00000000
00000000
00000100
00000000
00000000
00000110
00000000
00000000
00000000
00000010
00000000
00010000
00000000
00001000
00000000
,
01000000
00000000
00000000
00010000
00000000
00000000
00100000
00000000
01000000
00000000
00000000
01100000
00000000
00000000
00100000
00000000
,
00010000
10000000
00000000
00010000
10000000
00000000
01000000
00100000
00000000
00010000
01000000
00000000
00001000
00000000
00000000
00000000
,
00011000
00000000
00000000
00011000
00000000
00000000
00011000
00000000
00000000
00000000
00000000
00000000
00000010
00000000
00000000
00000000
,
00000001
00000010
00000100
00001000
00010000
00001000
00000010
00000100
,
00010000
00001000
01000000
00100000
00010000
00001000
00100000
10000000
,
00100000
01000000
00010000
00001000
00010000
00100000
01000000
00010000
,
00101000
00000000
00011000
00000010
00010000
00001000
00000010
00000000
,
00000001
00001000
00000001
00001000
00000001
00000000
00000100
00000000
00001000
00000000
00010000
00000000
00100000
00000000
00000000
00000000
,
10000000
00010000
10000000
00010000
10000000
00000000
01000000
00000000
00010000
00000000
00001000
00000000
00000010
00000000
00000000
00000000
,
00000100
00000000
00000010
00000100
00000010
00000000
00000001
00000000
00000010
00000000
00001000
00000000
00010000
00000000
00001000
00000000
,
01000000
00000000
00100000
01000000
00010000
00000000
00100000
01000000
20000000
00000000
00000000
00000000
30010000
00000000
00100000
00000000
,
10000000
00100000
01000000
00010000
00001000
00010000
00100000
01000000
,
00001000
00010000
00000100
00000010
00001000
00010000
00000010
00000001
,
00000010
00000100
00001000
00010000
00001000
00000010
00000100
00001000
,
00010010
00000000
00011000
00100000
00001000
00010000
00100000
00000000
,
10000000
00010000
10000000
00010000
10000000
00000000
01000000
00000000
00010000
00000000
00001000
00000000
00000010
00000000
00000000
00000000
,
00000001
00001000
00000001
00001000
00000001
00000000
00000100
00000000
00001000
00000000
00010000
00000000
00100000
00000000
00000000
00000000
,
01000000
00000000
00100000
01000000
00100000
00000000
10000000
00000000
00100000
00000000
00010000
00000000
00001000
00000000
00010000
00000000
,
00002000
00000100
01000000
00100000
,
00023000
01000000
00000100
00030010
,
00022000
00000000
00033000
00000000
00001000
00010000
00001000
00000010
,
00000002
00000000
00000013
00000100
00001000
00000010
00000100
00000001
,
00000200
00000000
00002300
00000000
00013000
00001000
00010000
00100000
,
02000000
00000000
00000000
03000000
00100000
10000000
01000000
00100000
,
00010000
00000000
01000000
00000000
00010000
00000000
01000000
00200000
00000000
00000000
00000000
00300000
00000000
00000000
00000000
00000000
,
10000000
00000000
00100000
00000000
10000000
00000000
01000000
20000000
00000000
00000000
00000000
30000000
00000000
00000000
00000000
00000000
,
01000000
00000000
00100000
01000000
00000000
00000000
00100000
00000000
01000000
00000000
00010000
00000000
00001000
00000000
00010000
00000000
,
00000100
00000000
00000010
00000200
00000000
00000000
00000000
00000000
00000300
00000000
00000000
00000000
00001000
00000000
00000100
00000000
,
00000001
00000100
00000010
00001000
00010000
00001000
00000100
00000010
,
00010000
00001000
00100000
01000000
00010000
00001000
01000000
10000000
,
01000000
00100000
00010000
00001000
00010000
01000000
00100000
00010000
,
01001000
00000000
00011000
00000100
00010000
00001000
00000010
00000000
,
00000001
00001000
00000100
00001000
00000001
00000000
00000010
00000000
00001000
00000000
00010000
00000000
01000000
00000000
00000000
00000000
,
10000000
00010000
01000000
00010000
10000000
00000000
00100000
00000000
00010000
00000000
00001000
00000000
00000100
00000000
00000000
00000000
,
00000010
00000000
00000100
00000010
00000100
00000000
00000001
00000000
00000100
00000000
00001000
00000000
00010000
00000000
00001000
00000000
,
00020000
01000000
00000100
00030010
,
00011000
00000000
00000000
00010100
00000000
00000000
00011000
00000000
00010000
00000000
00001000
00010000
00001000
00000000
01000000
00010000
,
01000000
00000000
00000000
00100000
00000000
00000000
00010000
00000000
00100000
00000000
10000000
00000000
00010000
00000000
10000000
00000000
,
01000000
00000000
00000000
00010000
00000000
00000000
00001000
00000000
00010000
00000000
01000000
00000000
00100000
00000000
00001000
00000000
,
00010000
00000000
00000000
00000010
00000000
00000000
00010000
00000000
00001000
00000000
00000100
00000000
00000001
00000000
00000100
00000000
,
00000010
00001000
00000000
00000010
00001000
00000000
00000001
00000010
00000000
00000000
00000100
00000000
00001000
00000001
00001000
00000000
,
00000001
00000000
00000000
00000010
00000000
00000000
00001000
00000000
00010000
00000000
00000010
00000000
00000100
00000000
00000001
00000000
,
00000100
00000000
00000000
00001000
00000000
00000000
00010000
00000000
01000000
00000000
00100000
00000000
01000000
00000000
10000000
00000000
,
01000000
00000000
00000000
00010000
00000000
00000000
00001000
00000000
00000010
00000000
00000100
00000000
00000010
00000000
00000001
00000000
,
00000100
00000001
00000000
00000100
00000001
00000000
00000010
00000100
00000000
00001000
00000010
00001000
00000010
00000000
00010000
00001000
,
00000000
00000000
00100000
00000000
00000000
00010000
00000000
00000000
02002000
00000000
00000000
00000000
00000000
00000000
00000000
00000000
,
03003000
00000000
00000000
00000000
;
