#TITLE:Shake That!;
#SUBTITLE:;
#ARTIST:Scooter;
#TITLETRANSLIT:;
#SUBTITLETRANSLIT:;
#ARTISTTRANSLIT:;
#GENRE:;
#CREDIT:;
#MUSIC:Shake That.ogg;
#BANNER:;
#BACKGROUND:;
#CDTITLE:;
#SAMPLESTART:58.964;
#SAMPLELENGTH:13.962;
#SELECTABLE:YES;
#OFFSET:0.923;
#BPMS:0.000=130.000;
#STOPS:;
#BGCHANGES:2.000=Shake That.mp4=1.000=0=0=1,
99999.000=-nosongbg-=1.000=0=0=0=StretchNoLoop====
;
#FGCHANGES:;

//--------------- dance-single - OrangeRight ----------------
#NOTES:
     dance-single:
     OrangeRight:
     Beginner:
     3:
     0,0,0,0,0:
0000
0000
0000
0000
,
0000
0000
0000
0000
,
0000
0000
0000
0000
,
0000
0000
0000
0000
,
0000
0000
0000
0000
,
1000
0000
0000
0000
,
0001
0000
0000
0000
,
1000
0000
0000
0000
,
0001
0000
0000
0000
,
1000
0000
0100
0000
,
1000
0000
0100
0000
,
0010
0000
0001
0000
,
0010
0000
0001
0000
,
1000
0000
0001
0000
,
0000
0000
0100
0000
,
0001
0000
1000
0000
,
0000
0000
0100
0000
,
1000
0000
0010
0000
,
1000
0000
0010
0000
,
0100
0000
0001
0000
,
1000
0000
1001
0000
,
0001
0000
0010
0000
,
0001
0000
0010
0000
,
0100
0000
1000
0000
,
0001
0000
1000
0000
,
2002
0000
3003
0000
,
0000
0000
1000
0000
,
0001
0000
0000
0000
,
0100
0000
0000
0000
,
0001
0001
0000
0000
,
1000
1000
0000
0000
,
0100
0000
0000
0000
,
0010
0000
1001
0000
,
1000
1000
0000
0000
,
0001
0001
0000
0100
,
0100
0000
0010
0000
,
1000
0000
1000
0000
,
0001
0001
0000
0000
,
1000
1000
0000
0100
,
0100
0000
0010
0000
,
0001
0000
0001
0000
,
1000
0000
0000
0000
,
0001
0000
0000
0000
,
0100
0000
0000
0000
,
0100
0000
0000
0000
,
0001
0000
0000
0000
,
1000
0000
0000
0000
,
0100
0000
0000
0000
,
0100
0000
0000
0000
,
1000
0000
0100
0000
,
1000
0000
0100
0000
,
0010
0000
0001
0000
,
0100
0000
0010
0000
,
1000
0000
1000
0000
,
0001
0000
0001
0000
,
1000
0000
0001
0000
,
1000
0001
1000
0000
,
0001
1000
0000
0000
,
1000
0001
0000
0010
,
0010
0000
0100
0000
,
1000
0000
0001
0000
,
1000
0001
0000
0000
,
0001
1000
0000
0010
,
0010
0000
1000
0001
,
1000
0000
1001
0000
;

//--------------- dance-single - OrangeRight ----------------
#NOTES:
     dance-single:
     OrangeRight:
     Easy:
     5:
     0,0,0,0,0:
0000
0000
0000
0000
,
0000
0000
0000
0000
,
0000
0000
0000
0000
,
0000
0000
0000
0000
,
0000
0000
0000
0000
,
1000
0000
0001
0001
,
0100
0000
0010
0010
,
1000
1000
0001
0001
,
1000
0100
0010
0001
,
1000
1000
0010
0000
,
0100
0100
0001
0000
,
1000
0001
1000
0000
,
0001
0010
0100
0000
,
1000
0001
1000
0001
,
0100
0010
2000
3000
,
0001
1000
0100
0010
,
0001
0100
1000
0100
,
0001
0001
1000
0000
,
1000
1000
0001
0000
,
0001
0100
0010
1000
,
0100
0010
1001
0000
,
1000
1000
0001
0100
,
0001
0100
0010
1000
,
0001
0001
1000
0100
,
0110
0000
1001
0000
,
2000
0000
0000
3000
,
0002
0000
0000
0003
,
0200
0300
0200
0300
,
0020
0030
2000
3000
,
0001
0001
0000
0000
,
1000
1000
0000
0001
,
0100
0000
0010
0000
,
1000
0000
1001
1001
,
1000
1000
0001
0010
,
0001
0001
1000
0010
,
1000
0001
0001
1000
,
0010
0100
0001
1000
,
0001
0001
1000
0100
,
1000
1000
0001
0100
,
0010
0100
0100
0010
,
1000
0100
0010
0001
,
2002
0000
3003
0000
,
1000
0010
2000
3000
,
0001
0010
0100
2000
,
3000
1000
0002
0003
,
1000
0010
1000
0010
,
0200
0300
0100
0001
,
0020
0030
0200
0300
,
2002
3003
0000
0001
,
1000
0100
1000
0100
,
0010
0001
0100
0000
,
0001
0100
0010
0100
,
0001
1000
0100
0000
,
1000
1000
0001
0001
,
1000
1000
0001
0001
,
0100
0010
0100
0010
,
1000
0001
1001
1001
,
1000
1000
0010
0100
,
0001
0001
0010
0100
,
1000
0001
0001
1000
,
0010
0100
0001
1000
,
0100
0100
0010
0001
,
0100
0100
0010
1000
,
0001
1000
1000
0001
,
1000
0000
0000
0000
0100
0000
0000
0000
0010
0000
0000
0001
0000
0000
0100
0000
;

//--------------- dance-single - OrangeRight ----------------
#NOTES:
     dance-single:
     OrangeRight:
     Medium:
     7:
     0,0,0,0,0:
0000
0000
0000
0000
,
0000
0000
0000
0000
,
0000
0000
0000
0000
,
0000
0000
0000
0000
,
0000
0000
0000
0000
,
1000
0000
1000
0000
0001
0001
0001
0000
,
0100
0000
0100
0000
0010
0010
0010
0000
,
1000
0001
1000
0001
,
0010
0000
0000
0000
0100
0000
0000
0000
1000
0000
0000
1000
0000
0000
0001
0000
,
1000
0100
1000
0000
0010
0000
0100
0000
,
0001
1000
0001
0000
0010
0000
0100
0000
,
1000
0001
0100
0000
0010
0000
1000
0100
,
0010
0100
1000
0000
0001
0100
0001
0000
,
1000
0001
1000
0001
,
1000
0100
0010
0001
0100
0000
0100
0000
,
0001
0000
1000
0000
0010
1000
0010
0000
,
1000
0000
0100
0000
0001
0100
1000
0000
,
1000
1010
0001
0011
,
1000
0000
0000
0000
1100
0000
0000
1000
0000
0000
0001
0000
0100
0000
0000
0000
,
0001
0011
1000
1010
,
0001
0000
0000
0000
0101
0000
0000
0001
0000
0000
1000
0000
0100
0000
0000
0000
,
1000
0000
0001
0000
0010
0100
1000
0000
,
0010
1000
0001
1000
0010
0000
1000
0000
,
0001
0000
1000
0000
0100
0010
0001
0000
,
2002
0000
3003
0000
0000
1000
0001
0000
,
1000
0100
2000
0000
0000
0000
3000
0000
,
0001
0100
0002
0000
0003
0000
1000
0000
,
1001
2002
3003
0100
,
0110
0220
0330
0010
,
1000
0010
2000
0000
0000
0000
3001
0000
,
0001
0010
0002
0000
0000
0000
1003
0000
,
1010
2020
3030
0100
,
0101
0101
0010
1001
,
1000
0100
1000
0000
1000
0001
1000
0000
,
0001
0100
0001
0000
0001
1000
0100
0000
,
1100
1100
0001
0001
,
0101
0000
0101
0000
1000
0001
1000
0000
,
0001
0100
0001
0000
0001
1000
0001
0000
,
1000
0100
1000
0000
1000
0001
0010
0000
,
0011
0011
1000
1000
,
1010
0000
0000
0000
1010
0000
0000
0000
1000
0000
0000
0001
0000
0000
2002
0000
,
0000
0000
3003
0000
1000
0001
1000
0000
,
0001
0100
0020
0030
,
1000
0100
0010
0002
,
0003
1000
0001
0000
,
1000
0010
0100
0100
,
0001
0010
0100
0100
,
1000
0001
0100
0010
,
2002
0000
3003
0000
1000
0001
1000
0000
,
0001
0000
0100
0010
0100
0000
0001
1000
,
0001
0000
0010
0100
0010
0000
0001
0000
,
1000
0000
0000
0010
0000
0000
1000
0000
0001
0000
0000
0010
0000
0000
0001
0000
,
1000
0000
0000
0100
0000
0000
0010
0000
0002
0000
0000
0000
1003
0000
0000
0000
,
2000
3002
2003
3002
,
0203
0320
0230
0320
,
1030
1000
0001
0001
1000
1000
0001
0001
,
0010
0100
1000
0001
0100
0000
1001
0000
,
1000
0010
1000
0000
0001
0010
0001
0000
,
1000
0100
1000
0000
0001
0100
0010
0000
,
1010
1010
0001
0001
,
0011
0000
0011
0000
0001
1000
0100
0000
,
1000
0100
1000
0000
0001
0100
0001
0000
,
1000
0010
1000
0000
0001
0010
0100
0000
,
1100
1100
0001
0001
,
0101
0000
0000
0000
0101
0000
0000
0000
0001
0000
0000
1000
0000
0000
1001
0000
;

//--------------- dance-single - OrangeRight ----------------
#NOTES:
     dance-single:
     OrangeRight:
     Hard:
     12:
     0,0,0,0,0:
0000
0000
0000
0000
,
0000
0000
0000
0000
,
0000
0000
0000
0000
,
0000
0000
0000
0000
,
0000
0000
0000
0000
,
1000
0010
0100
0001
1000
0001
0001
0000
,
0001
0010
0100
1000
0001
1000
1000
0000
,
1000
1000
0001
0001
0100
0100
0010
0010
,
0110
0000
0000
0000
1001
0000
0000
0000
0101
0000
0000
1001
0000
0000
1100
0000
,
1000
0000
0100
0000
0010
0000
0000
0000
0100
0000
1000
0000
0001
0000
0000
1000
,
0001
0000
0100
0000
0010
0000
0000
0000
0100
0000
0001
0000
1000
0000
0000
0001
,
1000
0000
0010
0000
0001
0000
0000
0000
0010
0000
1000
0000
0001
0000
0000
0001
,
1000
0100
0001
0000
0100
1000
0001
0000
,
2000
3002
2003
3002
,
1003
0010
0100
0001
0010
0100
0010
0000
,
0002
0000
0203
0000
0310
1000
0100
0000
,
0100
1000
0010
0001
0010
1000
0100
0000
,
1000
0001
1001
0000
0001
0100
0101
0000
,
0100
0000
0010
0000
1010
0000
0000
1000
0000
1000
0000
1000
0001
0000
0010
0000
,
0001
0100
0101
0000
0110
0000
1010
0000
,
0010
0000
1000
0000
1001
0000
0000
1000
0000
1000
0000
1000
0100
0000
0010
0000
,
0001
1000
0000
0000
1000
0001
0000
0000
0001
0000
0100
0000
0101
0000
0000
0000
,
1000
0000
0100
0000
1100
0000
0000
0000
1000
0000
0100
0000
0010
0001
0000
0000
,
1000
0001
0000
0000
0001
1000
0000
0000
1000
0000
0010
0000
0100
0000
0000
0000
,
0102
0000
1000
0000
0013
0001
0100
0010
,
1000
1000
2000
0000
0100
0000
3001
0000
,
0001
0001
0002
0000
0100
0000
1003
0100
,
1100
0000
0101
0000
0001
1000
0001
0000
,
0011
0000
1010
2000
0002
0000
3003
0000
,
0001
0001
0002
0000
0010
0000
1003
0000
,
1000
1000
2000
0000
0010
0000
3001
0010
,
0011
0000
1010
0000
1000
0100
0010
0001
,
0101
0000
0000
0000
1100
0000
0000
0000
1000
0001
0000
0000
0001
1000
0000
0000
,
1000
0000
0100
0000
1100
0000
0000
1000
0000
0001
1000
0000
0001
0000
0000
0000
,
0001
0000
0100
0000
0101
0000
0000
0001
0000
1000
0001
0000
0010
0000
0001
0000
,
0011
0000
0000
1010
0000
0000
1000
0000
0001
0000
0001
1000
0000
0000
0100
0000
,
1100
0000
0000
0101
0000
0000
0001
0000
1000
0000
1000
0001
0000
0000
0000
0000
,
0001
0000
0100
0000
0101
0000
0000
0001
0000
1000
0001
0000
1000
0000
0000
0000
,
1000
0000
0100
0000
1100
0000
0000
1000
0000
0001
1000
0000
0010
0000
1000
0000
,
1010
0000
0000
0011
0000
0000
0001
0000
1000
0000
1000
0001
0000
0000
0100
0000
,
0110
0000
0000
0000
1001
0000
0000
0000
1010
0000
0000
0110
0000
0000
0102
0000
,
0000
1000
1003
0000
0001
0010
0100
0000
,
1000
0001
0010
0001
0200
0000
0001
0000
,
0301
0010
0100
1000
0010
1000
0100
0000
,
1000
0010
0100
0001
2000
0000
3001
0000
,
0000
0000
1000
0000
0001
0000
1000
0000
0100
0000
0000
0100
0000
0000
0010
0000
,
0000
0000
0001
0000
1000
0000
0001
0000
0010
0000
0000
0010
0000
0000
0100
0000
,
0000
0000
0100
0000
1000
0000
0010
0000
0100
0000
0000
0001
0000
0000
1000
0000
,
2002
0000
0000
0000
3003
1000
0001
0000
,
1000
0100
1000
0001
1000
0010
0100
0001
,
1000
0001
0010
0100
1000
0001
0100
0001
,
1000
0000
0100
0000
0001
0000
0100
0000
1000
0000
0010
0000
,
0100
0000
0001
0000
1000
0000
2002
0000
0000
3003
0000
0000
,
2000
3200
0302
0203
,
2300
3020
0032
0023
,
1030
0100
0001
0100
1000
0010
0001
0010
,
1000
0001
1000
0001
1000
0000
0000
0000
0010
0100
0000
0000
0100
0010
0000
0000
,
1000
0000
0001
0000
0101
0000
0000
0100
0000
0010
0100
0000
0001
0000
0000
0000
,
0001
0000
1000
0000
1100
0000
0000
0100
0000
1000
0001
0000
0100
0000
0010
0000
,
1010
0000
0000
1100
0000
0000
0100
0000
0010
0000
0001
0100
0000
0000
0001
0000
,
0011
0000
0000
1010
0000
0000
1000
0000
0100
0000
0010
0001
0000
0000
1000
0000
,
0001
0000
1000
0000
1010
0000
0000
0010
0000
0100
0010
0000
1000
0000
0000
0000
,
1000
0000
0001
0000
0011
0000
0000
0010
0000
0001
1000
0000
0010
0000
0100
0000
,
0101
0000
0000
0011
0000
0000
0001
0000
0010
0000
0100
1000
0001
0000
0000
0000
,
0011
0000
0000
0000
1010
0000
0000
0000
1100
0000
0000
0101
0000
0000
1001
0000
;

//--------------- dance-single - OrangeRight ----------------
#NOTES:
     dance-single:
     OrangeRight:
     Challenge:
     15:
     0,0,0,0,0:
0000
0000
0000
0000
,
0000
0000
0000
0000
,
0000
0000
0000
0000
,
0000
0000
0000
0000
,
0000
0000
0000
0000
,
1000
0000
0000
0100
1000
0100
1000
0000
0000
0010
0000
0000
0100
0000
0000
0001
0000
0000
0101
0000
0000
0000
0000
0000
,
0001
0000
0000
0010
0001
0010
0001
0000
0000
0100
0000
0000
0010
0000
0000
1000
0000
0000
1001
0000
0000
0000
0000
0000
,
1000
1000
0001
0001
1000
1000
0001
0001
,
1000
0100
1000
0100
0010
0001
0010
0001
1000
0000
0000
1010
0000
0000
0101
0000
,
0001
0000
0010
0000
0001
0000
1000
0001
1000
0000
0010
0000
1000
0000
0001
1000
,
0001
0000
0100
0000
0001
0000
1000
0001
1000
0000
0100
0000
1000
0000
0001
1000
,
0001
0000
0001
0000
0100
0000
0010
1000
0001
0000
1000
0000
0100
0000
1000
0001
,
1000
0000
1000
0000
0010
0000
0100
0001
1000
0000
0001
0000
0010
0000
0100
0000
,
1100
0101
1100
0101
,
0001
0010
0100
2100
0000
3001
1000
0001
,
0011
0000
1010
0000
1000
0001
1001
0000
,
1000
0100
0001
0010
0001
0100
1100
0000
,
1000
0010
1000
0000
0001
0000
1000
0000
0100
0000
0010
0000
0011
0000
0000
0000
,
0001
0100
0001
0000
1000
0000
0100
1000
0000
1000
0000
1000
0001
0000
1000
0000
,
0001
0100
0000
0100
0010
0000
1000
0000
1001
0000
0001
0000
0011
0000
0010
0000
,
0110
0000
0100
1000
0001
0000
0100
0010
0000
0010
0000
0010
1000
0000
0100
0000
,
1000
0010
0000
0000
0100
0001
0000
0000
1000
0100
1000
0100
1000
0000
0001
0000
,
0010
0100
0010
0100
0010
0000
0001
0000
0100
0000
0010
0000
1000
0001
0000
0000
,
0001
0010
0000
0000
0100
1000
0000
0000
0010
0100
0010
0100
0010
0000
0000
0000
,
1001
0000
0000
0000
1000
0000
0001
0000
1000
0100
0000
0100
0010
0000
0001
0000
,
0011
0001
0101
0000
0100
0010
1000
0000
,
1100
1000
1010
0000
1000
0001
0100
0001
,
0101
0000
0000
1100
0000
0000
1000
0000
0001
0000
0001
1000
0000
0000
1000
0000
,
1010
0000
0000
0011
0000
0000
0001
0010
0100
2000
0000
0000
3100
0000
0000
0000
,
1000
0000
1100
0000
1100
0000
0000
1000
0000
0001
0100
0000
0001
0000
0000
0000
,
0001
0000
0101
0000
0101
0000
0000
0001
0000
1000
0010
0000
1000
0000
0010
0000
,
1010
0000
0000
0011
0000
0000
0001
0000
1000
0000
1000
0001
0000
0000
0100
0000
,
0101
0000
0000
1100
0000
0000
1000
0000
0001
1000
0000
0000
1000
0001
0000
0000
,
1000
0000
1000
0000
1000
0100
0010
0001
0000
1000
0001
0000
0101
0000
0100
0000
,
0001
0000
0001
0000
0001
0010
0100
1000
0000
1000
0010
1000
0001
0000
1000
0000
,
1100
0000
1000
0010
0100
0000
0100
0010
1000
0001
1000
0001
1000
0000
0001
0000
,
0101
0000
0001
0010
0100
0000
0100
0010
0001
1000
0001
1000
0001
0000
1000
0000
,
0100
0000
0100
0000
0100
0010
0001
1000
0000
1000
0010
0000
1010
0000
1000
0000
,
0010
0000
0010
0000
0010
1000
0100
0010
0000
0010
0001
1000
0001
0000
1000
0000
,
1001
0000
0001
0010
0100
0000
0100
0010
0001
1000
0010
0100
0001
0000
1000
0000
,
1100
0000
0010
0000
0101
0000
0000
0000
1001
0000
0000
0110
0000
0000
1001
0000
,
0000
1000
1000
0000
0001
0001
0001
0000
,
1000
0001
0010
0001
0200
0000
0010
0000
,
1300
0100
0001
0010
0100
1000
1010
0000
,
1000
0100
0001
0100
1000
0001
1000
0001
,
0000
0000
0100
0000
0001
0000
1000
0000
0100
0000
0000
0100
0000
0000
1000
0000
,
0000
0000
0010
0000
1000
0000
0001
0000
0010
0000
0000
0010
0000
0000
0001
0000
,
0000
0000
0100
0000
0001
0000
0010
0000
0100
0000
0000
1000
0000
0000
0001
0000
,
2002
0000
0000
0000
0000
0000
0000
0000
3003
0000
0001
0100
0010
1000
0000
0000
,
1010
0000
0010
0000
1000
0000
0100
0010
0001
0000
0010
0000
0001
0000
0100
0010
,
1000
0000
0100
0000
0010
0000
0100
1000
0001
0000
0100
0000
0010
0000
0100
0001
,
1000
0000
1010
0000
0011
0000
0101
0000
0110
0000
1010
0000
,
1100
0000
0000
0000
0000
0000
0000
0000
0101
0000
0000
0000
0000
0000
0000
0000
1100
0000
0000
0000
0000
0000
0000
0000
1000
0000
0000
0000
0000
0000
0010
0000
0000
0000
0000
0000
0100
0000
0000
0000
0000
0000
0001
0000
0000
1000
0000
0000
,
0002
1000
2003
0001
3002
0010
2003
0010
,
3002
0100
2003
0100
3020
0100
0230
0001
,
0301
0010
1000
0010
0001
0100
1000
0100
,
0001
0010
0100
1000
0010
0100
0001
0010
0001
1000
0000
0000
1000
0001
0000
0000
,
1000
0000
1000
0000
1000
0010
0100
0001
0000
1000
0001
0000
0011
0000
0010
0000
,
0001
0000
0001
0000
0001
0100
0010
1000
0000
1000
0100
1000
0001
0000
1000
0000
,
1001
0000
1000
0001
0100
0000
0001
1000
0100
0010
0100
1000
0010
0000
1000
0000
,
1001
0000
0001
1000
0100
0000
1000
0001
0100
0010
0100
0001
0010
0000
0001
0000
,
0100
0000
0100
0000
0100
0010
1000
0001
0000
0001
0010
0000
0011
0000
0001
0000
,
0010
0000
0010
0000
0010
0100
1000
0010
0000
0010
0100
0001
1000
0000
0001
0000
,
0011
0000
0001
1000
0010
0000
0010
1000
0001
0010
0100
1000
0001
0000
1000
0000
,
1010
0000
0100
0000
0011
0000
0000
0000
0110
0000
0000
1001
0000
0000
0110
0000
;
