#VERSION:0.83;
#TITLE:Sargasso;
#SUBTITLE:;
#ARTIST:Aoi;
#TITLETRANSLIT:;
#SUBTITLETRANSLIT:;
#ARTISTTRANSLIT:;
#GENRE:;
#CREDIT:valgrind;
#MUSIC:sargasso.ogg;
#BANNER:sargasso-bn.png;
#BACKGROUND:sargasso-bg.png;
#CDTITLE:cdtitle.png;
#SAMPLESTART:46.981;
#SAMPLELENGTH:10.971;
#SELECTABLE:YES;
#OFFSET:1.019;
#BPMS:0.000=175.000;
#STOPS:;
#SCROLLS:0.000=0.500,
31.000=0.600,
31.250=0.700,
31.500=0.800,
31.750=0.900,
32.000=1.000,
64.000=400.000,
64.021=0.000,
65.500=0.200,
65.750=0.400,
66.000=0.600,
66.250=0.800,
66.500=1.000,
218.250=0.800,
218.500=0.700,
218.750=0.600,
219.000=0.500,
236.500=0.525,
237.000=0.550,
237.500=0.575,
238.000=0.600,
238.500=0.625,
239.000=0.650,
239.500=0.675,
240.000=0.700,
240.500=0.725,
241.000=0.750,
241.500=0.775,
242.000=0.800,
242.500=0.825,
243.000=0.850,
243.500=0.875,
244.000=0.900,
244.500=0.925,
245.000=0.950,
245.500=0.975,
246.000=1.000
;
#LABELS:0.000=notes for CSP19,
20.000=so many rhythms in the BG,
20.125=which one to follow?,
32.000=the answer?,
32.125=the one that leads into the jump,
36.000=warm-up a little bit,
36.125=cute FS patterns,
42.750=escalate with candle patterns,
52.000=make em push a bit,
60.750=i had to do it,
61.000=this FS pattern is so cash,
62.000=yeah. it's a 19. get ready,
75.000=4 chainzzzzzz,
77.000=start the tech soft,
77.125=inward DS on the glitch effect,
83.000=balance foot parity,
83.250=also UD DS to emphasize,
83.375=the 4th beat,
92.000=warmed up? get ready,
94.000=hard drop,
100.375=at least this rhythm's at the,
100.500=start for PFC grinders,
100.625=sorry,
100.750=FEC grinders,
108.000=alright now calm again,
108.125=regain lifebar,
109.500=the hottest FS to computer sound,
112.500=more candly on high pitch sounds,
116.000=oop,
120.000=KS or XO? you decide,
126.750=BR or JU? you decide,
140.000=this is the memorable part,
140.125=you're gonna remember these SS,
145.750=higher pitch gets the SS,
147.500=except here to lead in,
147.625=to next pattern,
148.000=also lowkey the hardest section,
148.125=first half drop goes harder,
148.250=so seeeeeend it,
148.375=least you're doing this while,
148.500=your legs are fresh,
154.500=gallop FS chain to vocals,
160.500=big SS cause really hi pitch,
167.250=DS on sharp drum kick,
169.750=kind of a cool lead-in,
169.875=to the box to the vocals,
170.000=feels more airy,
172.000=rest. you need it.,
172.125=but no lifebar regain :3,
183.500=SS jump to emphasize massive hit,
188.000=last push so really send it,
191.500=extended XO (thanks tech alert),
198.000=break up FS motif with,
198.125=double chain to drums,
199.500=opp. direction as extended XO,
199.625=for foot parity/emphasis,
202.500=izayoi SX15 does this,
202.625=don't @ me,
203.000=recenter with candle to beep,
203.500=big rest,
232.000=oop,
232.125=mine to avoid pattern cheat,
252.000=repeat warm-up,
270.000=bursts?,
270.125=you had 11 rest measures,
270.250=take it,
274.000=big wait before nasty section,
276.000=not extended,
276.125=very pitch-relevant too,
284.000=so real talk,
284.125=1st drop goes harder than 2nd,
284.250=how to escalate difficulty?,
290.000=the answer?,
290.125=mods,
297.000=and harder XO,
316.000=call back to 1st section,
319.000=FS to swap direction,
319.125=(not possible with SS cleanly),
320.000=yeeeeah push it,
336.500=BR cheatable for energy,
340.000=last push,
340.125=exsch taught me FS are free,
348.000=i love climax theory,
356.000=oop,
357.000=i love gorgetech,
366.000=foot parity,
366.125=also don't worry about the acid,
366.250=rhythm in the BG,
366.375=too soft,
366.500=with the beep motif,
370.750=drop it,
370.875=the hanging FS,
374.000=steppy bursts for last push,
375.500=keeps foot parity,
375.625=same note adds intensity,
388.000=clean as hell last note,
388.125=name a 19 that does this,
388.250=you can't,
388.375=gimme 5 baybee
;
#BGCHANGES:;
#FGCHANGES:0.000=lua=1.000=0=0=1;

//--------------- dance-single - [FX-] JA- ----------------
#NOTEDATA:;
#STEPSTYPE:dance-single;
#DESCRIPTION:[FX-] JA-;
#DIFFICULTY:Beginner;
#METER:9;
#RADARVALUES:0,0,0,0,0;
#CREDIT:valgrind | 9 |;
#CHARTNAME:the wisest choice;
#NOTES:
0000
0000
0000
0000
,
0000
0000
0000
0000
,
0000
0000
0000
0000
,
0000
0000
0000
0000
,
0000
0000
0000
0000
,
0002
0000
0003
0000
,
1000
0000
0000
0000
,
0100
0000
0000
0000
,
0020
0000
0000
0000
0000
0000
0000
0030
,
0001
0000
0100
0001
,
1000
0000
0001
0010
,
0100
0000
0010
0001
,
0100
0000
0020
0030
,
1000
0000
0000
1000
0000
0000
0001
0000
,
0000
0001
0000
0000
0010
0000
0000
0010
,
0001
0100
0010
1000
,
0100
0000
0000
0000
0000
0220
0000
0000
,
0330
0000
0000
0000
,
0002
0000
1003
0100
,
1000
0001
0100
0001
,
0010
0001
1000
1000
,
0001
1000
0010
1000
,
0100
0010
0010
0100
,
1002
0000
0000
0003
2200
0000
3300
0000
,
0202
0303
1000
1000
,
0001
0100
0001
0010
,
0100
0100
0100
0000
2000
0000
3001
0000
,
1000
0001
0010
0001
,
0100
0001
1000
1000
,
0010
1001
1000
0001
,
0010
0000
0000
0010
0000
0000
0010
0000
,
0001
0000
0100
0000
0010
0000
0000
0010
,
1000
0000
0100
0000
0010
0000
0000
0010
,
0001
0100
0010
1000
,
0002
0000
0000
0003
,
1000
0100
1000
0000
0001
0000
0010
0000
,
0100
1000
0010
1000
,
0001
0100
0001
0000
0010
0000
0100
0000
,
1000
0001
0100
0100
,
0001
0010
0001
0000
1000
0000
0100
0000
,
1000
0010
1000
0000
0001
0000
0100
0000
,
0001
0000
1000
0000
0100
0000
0000
0100
,
0020
0030
0001
1000
,
2002
0000
0000
0000
,
0000
3003
0000
0000
,
0001
0010
0001
0000
0100
0000
0010
2000
,
0000
3100
0100
0010
,
0001
1000
0001
0000
1000
0000
0010
0100
,
0010
0000
1000
0100
1000
0000
0001
0000
,
0010
0100
0010
0000
0001
0000
0100
0020
,
0000
0000
1030
0000
0100
0000
2000
0002
,
0000
0000
0000
0000
,
0000
0000
0000
0000
,
0000
0000
0000
0000
,
0000
0000
3003
0000
,
1000
0000
0000
0000
,
0100
0000
0000
0000
,
0010
0000
0000
0000
,
0001
0000
0000
0000
,
2000
0000
0000
3000
,
0020
0000
0000
0030
,
0200
0000
0000
0300
,
0002
0000
0000
0003
,
1000
0000
0010
1000
,
0001
0000
1000
0100
,
0010
0000
0100
1000
,
0010
0000
0200
0300
,
0001
0000
0000
0001
2000
0000
3100
0000
,
1000
0000
0000
1000
0020
0000
0030
0000
,
0100
0001
0100
0000
0010
1000
0010
0000
,
1000
0001
0001
0000
0010
0000
0110
0000
,
0002
0000
0000
0000
,
0000
0000
0003
0000
,
1000
0100
1000
0001
,
0100
0000
0001
0010
0001
0000
1000
0000
,
0100
0010
0001
0100
,
0010
1000
0010
0100
,
0001
0000
0100
0000
0001
0000
1000
0100
,
1000
0000
0010
0100
0010
0000
1000
0000
,
0002
0000
0003
0002
0000
0003
0001
0000
,
0010
0100
0010
0000
0001
0000
1000
0000
,
0001
0100
0001
1000
,
0100
0000
1000
0010
1000
0000
0001
0000
,
0100
0000
0010
0000
1000
0000
0100
0010
,
0000
0001
0000
0100
0000
0001
1000
0000
,
0001
0000
1000
0010
1000
0000
0001
0010
,
0001
0000
1000
0100
1000
0000
0001
0010
,
0001
1000
0000
0001
0100
0000
0010
2000
,
0000
0000
3000
0002
0000
0000
0003
0000
,
0000
1000
1000
0001
,
0001
0000
0010
0000
0010
0000
0001
0001
,
1000
0001
0001
0000
0100
0000
0100
0100
,
0010
0000
2000
0000
0000
3000
0100
0000
,
2001
0000
3000
0000
0201
0000
0300
1200
,
0000
0300
0201
0000
0301
1000
0001
0000
,
1020
0000
0030
0021
0000
0030
1020
0000
,
0030
0000
0100
0010
,
1001
0000
0000
0000
;

//--------------- dance-single - [FX-] DS XO JU ----------------
#NOTEDATA:;
#STEPSTYPE:dance-single;
#DESCRIPTION:[FX-] DS XO JU;
#DIFFICULTY:Easy;
#METER:13;
#RADARVALUES:0,0,0,0,0;
#CREDIT:valgrind | 13 |;
#CHARTNAME:i can add 16ths now thank god;
#NOTES:
0000
0000
0000
0000
,
0000
0000
0000
0000
,
0000
0000
0000
0000
,
0000
0000
0000
0000
,
0000
0000
0000
0000
,
0002
0000
0000
0000
,
2003
0000
0000
0000
,
3200
0000
0000
0300
,
0010
0000
0000
0100
0000
0000
0010
0000
0000
0001
0000
0000
1000
0000
0000
0000
,
0001
0000
1000
0010
1000
0000
0001
0010
,
0100
0000
1000
0001
0010
0000
0001
0100
,
0010
0000
1000
0010
0100
0000
0010
1000
,
0100
0000
1000
0001
0200
0000
0000
0000
,
0301
0000
0000
0001
0000
0000
1000
0000
0000
1000
0000
0000
0100
0000
0000
0100
,
0000
0000
0010
0000
0000
0010
0000
0000
0001
0000
0000
0001
0000
0000
1000
0000
,
0010
0000
0100
0000
0010
0000
1000
0000
0001
0000
1000
0100
0000
0010
0001
0000
,
1000
0000
0000
0000
0000
0220
0000
0330
,
0000
0000
0000
0000
,
1002
0000
0000
0000
1003
0100
0010
0010
,
0001
0000
0100
0010
1000
0000
0100
0010
,
0001
0000
0100
0001
0010
0100
2000
3001
,
1000
0000
0010
0100
0001
0000
0010
0100
,
1000
0000
0010
0000
1000
0000
0000
0001
0000
0001
0000
0000
0100
0000
0000
0000
,
0210
0000
0000
0000
0000
0000
0000
0000
0301
0000
1000
0100
0000
0000
0100
0000
,
1000
0000
0001
0100
0000
0000
0100
0000
0010
0000
0000
0010
0000
0000
0010
0000
,
1000
0000
0001
0020
0000
0000
0100
0000
0031
0000
1000
0020
0000
0000
0130
0000
,
0001
0001
0001
0000
1000
0000
0100
0000
,
1001
0000
1000
0100
0010
0001
1000
0010
,
0100
1000
0100
0010
1000
0001
0010
0001
,
0100
0000
1001
0000
0001
0010
0100
1000
,
0010
0000
0000
0010
0000
0000
0010
0000
0000
0010
0000
0000
0200
0000
0000
0300
,
0001
0000
0100
0000
1000
0000
0000
0000
0100
0000
0000
0010
0000
0000
1000
0000
,
0001
0000
0010
0000
1000
0000
0000
0000
0010
0000
0000
0100
0000
0000
0010
0000
,
0001
1000
0010
0100
0001
0010
0100
1000
,
0001
0000
0000
0000
,
1000
0000
0000
0100
0000
0000
1000
0000
0000
0010
0000
0000
0100
0000
0001
0000
,
1000
0000
0000
0000
0100
0000
1000
0001
0000
0000
0010
0000
0001
0000
0100
0000
,
0010
0000
0000
1000
0000
0000
0100
0000
0000
1000
0000
0000
0001
0000
0100
0000
,
0010
0000
1000
0001
0100
0100
0010
1000
,
0001
0000
0000
0100
0000
0000
0001
0000
0000
0010
0000
0000
0100
0000
1000
0000
,
0010
0000
0001
0000
0000
0010
0000
0000
0100
0000
0001
0000
0000
0000
1000
0000
,
2010
0000
0000
3001
0000
0000
0010
0000
2100
0000
0000
3010
0000
0000
0100
0000
,
0102
0000
1003
0001
0010
0100
1000
0001
,
0200
0000
0000
0000
,
0302
0000
0000
0000
0023
0000
0000
0000
0230
0000
0000
2300
0000
0000
3001
0000
,
0100
0000
0000
0001
0000
0000
0010
0000
0000
0100
0000
1000
0001
0000
1002
0000
,
0000
1003
1000
0001
1000
0010
0100
0001
,
0010
0000
0000
0100
0000
0000
1000
0000
0000
0010
0000
0000
0100
0000
1000
0000
,
0100
0000
0001
0010
1000
0010
0100
1000
,
0001
0000
0100
0000
0010
0000
1000
0000
0100
0010
0000
0100
1000
0000
0012
0000
,
0000
1003
0001
0100
0010
1000
0200
0020
,
0000
0000
0000
0000
,
0000
0000
0000
0000
,
0000
0000
0000
0000
,
0000
0000
0330
0000
,
0001
0000
0000
0000
,
1000
0000
0000
0000
,
0010
0000
0000
0000
,
0100
0000
0000
0000
,
0002
0000
0000
0000
,
0023
0000
0000
0000
,
0230
0000
2300
0000
,
3010
0000
0100
0001
1000
0100
0010
0001
,
1000
0000
0001
0010
0001
0000
1000
0010
,
0100
0000
0001
1000
0010
0000
1000
0100
,
0010
0000
0001
0010
0100
0000
0010
0001
,
0100
0000
0001
1000
0200
0000
0000
0000
,
1300
0000
0000
1000
0000
0000
0001
0000
0000
0001
0000
0000
0200
0000
0000
0000
,
0301
0000
0000
0001
0000
0000
0010
0000
0200
0000
0000
0000
0300
0000
0000
0000
,
1000
0000
0010
0000
1000
0000
0100
0000
0010
0000
0001
0010
0000
0100
1000
0000
,
0001
1000
1000
0010
0100
0001
0010
0000
,
2002
0000
0000
0000
,
0000
0000
3003
0000
,
0001
0000
0010
0000
0001
0000
1000
0000
0010
0000
0000
0100
0000
0000
0002
0000
,
0000
0013
0100
0001
0100
1000
0001
0100
,
0010
0000
0000
0000
1000
0000
0010
0000
1000
0000
0000
0100
0000
0000
0020
0000
,
0000
1030
0010
0100
1000
0001
0100
0010
,
1000
0000
0001
0100
0001
1000
0100
0020
,
0000
0031
0100
1000
0100
0010
1000
0001
,
0100
0000
0001
1000
0001
0000
0100
0000
0001
1000
0001
0000
0100
0000
0001
1000
,
0001
0000
1000
0100
1000
0000
0001
0000
1000
0100
1000
0000
0010
0000
0100
0000
,
0001
0000
0000
0000
1000
0000
0001
0000
0010
0000
0000
0100
0000
0000
2000
0000
,
0000
3010
0100
1000
0100
0001
1000
0100
,
0010
0000
0000
0000
0001
0000
1000
0000
0010
0000
0000
0100
0000
0000
0101
0000
,
0000
1010
0000
1100
0000
0011
0001
1000
,
0010
0100
0010
1000
0001
0010
1000
0010
,
0001
1000
0100
1000
0010
0001
0010
0100
,
0001
1000
0001
0000
1000
0100
0000
0010
0001
0000
1000
0000
0010
0000
0002
0000
,
0000
0013
0100
0002
0000
1003
0010
0100
,
M000
0101
0101
1100
,
1100
0000
0011
0000
0011
0000
1010
1000
,
0100
0010
0110
0000
0110
0000
1001
0001
,
0100
0000
0000
0000
0010
0000
0000
0010
0000
0010
0000
0000
0100
0000
0000
0000
,
1002
0000
0000
0000
0003
0000
0000
0000
1000
0100
1000
0000
0010
0000
1000
0100
,
1000
0000
0010
0000
1000
0100
1000
0000
0001
0000
0100
0000
0010
0000
1000
0000
,
0001
0100
0001
0000
0010
0000
0001
0100
0001
0000
0010
0000
0001
1000
0001
1000
,
0001
0000
1000
0000
0100
0010
0100
0000
,
1001
0000
0000
0000
;

//--------------- dance-single - [FX] XO DS SJ ----------------
#NOTEDATA:;
#STEPSTYPE:dance-single;
#DESCRIPTION:[FX] XO DS SJ;
#DIFFICULTY:Medium;
#METER:16;
#RADARVALUES:0,0,0,0,0;
#CREDIT:valgrind | 16+ |;
#CHARTNAME:NO MA'AM DO NOT RERATE;
#NOTES:
0000
0000
0000
0000
,
0000
0000
0000
0000
,
0000
0000
0000
0000
,
0000
0000
0000
0000
,
0000
0000
0000
0000
,
0001
0000
0100
0000
,
0001
1000
0100
0000
,
0010
0000
0001
0100
,
0101
0000
0000
1010
0000
0000
0011
0000
0000
1100
0000
0000
0002
0000
0000
0000
,
1003
0000
0100
0000
0010
0000
0001
0000
1000
0000
0001
0100
0001
0000
1000
0000
,
0001
0000
0010
0000
0100
0000
1000
0000
0001
0000
1000
0100
1000
0000
0001
0000
,
0100
0000
0001
0000
1000
0000
0010
0000
1000
0000
0001
0100
0001
0000
0010
0000
,
0100
0000
1000
0000
0001
0010
0001
0000
0200
0000
0000
0320
0000
0000
2030
0000
,
3100
0000
0010
0001
0000
1000
0100
0000
0010
0001
0000
1000
0001
0000
1000
0010
,
0000
0100
0001
0000
1000
0010
0000
1000
0100
0000
0010
0001
0000
0100
0010
0100
,
0001
1000
0001
1000
0100
0010
0100
0010
0001
0000
0010
0100
0000
1000
0010
0000
,
0100
0000
0000
0000
0000
0220
0000
0330
,
0001
0010
0100
1000
,
2002
0000
0000
0000
3003
0000
0000
0000
1000
0000
0001
0000
1000
0100
1000
0100
,
0010
0000
0001
0000
0100
0000
0001
0100
0001
0000
1000
0000
0100
0000
0020
0000
,
0130
0000
1000
0000
0010
0100
0010
1000
0001
0000
0100
0000
0001
2000
0000
0000
,
3010
0000
1000
0000
0100
0000
1000
0100
1000
0000
0001
0000
0100
0000
0001
1000
,
0010
0000
0100
0001
1000
0000
0010
1000
0000
1000
0000
0100
0010
0000
0001
0000
,
1002
0000
0000
0000
0000
0000
0000
0000
0100
0000
1003
0100
0010
0001
2000
0000
,
0010
0000
3001
0010
0100
1000
0100
1000
0001
0000
0002
0100
0000
1003
0100
0000
,
0010
0100
1000
0020
0000
0000
1030
0000
0010
0100
0001
0020
0000
0000
0031
0000
,
1002
1000
1003
0010
0100
0000
0010
1000
,
0001
0000
0000
0000
1000
0000
0100
0010
0001
0000
1000
0000
0001
0000
0100
0010
,
1000
0000
0100
0010
0001
0000
1000
0000
0100
0000
1000
0001
0010
0000
0001
0100
,
0010
0000
0100
0000
1001
0000
0001
0000
0100
0000
0001
0000
1000
0100
2000
0000
,
0010
0000
3002
0010
0000
2003
0010
0000
3002
0010
0000
1003
0100
0000
0100
0000
,
0010
0000
0001
0000
0100
0000
0010
1000
0001
0000
0000
0001
0000
0000
0001
1000
,
0010
0000
1000
0000
0100
0000
0010
0001
1000
0000
0000
1000
0000
0000
1000
0000
,
0001
0000
0010
0000
0100
0000
1000
0000
0010
0000
1000
0001
0000
0100
0010
1000
,
0200
0000
0000
2300
0000
3002
0023
0032
,
0103
0000
0010
1000
0000
0001
0100
0000
0001
0010
0000
0100
1000
0000
0001
0000
,
0100
0000
0010
0000
0100
0000
0001
0010
0000
0001
1000
0000
0100
0000
0001
0000
,
0100
0000
0010
0001
0000
1000
0100
0000
1000
0001
0000
0100
0010
0000
1000
0000
,
0100
0000
0000
0000
0010
0000
0001
0010
0001
0000
1000
0000
0100
0000
1000
0000
,
0010
0000
0100
0001
0000
1000
0010
0000
1000
0100
0000
0010
0001
0000
1000
0000
,
0010
0100
1000
0000
0100
0010
0000
1000
0001
0000
0100
0000
0001
0000
1000
0000
,
0010
0000
0100
0001
0000
1000
0001
1000
0100
0000
0010
1000
0000
0010
0100
0000
,
2000
0000
0000
0000
3001
0000
0010
0000
0001
0100
0001
0100
0010
1000
0010
1000
,
0002
0000
0000
0000
,
0023
0000
0000
0000
2030
0000
0000
0000
3020
0000
0000
0230
0000
0000
1300
0000
,
0100
0000
1000
0001
0000
0100
0010
0000
1000
0010
0100
0001
0010
0000
2100
0000
,
0000
0000
3100
0000
0100
0010
0001
0010
0100
0000
1000
0000
0010
1000
0010
1000
,
0001
0000
1000
0100
0000
0010
0001
0000
0100
0001
0000
0010
0100
0000
0001
0100
,
0010
0000
0001
0000
0010
0100
1000
0010
0100
0001
1000
0000
0001
0000
0100
0001
,
0100
0000
0001
1000
0000
0100
0010
0000
0001
0010
0001
0100
0010
0000
0002
0000
,
0000
0000
0013
0000
0100
0001
0100
0000
0001
1000
0010
1000
0100
0000
0220
0000
,
0000
0000
0000
0000
,
0000
0000
0000
0000
,
0000
0000
0000
0000
,
0000
0000
0330
0000
,
1000
0000
0000
0000
,
0001
0000
0000
0000
,
0100
0000
0000
0000
,
0010
0000
0000
0000
,
2000
0000
0000
0000
,
3200
0000
0000
0000
,
0320
0000
0032
1003
,
0001
0000
0000
1000
0000
0000
0010
0000
0000
1000
0000
0000
0100
0000
0010
0000
,
0001
0000
0100
0000
0010
0000
1000
0000
0001
0000
1000
0100
1000
0000
0001
0000
,
1000
0000
0010
0000
0100
0000
0001
0000
1000
0000
0001
0100
0001
0000
1000
0000
,
0100
0000
1000
0000
0001
0000
0010
0000
0001
0000
1000
0100
1000
0000
0010
0000
,
0100
0000
0001
0000
1000
0010
1000
0000
0200
0000
0000
0320
0000
0000
0032
0000
,
0103
0000
0010
1000
0000
0001
0100
0000
0001
0010
0100
1000
0002
0000
0003
0000
,
0001
0000
0010
0100
0000
1000
0010
0000
0200
0000
0000
0000
0000
0000
0300
0000
,
0001
0010
0100
0000
1000
0010
0100
0000
0001
0000
0010
0100
0000
1000
0010
0000
,
2000
0000
0001
0000
3001
0000
1000
0010
0100
0000
0010
1000
0200
0000
0300
0000
,
1001
0000
0000
0000
,
0000
0000
0000
0000
0000
0000
0000
0000
0001
0000
0100
0010
2000
0000
0000
0000
,
3100
0000
1000
0000
0001
0000
0010
0000
0001
0000
1000
0010
0000
0100
0002
0000
,
1003
0000
0100
0010
0001
0000
0100
0010
1000
0000
0001
1000
0100
0000
0010
0000
,
0001
0000
0000
0000
0001
0000
1000
0000
0001
0000
0010
0001
0000
0100
0020
0000
,
0000
2030
3200
0320
0032
2003
3020
0230
,
0301
0000
0000
0000
0001
0000
1000
0000
0001
0000
0100
0000
0001
0010
0200
0000
,
0000
0300
1000
0100
1000
0000
0001
1000
0001
0100
0010
0000
1000
0000
0001
1000
,
0100
0000
1000
0100
1000
0001
0100
0000
0001
0100
0001
1000
0100
0000
1000
0000
,
0010
1000
0010
0100
0001
0000
1000
0001
0010
0100
2000
0000
0010
0000
3001
0000
,
0010
0000
0000
0000
1100
0000
0100
0000
1000
0000
0001
0100
0000
0010
2000
0000
,
3001
0000
0010
0100
1000
0000
0010
0100
0001
0000
1000
0001
0010
0000
0100
0000
,
1000
0000
0000
0000
1000
0000
0001
0000
1000
0000
0100
1000
0001
0000
0101
0000
,
0000
1010
0000
1100
0000
0011
0001
1000
,
0001
0000
0100
0000
0010
1000
0010
0000
1000
0001
1000
0100
0010
0000
0001
0000
,
1000
0000
0010
0000
0100
0001
0100
0010
1000
0001
0020
0000
0130
1000
0001
0000
,
1000
0001
0100
0000
0010
1000
0000
0100
0010
0001
0100
0001
1000
0010
0002
0000
,
0000
0023
0230
0302
0000
2003
3200
0310
,
MM00
0000
0011
0000
1001
0000
1100
1000
,
1001
0000
0101
0000
1001
0000
1010
0010
,
0110
0100
0101
0000
1100
0000
1001
0001
,
0010
0000
0100
1000
0001
0000
0100
0001
0000
0001
0000
0010
0100
0000
1000
0000
,
2001
0000
0000
0000
0000
0000
0000
0000
3001
0100
0010
0100
0001
0000
1000
0100
,
0010
0100
1000
0000
0001
0100
0010
0100
0001
0000
1000
0000
0010
0000
0100
0000
,
0001
0010
0100
0010
0001
0000
1000
0010
0100
0010
1000
0000
0001
0010
0100
1000
,
0001
0100
0010
1000
0100
0010
0100
0000
,
1001
0000
0000
0000
;

//--------------- dance-single - [FX] FS+ XO DS BU SJ- ----------------
#NOTEDATA:;
#STEPSTYPE:dance-single;
#DESCRIPTION:[FX] FS+ XO DS BU SJ-;
#DIFFICULTY:Hard;
#METER:18;
#RADARVALUES:0,0,0,0,0;
#CREDIT:valgrind | 18 |;
#CHARTNAME:Sargarlet Police Ghetto Patrol;
#NOTES:
0000
0000
0000
0000
,
0000
0000
0000
0000
,
0000
0000
0000
0000
,
0000
0000
0000
0000
,
0000
0000
0000
0000
,
1000
0000
0000
0001
0000
0000
0010
0000
0000
0001
0000
0000
1000
0000
0000
0000
,
0001
0000
0000
1000
0000
0000
0010
0000
0000
1000
0000
0000
0001
0000
0000
0000
,
0010
0000
0000
0100
0000
0000
0010
0000
0000
0001
0000
0000
0200
0000
0300
0000
,
0101
0000
0000
1100
0000
0000
0011
0000
0000
1010
0000
0000
0001
1000
0001
0100
,
0001
0000
1000
0100
0010
0000
0001
0000
0100
0000
0001
1000
0100
0010
0002
0000
,
1003
0000
0001
0100
0010
0000
1000
0000
0100
0000
0010
0100
1000
0001
0200
0000
,
0301
0000
1000
0010
1000
0000
0001
0000
0010
0000
0001
1000
0100
1000
0020
0000
,
1030
0000
0001
0000
0010
0100
1000
0001
2000
0000
0000
3200
0000
0000
0310
0000
,
0001
0010
0001
1000
0010
1000
0001
0100
0001
1000
0100
1000
0001
0010
0001
0100
,
0010
0100
0001
0010
0001
1000
0100
1000
0010
0100
0010
1000
0100
1000
0010
0100
,
0001
1000
0001
1000
0100
0010
0100
0010
0001
0000
1000
0010
0000
0100
0001
0000
,
1001
0000
0000
0000
0000
0220
0000
0330
,
1000
0010
0100
0001
,
1002
0000
0000
0000
0000
0000
0000
0000
1003
0000
0001
0000
0010
0100
0010
0100
,
2000
0000
0100
0000
3001
0000
0100
0010
2000
0000
0010
0000
3001
0000
0010
0100
,
2000
0000
0100
0000
3001
0010
0001
0100
0020
0000
0100
0000
1030
0000
0100
1000
,
0002
0000
0010
0000
1003
0000
0010
0100
0002
0000
0100
0000
1003
0100
0010
0001
,
0100
0000
0001
2000
0010
0000
3001
0010
0000
0010
0100
1000
0002
0000
0103
0000
,
2001
0000
0000
3000
0001
1000
0010
0100
1000
0000
0100
0001
1000
0001
0010
0000
,
1000
0000
0010
0001
1000
0010
1000
0002
0100
0000
2003
0100
0000
3001
0100
0000
,
0001
0100
0100
2000
0000
0000
3010
0000
1000
0100
0100
0002
0000
0000
0013
0000
,
2001
0001
3001
0100
0010
0000
0100
0001
,
0010
0000
0001
0000
1000
0000
0001
0010
0001
0000
1000
0010
1000
0000
0010
0100
,
0001
0000
0010
0100
1000
0000
0001
0100
0010
0000
1000
0000
0100
0000
0010
0001
,
0100
0000
0010
0000
1001
0000
1000
0000
0100
0000
0010
0001
1000
0100
2000
0000
,
0010
0000
3002
0010
0000
2003
0010
0000
3002
0010
0000
1003
0100
0010
0100
0010
,
0001
0000
0100
0000
1000
0000
0100
0010
1000
0000
0000
0101
0000
0000
1000
0010
,
1000
0001
1000
0100
0001
0000
0100
0010
0001
0000
0000
1100
0000
0000
0011
0000
,
1000
0100
1000
0100
0010
0001
0010
0001
1000
0010
1000
0001
0100
0001
0010
0100
,
1000
0000
0000
0002
0000
0023
0230
2300
,
3010
0010
0001
0100
0100
1000
0100
0100
0001
0010
0010
1000
0001
0100
0020
0000
,
1030
0000
0001
0000
1000
0100
0010
0001
0000
1000
0010
0000
1000
0000
0200
0000
,
0310
0010
1000
0010
0010
0001
0100
0100
1000
0100
0100
0001
1000
0100
0010
0000
,
0001
0000
1000
0000
0010
0000
0100
0001
0100
0010
1000
0000
0001
0000
2000
0000
,
3100
0100
0001
0010
0010
1000
0010
0010
0001
0100
0100
1000
0001
0010
0200
0000
,
0310
0001
0100
0100
1000
0010
0010
0001
1000
0010
0200
0000
0301
1000
0100
0000
,
1000
0100
0010
0001
0000
0100
0001
0000
0100
0010
1000
0100
0000
1000
0001
0000
,
0020
0000
0000
0000
0031
0000
0010
0001
1000
0010
1000
0010
0100
0001
0100
0001
,
2000
0000
0000
0000
,
3200
0000
0000
0000
0302
0000
0000
0000
0203
0000
0000
0320
0000
0000
0031
0000
,
0010
0010
1000
0100
0100
0001
0100
0100
1000
0001
0100
0010
1000
0000
2010
0000
,
0000
0000
3010
0000
0010
0100
0001
0100
0010
0000
1000
0100
1000
0001
0010
0100
,
0010
0010
1000
0010
0010
0001
0100
0100
1000
0100
0100
0010
0100
0001
0020
0000
,
0130
0000
1000
0000
0001
1000
0010
0001
0010
0100
0001
1000
0010
0000
0100
0001
,
0100
0100
1000
0010
0010
0001
0010
0010
0100
0010
0010
0001
1000
0100
0002
0000
,
0000
0000
0103
0000
1000
0100
0020
0000
0031
0100
0010
1000
0100
0000
2002
0000
,
0000
0000
0000
0000
,
0000
0000
0000
0000
,
0000
0000
0000
0000
,
0000
0000
3003
0000
,
1000
0001
0010
0100
1000
0010
0100
0001
,
0001
1000
0100
0020
0000
0032
0000
0103
,
0001
1000
0010
0100
0001
0010
0100
1000
,
0010
0100
1000
0200
0000
0302
0000
1003
,
0001
1000
0010
0100
0001
0010
0100
1000
,
1000
0001
0100
0020
0000
1030
0100
0020
,
0000
0030
0000
0001
0200
0000
0300
0000
,
0001
0000
0000
1000
0000
0000
0100
0000
0000
1000
0000
0000
0010
0000
0100
0000
,
0001
0000
1000
0100
0010
0000
0001
0000
0100
0000
0001
1000
0100
0010
0002
0000
,
1003
0000
0001
0100
0010
0000
1000
0000
0100
0000
0010
0100
1000
0001
0200
0000
,
0301
0000
1000
0010
1000
0000
0001
0000
0010
0000
0001
1000
0100
1000
0020
0000
,
1030
0000
0001
0000
0010
0100
1000
0001
2000
0000
0000
3200
0000
0000
0310
0000
,
0001
0100
0001
1000
0010
1000
0001
0010
0001
0100
0010
1000
0002
0000
0000
0000
,
0013
0100
0010
0001
0100
0010
2000
0000
3001
0000
0000
0000
0000
0000
0000
0000
,
1000
0010
0100
0001
1000
0100
0010
0001
0100
0010
1000
0100
0010
0001
0100
0001
,
2000
0000
0100
0000
3100
0000
0010
0001
0100
0010
0100
0001
1000
0000
0000
0000
,
1001
0000
0000
0000
,
0000
0000
0000
0000
0000
0000
0000
0000
0001
0000
1000
0100
0020
0000
0000
0000
,
0031
0000
1000
0000
0010
0100
0001
0000
1000
0000
0001
0010
0000
0001
0200
0000
,
0300
0010
0100
0001
1000
0100
0001
0100
0010
0001
1000
0100
0000
0010
0001
0100
,
0010
0000
1000
0000
0001
0100
0001
0000
1000
0000
0100
0010
0000
0001
0200
0000
,
0301
0000
0010
0100
1000
0001
0100
0010
1000
0100
0010
0001
1000
0001
0100
0010
,
1000
0000
0001
0000
1000
0010
1000
0000
0001
0000
0010
0100
1000
0010
0200
0000
,
0000
0301
1000
0100
1000
0001
0100
1000
0100
0010
1000
0002
0000
0103
0010
1000
,
0100
0100
0001
0100
0010
1000
0100
0100
0001
0100
0010
1000
0100
0100
0001
1000
,
0010
0010
0001
0010
0200
0000
1300
0001
1000
0010
0100
0002
0010
0000
1003
0000
,
0001
0000
0000
0000
0011
0000
0010
0000
0001
0000
1000
0100
0000
1000
0020
0000
,
0030
0100
0010
1000
0001
0010
1000
0010
0100
1000
0001
0010
0001
1000
0001
0100
,
0010
0000
1000
0000
0001
0100
0001
0000
1000
0000
0100
0010
0001
0100
0010
0000
,
0000
0000
1010
0000
0000
0000
1100
0000
0000
0000
1000
0100
0010
0001
0010
0100
,
1000
0001
0100
0010
1000
0001
0010
0001
0100
0010
1000
0100
0010
0001
1000
0010
,
1000
0010
0100
0001
0010
0100
1000
0001
0100
1000
0100
0010
1000
0100
0010
0001
,
0100
0100
0010
0010
1000
0100
0100
0010
0100
0100
1000
0010
0010
0100
0002
0000
,
0000
0103
0010
0002
0000
1003
0010
0200
,
M3M0
0000
0101
0001
1001
0000
1100
1000
,
1001
0000
0011
0001
1001
0000
1010
1000
,
1100
0100
0110
0000
0011
0001
1001
1000
,
0100
0000
1000
0002
0100
0000
2003
0100
0000
0001
0000
3010
0100
0000
0010
0000
,
1002
0000
0000
0000
0000
0000
0000
0000
0000
0000
0000
0000
1003
0100
1000
0100
0000
0000
1000
0000
0000
0001
0100
0001
,
0100
0000
0000
0001
0000
0000
1000
0100
1000
0100
0000
0000
1000
0000
0000
0001
0000
0000
0100
0000
0000
0010
0000
0000
,
1000
0010
1000
0010
0000
0000
1000
0000
0000
0001
0010
0001
0010
0000
0000
0100
0000
0000
1000
0001
1000
0001
1000
0001
,
1000
0000
0001
0000
0100
0001
1000
0000
0010
0000
1000
0000
0200
0000
0300
0000
,
1001
0000
0000
0000
;

//--------------- dance-single - [FX+] SS+ BU+ XO FS DS RH- GH- ----------------
#NOTEDATA:;
#STEPSTYPE:dance-single;
#DESCRIPTION:[FX+] SS+ BU+ XO FS DS RH- GH-;
#DIFFICULTY:Challenge;
#METER:19;
#RADARVALUES:0,0,0,0,0;
#CREDIT:valgrind (full sargass-out);
#CHARTNAME:ratemod to 0.7x (unless you're tak);
#NOTES:
0000
0000
0000
0000
,
0000
0000
0000
0000
,
0000
0000
0000
0000
,
0000
0000
0000
0000
,
0000
0000
0000
0000
,
0001
0000
0000
1000
0000
0000
0010
0000
0000
1000
0000
0000
0001
0000
0000
0000
,
1000
0000
0000
0001
0000
0000
0010
0000
0000
0001
0000
0000
1000
0000
0000
0000
,
0010
0000
0000
0100
0000
0000
0010
0000
0000
1000
0000
0000
0200
0000
0300
0000
,
1100
0000
0000
0101
0000
0000
1010
0000
0000
0011
0000
0000
1000
0100
1000
0001
,
0010
0000
0001
1000
0010
0100
0001
1000
0100
00M0
0100
0001
1000
0100
0020
0000
,
0130
0000
1000
0001
0010
0100
1000
0001
0100
M000
0100
0010
0001
1000
0020
0000
,
0130
0000
0001
1000
0010
0100
0001
1000
0100
000M
0100
0010
1000
0100
0020
0000
,
0130
0000
0010
0001
0100
0010
1000
0001
0020
0000
0000
0230
0000
0000
2300
0000
,
3010
0100
0001
0010
0001
1000
0010
0100
0001
0010
0100
1000
0010
1000
0001
0010
,
0100
1000
0010
1000
0001
0010
0100
1000
0010
0100
0001
0010
0100
1000
0010
1000
,
0001
0000
0000
0000
0000
0000
0100
0000
0000
0000
0000
0000
0001
0000
0000
0000
0000
0000
0100
0000
0000
0000
0000
0000
0100
0000
0000
0000
0000
0000
1000
0000
0000
0000
0000
0000
0100
0000
0000
0000
0000
0000
1000
0000
0000
0000
0000
0000
0001
0000
0000
0100
0000
0000
0001
0000
0000
0000
0000
0000
1000
0000
0000
0000
0000
0000
0100
0000
0000
0010
0000
0000
0100
0000
0000
0000
0000
0000
1000
0000
0000
0000
0000
0000
0001
0000
0000
0000
0100
0000
0000
0000
0010
0000
0000
0000
,
1000
0000
0000
0000
0000
0220
0000
0330
,
0001
0100
0010
1000
,
2002
0000
0000
0000
3003
0000
0000
0000
0002
0000
1003
0000
0100
0100
0100
0100
,
0002
0000
1000
0000
0103
M000
0100
0010
0002
0000
1000
0000
0103
00M0
0100
1000
,
0002
0000
1000
0000
0013
0100
1000
0010
2000
0000
0010
0000
3100
00M0
0100
0001
,
2000
0000
0001
0000
3100
000M
0100
0010
2000
0000
0001
0000
3100
00M0
0100
0001
,
0010
0000
0100
2000
0010
0000
3002
0010
0000
1003
0010
0100
0001
0000
1000
0000
,
2001
0000
0000
3000
0001
1000
0010
0200
1000
0000
0301
1000
0010
0010
0200
0000
,
0001
0000
1300
0001
0010
0010
0010
0020
0100
0000
2030
0100
0000
3002
0100
0000
,
1003
0000
0000
0000
0000
0000
0000
0000
0000
0001
0000
0000
0100
0000
0000
0000
0000
0000
0100
0000
0000
0000
0000
0000
2000
0000
0000
0000
0000
0000
0000
0000
0000
0000
0000
0000
3010
0000
0000
0000
0000
0000
0000
0000
0000
0000
0000
0000
1000
0000
0000
0000
0001
0000
0000
0000
1000
0000
0000
0000
0100
0000
0000
0000
0000
0000
0100
0000
0000
0000
0000
0000
0002
0000
0000
0000
0000
0000
0000
0000
0000
0000
0000
0000
0013
0000
0000
0000
0000
0000
0000
0000
0000
0000
0000
0000
,
2001
0001
3001
1000
0020
0000
0230
0301
,
0010
0000
0001
1000
0100
0000
0010
0010
1000
0000
0001
0100
0010
0000
0100
0100
,
1000
0000
0010
0010
0001
0000
1000
0100
0010
0000
0100
0100
0010
0000
1000
0001
,
MMM0
0000
0010
0000
1001
0000
0001
1000
0100
0000
0010
0010
1000
0010
0200
0000
,
0001
0000
0000
0000
0000
0000
0300
0000
0000
0000
0000
0000
0200
0000
0000
0000
0000
0000
1000
0000
0000
0000
0000
0000
0300
0000
0000
0000
0000
0000
0200
0000
0000
0000
0000
0000
0001
0000
0000
0000
0000
0000
0300
0000
0000
0000
0000
0000
0200
0000
0000
0000
0000
0000
1000
0000
0000
0000
0000
0000
0300
0000
0000
0000
0000
0000
0100
0000
0000
0000
0000
0000
0001
0000
0000
0000
0000
0000
0000
1000
0000
0000
0000
0000
0010
0000
0000
0000
0000
0000
0000
1000
0000
0000
0000
0000
,
0001
0000
0100
0000
1000
0000
0100
0010
1000
0000
0000
0101
0000
0000
1000
0100
,
1000
0001
1000
0100
0001
0000
0100
0010
0001
0000
0000
1100
0000
0000
0011
0000
,
1000
0010
0100
0001
1000
0100
0010
0001
0100
0010
1000
0100
1000
0001
0100
0001
,
0010
0000
0000
0002
0000
2003
3020
0230
,
1300
000M
1000
0000
0010
0000
0100
0000
0100
0000
1000
0000
0100
0000
0100
0000
0001
0000
0010
0000
0010
0000
1000
0000
0001
0000
0100
0000
0020
0000
0000
0000
,
1030
0000
0000
0000
0100
0000
0010
0000
0001
0000
0010
0000
0100
0000
0001
M000
0001
0000
0010
0000
0100
0000
0100
0000
0001
0000
1000
0000
0020
0000
0000
0000
,
0130
0100
0010
1000
1000
0100
0010
0010
1000
0010
0010
0001
1000
0010
0200
0000
,
0301
0000
0000
0000
1000
0000
0100
0000
1000
0000
0000
0000
0001
0000
2000
0000
0100
0000
0000
0000
3100
00M0
0100
0000
0002
0000
0000
0000
0023
0000
0000
0000
,
1030
1000
0100
0010
0010
1000
0010
0010
0001
0100
0100
1000
0001
0100
0020
0030
,
1000
0010
0001
0001
0100
0010
0010
0001
1000
0010
0100
0000
0001
1000
0100
0000
,
0010
0010
1000
0100
0100
0001
0100
0100
0010
000M
0020
1000
0000
0130
0001
0000
,
0020
0000
0031
0000
1000
0000
0100
0010
0010
1000
0010
1000
0001
0010
0100
1000
,
0002
0000
0000
0000
,
0203
0000
0000
0000
2300
0000
0000
0000
3200
0000
0000
0320
0000
0000
2030
0000
,
3010
0010
0100
0001
0001
0010
0100
0100
0001
1000
0010
0100
1000
000M
2020
0000
,
3030
0000
0000
0000
0000
0000
1001
0000
0000
0000
0000
0000
0001
0000
0000
1000
0000
0000
0010
0000
0100
0000
0010
0000
1000
0000
0000
0000
0000
0000
0001
0000
0000
0100
0000
0000
0001
0000
0000
0010
0000
0000
0100
0000
0000
1000
0000
0000
,
0100
0100
0001
0010
0010
1000
0010
0010
0001
0100
0100
1000
0100
0010
1000
0010
,
0100
0010
1000
0010
0001
1000
0100
0001
0100
0010
0010
1000
0001
1000
0100
0010
,
0100
0100
0001
0100
0100
1000
0010
0010
0100
0100
0001
1000
0001
0100
2000
0000
,
0000
0000
0000
0000
0000
0000
3100
0000
0000
0010
0000
0000
0100
0000
0000
0001
0000
0000
1000
0000
0000
0100
0000
0000
1000
0000
0000
0001
0000
0000
0100
0000
0010
0000
1000
0000
0100
0000
0000
2000
0000
0000
0002
0000
0000
0000
0000
0000
,
0000
0000
0000
0000
,
0000
0000
0000
0000
,
0000
0000
0000
0000
,
0000
0000
3003
0000
,
0001
1000
0010
0100
0001
0010
0100
1000
,
1000
0001
0100
0020
0000
2030
0000
3100
,
1000
0001
0010
0100
1000
0010
0200
0001
,
0310
000M
0000
0000
0100
0000
0000
0000
1000
0000
0000
0000
0200
0000
0000
0000
0000
0000
0000
0000
0302
0000
0000
0000
0000
0000
0000
0000
0013
0000
0000
0000
,
0001
1000
0100
0010
0001
0100
0010
1000
,
1000
0001
0100
2000
0000
3002
0023
0130
,
0001
0000
1000
0100
0010
0000
0001
1000
,
0020
0000
0000
2030
0000
0000
3200
0000
0000
2300
0000
0000
3002
0000
0103
0000
,
0010
0000
1000
0001
0010
0100
1000
0001
0100
00M0
0100
1000
0001
0100
0020
0000
,
0130
0000
0001
1000
0010
0100
0001
1000
0100
000M
0100
0010
1000
0001
0020
0000
,
0130
0000
1000
0001
0010
0100
1000
0001
0100
M000
0100
0010
0001
0100
0020
0000
,
0130
0000
0010
1000
0100
0010
0001
1000
0020
0000
0000
0230
0000
0000
0302
0000
,
0013
0000
0000
0100
0000
0000
1000
0000
0000
0010
0000
0000
1000
0000
0000
0001
0000
0000
0010
0000
0000
0100
0000
0000
1000
0000
0001
0000
1000
0000
0010
0000
0100
0000
0001
0000
2000
0000
0000
0000
0000
0000
0000
0000
0000
0000
0000
0000
,
3010
0000
0000
0100
0000
0000
0001
0000
0000
0010
0000
0000
0001
0000
0000
1000
0000
0000
0010
0000
0100
0000
0001
0000
2000
0000
0000
0000
0000
0000
0000
0000
0000
0000
0000
0000
0000
0000
0000
0000
0000
0000
0000
0000
0000
0000
0000
0000
,
3001
0000
0000
0000
0010
0000
0000
0000
0001
0000
0000
0000
1000
0000
0000
0000
0000
0000
0010
0000
0000
0000
0000
0000
0100
0000
0000
0000
0001
0000
0000
0000
0100
0000
0000
0000
0010
0000
0000
0000
0000
0000
1000
0000
0000
0000
0000
0000
0001
0000
0000
0010
0000
0000
0001
0000
0000
0000
0000
0000
1000
0000
0000
0000
0000
0000
0010
0000
0000
0100
0000
0000
0010
0000
0000
0000
0000
0000
1000
0000
0000
0000
0000
0000
0001
0000
0000
0000
0010
0000
0000
0000
0100
0000
0000
0000
,
2000
0000
0001
0000
3010
0M00
0010
0001
0010
0100
1000
0001
0200
0000
0300
0000
,
1001
0000
0000
0000
,
0000
0000
0000
0000
0000
0000
0000
0000
1000
0000
0001
0100
0020
0000
0000
0000
,
1030
0000
0100
1000
0001
1000
0100
0010
0001
0000
0100
0010
M000
0010
0002
0000
,
1003
0010
0100
0001
0010
1000
0001
0100
0010
0001
1000
0001
0010
0100
1000
0010
,
0200
0000
0310
0000
1000
0010
0200
0000
0301
0000
1000
0100
0000
0001
0200
0000
,
0310
0000
1000
0010
0100
1000
0001
0100
0010
1000
0100
0010
0001
1000
0100
1000
,
0010
0000
1000
0001
0010
0000
0001
0000
0010
0000
0100
0010
0001
0100
0010
0000
,
1000
0010
0100
0001
1000
0001
0010
1000
0010
0100
1000
0100
00M0
0100
0001
0100
,
1000
1000
0010
1000
0001
0100
1000
1000
0010
1000
0001
0100
0010
0010
0001
0010
,
1000
1000
0100
0100
0001
0000
1000
0100
0100
0001
0010
0020
0100
0000
1030
0000
,
1001
0000
0001
1000
0100
1000
0001
0000
1000
0000
0100
0010
000M
0010
2000
0000
,
3001
0010
0100
1000
0010
0001
1000
0100
0010
1000
0001
1000
0010
0100
0001
0010
,
0200
0000
0000
0000
0000
0000
0310
0000
0000
0000
0000
0000
0001
0000
0000
1000
0000
0000
0020
0000
0000
0000
0000
0000
0130
0000
0000
0000
0000
0000
0001
0000
0000
1000
0000
0000
0100
0000
0010
0000
0001
0000
1000
0000
0000
0000
0000
0000
,
0000
0000
0011
0000
1000
0000
1010
0000
0000
0000
0001
0100
0001
1000
0010
1000
,
0100
0100
0001
1000
0100
0010
0001
1000
0010
0010
0100
0010
1000
0010
0100
0100
,
0001
1000
0010
0010
0100
0010
0001
1000
0010
0001
0010
1000
0001
0010
0010
0100
,
1000
0000
0000
1000
0000
0000
0010
0000
0000
0010
0000
0000
0001
0000
0000
0100
0000
0000
0100
0000
1000
0000
0001
0000
0100
0000
0000
0100
0000
0000
0010
0000
0000
1000
0000
0000
1000
0000
0000
0100
0000
0000
0002
0000
0000
0000
0000
0000
,
0000
0103
0010
0002
0000
2003
3020
0130
,
MMMM
0000
0000
0000
1001
0000
1000
0100
0001
00M0
0001
0010
0100
M000
0100
0000
,
0001
0000
0100
0010
0001
M000
0001
0100
0010
M000
0010
0001
0100
M000
0100
0000
,
0010
0000
0100
00M0
0100
0000
0001
0100
1000
00M0
1000
0010
0100
000M
0100
0000
,
1100
0000
0000
0000
1000
0000
0002
0000
0100
0000
0000
0000
2000
0000
0103
0000
0000
0000
0001
0000
0000
0000
3010
000M
0010
0000
0000
0000
0100
0000
0000
0000
,
2001
0000
0000
0000
0000
0000
0000
0000
0000
0000
0000
0000
0000
0000
0000
0000
0000
0000
3000
0000
0000
0000
0000
0000
0001
0000
0010
0000
0001
0000
0010
0000
0000
0100
0000
0000
1000
0000
0000
0000
0000
0000
1000
0000
0010
0000
1000
0000
,
0010
0000
0000
0100
0000
0000
0001
0000
0000
0000
0000
0000
0001
0000
0010
0000
0001
0000
0010
0000
0000
0100
0000
0000
1000
0000
0000
0000
0000
0000
0001
0000
0000
0000
0000
0000
1001
0000
0000
0000
0000
0000
1000
0000
0000
0000
0000
0000
,
0001
0000
0100
0000
0001
0000
0100
0000
0000
0010
0000
0000
1000
0000
0000
0000
0000
0000
1000
0000
0100
0000
1000
0000
0100
0000
0000
0010
0000
0000
0001
0000
0000
0000
0000
0000
0001
0000
1000
0000
0001
0000
0010
0000
0100
0000
1000
0000
,
0001
0000
0100
0001
1000
0000
0010
1000
0100
1000
0001
0000
0020
0000
0030
0000
,
1001
0000
0000
0000
;
