#VERSION:0.83;
#TITLE:SAtAN;
#SUBTITLE:;
#ARTIST:P*Light;
#TITLETRANSLIT:;
#SUBTITLETRANSLIT:;
#ARTISTTRANSLIT:;
#GENRE:;
#CREDIT:D0omsday;
#MUSIC:SAtAN.ogg;
#BANNER:;
#BACKGROUND:;
#JACKET:;
#DISCIMAGE:;
#CDIMAGE:;
#SELECTABLE:YES;
#LYRICSPATH:;
#CDTITLE:;
#SAMPLESTART:13.355;
#SAMPLELENGTH:16.000;
#OFFSET:-0.551;
#BPMS:0.000000=300.000000,
56.000000=150.000000,
60.000000=300.000000,
252.000000=150.000000,
284.000000=300.000000,
340.000000=150.000000,
344.000000=300.000000,
472.000000=150.000000
;
#STOPS:;
#WARPS:;
#DELAYS:;
#SPEEDS:0.000000=1.000000=0.000000=0,
268.000000=2.000000=12.000000=0,
280.000000=0.000000=0.000000=0,
282.000000=1.000000=1.500000=0,
488.000000=0.000000=20.000000=0
;
#SCROLLS:0.000000=1.000000,
280.000000=0.000000,
283.500000=2.000000,
284.000000=1.000000
;
#TICKCOUNTS:;
#TIMESIGNATURES:0.000000=4=4;
#LABELS:;
#COMBOS:;
#FAKES:;
#BGCHANGES:;
#FGCHANGES:;
#ATTACKS:;

//---------------dance-single - ---------------
#NOTEDATA:;
#CHARTNAME:;
#CHARTSTYLE:;
#CREDIT:D0omsday;
#STEPSTYPE:dance-single;
#DESCRIPTION:;
#DIFFICULTY:Beginner;
#METER:8;
#METERF:8;
#RADARVALUES:0,0,0,0,0;
#NOTES:
// measure 0
0000
0000
0000
0000
,  // measure 1
0000
0000
0000
0000
,  // measure 2
0000
0000
0000
0000
,  // measure 3
0000
0000
0000
0000
,  // measure 4
0000
0000
0000
0000
,  // measure 5
0000
0000
0000
0000
,  // measure 6
0000
0000
0000
0000
,  // measure 7
0000
0000
0000
0000
,  // measure 8
1000
0000
0000
0000
,  // measure 9
1000
0000
0000
0000
,  // measure 10
0001
0000
0000
0000
,  // measure 11
0001
0000
0000
0000
,  // measure 12
0010
0000
0100
0000
,  // measure 13
0010
0000
0100
0000
,  // measure 14
2000
0000
0000
0000
,  // measure 15
3010
0000
1000
0000
,  // measure 16
0100
0000
0010
0000
,  // measure 17
0100
0000
0000
0000
1000
0000
0000
0001
,  // measure 18
0000
1000
0001
0000
,  // measure 19
0100
0000
0010
0000
,  // measure 20
1000
0000
0001
0000
,  // measure 21
0010
0000
0000
0100
0000
0000
0010
0000
,  // measure 22
0000
0100
0000
0000
0000
0000
0000
0000
,  // measure 23
1000
0000
0001
0000
,  // measure 24
0010
0000
0001
0000
,  // measure 25
0100
0000
0000
0000
0010
0000
0000
1000
,  // measure 26
0000
0010
1000
0000
,  // measure 27
0110
0000
0000
0000
,  // measure 28
1001
0000
0000
0000
,  // measure 29
0001
0000
0000
1000
0000
0000
0001
0000
,  // measure 30
0000
1000
0000
0000
0000
0000
0000
0000
,  // measure 31
0010
0000
0010
0000
,  // measure 32
1000
0000
0001
0000
,  // measure 33
0010
0000
0010
0000
,  // measure 34
0100
0000
1000
0000
,  // measure 35
0010
0000
0010
0000
,  // measure 36
1000
0000
0001
0000
,  // measure 37
0010
0000
0000
0010
0000
0000
0010
0000
,  // measure 38
0000
0010
0000
0000
0000
0000
0000
0000
,  // measure 39
0100
0000
0100
0000
,  // measure 40
1000
0000
0001
0000
,  // measure 41
0100
0000
0100
0000
,  // measure 42
0001
0000
1000
0000
,  // measure 43
0100
0000
0100
0000
,  // measure 44
0010
0000
0010
0000
,  // measure 45
0001
0000
1000
0000
,  // measure 46
0001
0000
0000
0000
,  // measure 47
0100
0000
0010
0000
,  // measure 48
1000
0000
0001
0000
,  // measure 49
0010
0000
0000
0000
0001
0000
0000
1000
,  // measure 50
0000
0001
1000
0000
,  // measure 51
0010
0000
0100
0000
,  // measure 52
0001
0000
0010
0000
,  // measure 53
0100
0000
0000
1000
0000
0000
0100
0000
,  // measure 54
0000
1000
0000
0000
0000
0000
0000
0000
,  // measure 55
0001
0000
0100
0000
,  // measure 56
0010
0000
0100
0000
,  // measure 57
0001
0000
0000
0000
1000
0000
0000
0100
,  // measure 58
0000
1000
0100
0000
,  // measure 59
0110
0000
0000
0000
,  // measure 60
1001
0000
0000
0000
,  // measure 61
1000
0001
1000
0001
,  // measure 62
1000
0000
0000
0000
,  // measure 63
1000
0000
0000
1000
0000
0000
0000
0000
,  // measure 64
0010
0000
0000
0010
0000
0000
0000
0000
,  // measure 65
0100
0000
0000
0100
0000
0000
0000
0000
,  // measure 66
0001
0000
0000
0001
1000
0000
1000
0000
,  // measure 67
0010
0000
0000
0010
0000
0000
0000
0000
,  // measure 68
0100
0000
0000
0100
0000
0000
0000
0000
,  // measure 69
0001
0000
0000
0001
0000
0000
0000
0000
,  // measure 70
1000
0000
0000
0000
,  // measure 71
2002
0000
0000
0000
,  // measure 72
0000
0000
0000
0000
,  // measure 73
0000
0000
0000
0000
,  // measure 74
0000
0000
0000
0000
,  // measure 75
0000
0000
0000
0000
,  // measure 76
0000
0000
0000
0000
,  // measure 77
0000
0000
0000
0000
,  // measure 78
0000
0000
3003
0000
,  // measure 79
0001
0000
0000
0000
,  // measure 80
0001
0000
0000
0000
,  // measure 81
1000
0000
0000
0000
,  // measure 82
1000
0000
0000
0000
,  // measure 83
0010
0000
0100
0000
,  // measure 84
0010
0000
0100
0000
,  // measure 85
0002
0000
0000
0000
,  // measure 86
0013
0000
0001
0000
,  // measure 87
0100
0000
0010
0000
,  // measure 88
0100
0000
0000
0000
0001
0000
0000
1000
,  // measure 89
0000
0001
1000
0000
,  // measure 90
0100
0000
0010
0000
,  // measure 91
0001
0000
1000
0000
,  // measure 92
0010
0000
0000
0100
0000
0000
0010
0000
,  // measure 93
0000
0100
0000
0000
0000
0000
0000
0000
,  // measure 94
0001
0000
1000
0000
,  // measure 95
0010
0000
1000
0000
,  // measure 96
0100
0000
0000
0000
0010
0000
0000
0001
,  // measure 97
0000
0010
0001
0000
,  // measure 98
0110
0000
0000
0000
,  // measure 99
1001
0000
0000
0000
,  // measure 100
1000
0000
0000
0001
0000
0000
1000
0000
,  // measure 101
0000
0001
0000
0000
0000
0000
0000
0000
,  // measure 102
1000
0000
0000
0000
0001
0000
0000
0010
,  // measure 103
0000
0001
0010
0000
,  // measure 104
0100
0000
0000
0000
1000
0000
0000
0001
,  // measure 105
0000
1000
0001
0000
,  // measure 106
0100
0000
0100
0000
,  // measure 107
0010
0000
0010
0000
,  // measure 108
1000
0000
0000
0001
0000
0000
1000
0000
,  // measure 109
0000
0001
0000
0000
0000
0000
0000
0000
,  // measure 110
0010
0000
0000
0000
0001
0000
0000
0100
,  // measure 111
0000
0001
0100
0000
,  // measure 112
0010
0000
0000
0000
1000
0000
0000
0001
,  // measure 113
0000
0000
0000
0000
1000
0001
0000
0000
,  // measure 114
1000
0000
0100
0000
,  // measure 115
0010
0000
0001
0000
,  // measure 116
1000
0001
1000
0001
,  // measure 117
1000
0000
0000
0000
,  // measure 118
0001
0000
0000
0001
0000
0000
0000
0000
,  // measure 119
0100
0000
0000
0100
0000
0000
0000
0000
,  // measure 120
0010
0000
0000
0010
0000
0000
0000
0000
,  // measure 121
1000
0000
0000
1000
0001
0000
0001
0000
,  // measure 122
0100
0000
0000
0100
0000
0000
0000
0000
,  // measure 123
0010
0000
0000
0010
0000
0000
0000
0000
,  // measure 124
1000
0000
0000
1000
0000
0000
0000
0000
,  // measure 125
0001
0000
0000
0001
0010
0000
0020
0000
,  // measure 126
0030
0000
0000
0000
;

//---------------dance-single - ---------------
#NOTEDATA:;
#CHARTNAME:;
#CHARTSTYLE:;
#CREDIT:D0omsday;
#STEPSTYPE:dance-single;
#DESCRIPTION:;
#DIFFICULTY:Easy;
#METER:11;
#METERF:11;
#RADARVALUES:0,0,0,0,0;
#NOTES:
// measure 0
0000
0000
0000
0000
,  // measure 1
0000
0000
0000
0000
,  // measure 2
0000
0000
0000
0000
,  // measure 3
0000
0000
0000
0000
,  // measure 4
0000
0000
0000
0000
,  // measure 5
0000
0000
0000
0000
,  // measure 6
0000
0000
0000
0000
,  // measure 7
0000
0000
0000
0000
,  // measure 8
1000
0000
1000
0000
,  // measure 9
0010
0000
0010
0100
,  // measure 10
0001
0000
0001
0000
,  // measure 11
0010
0000
0010
0100
,  // measure 12
1000
0000
0010
1000
,  // measure 13
0001
0000
0100
0001
,  // measure 14
2000
0000
0000
0000
,  // measure 15
3100
0000
0010
0001
,  // measure 16
0100
0000
0010
1000
,  // measure 17
0001
0000
0000
0000
0010
0000
0100
0010
,  // measure 18
0000
0001
1000
0010
,  // measure 19
0100
0000
0010
1000
,  // measure 20
0001
0000
0010
0001
,  // measure 21
1000
0001
0000
1000
0001
0000
1000
0001
,  // measure 22
0000
1000
0001
0000
0000
0000
0000
0000
,  // measure 23
1000
0000
0010
1000
,  // measure 24
0100
0000
1000
0001
,  // measure 25
0100
0000
0000
0000
0010
0000
0100
0010
,  // measure 26
0000
1000
0001
0010
,  // measure 27
0100
0000
0000
0100
0000
0000
0000
0000
,  // measure 28
0010
0000
0000
0010
0000
0000
0000
0000
,  // measure 29
0001
1000
0000
0001
1000
0000
0001
1000
,  // measure 30
0000
0001
1000
0000
0000
0000
0000
0000
,  // measure 31
0010
0000
1000
0000
,  // measure 32
0001
0010
0100
0000
,  // measure 33
1000
0000
0010
0000
,  // measure 34
1000
0100
0001
0100
,  // measure 35
1000
0000
0001
0000
,  // measure 36
0100
0010
1000
0000
,  // measure 37
0100
0000
0000
0010
0000
0000
0001
0000
,  // measure 38
0000
1000
0001
1000
0000
0000
0000
0000
,  // measure 39
0010
0000
0100
0000
,  // measure 40
0001
1000
0100
0000
,  // measure 41
0010
0000
0100
0000
,  // measure 42
1000
0010
0001
0010
,  // measure 43
1000
0000
1000
0000
,  // measure 44
0001
0000
0001
0000
,  // measure 45
0010
0100
0010
0100
,  // measure 46
0010
0000
0000
0000
,  // measure 47
0001
0000
0010
0100
,  // measure 48
1000
0000
0010
0100
,  // measure 49
0001
0000
0000
0000
1000
0000
0001
1000
,  // measure 50
0000
0001
0010
0100
,  // measure 51
1000
0000
0001
0100
,  // measure 52
0010
0000
1000
0100
,  // measure 53
0010
0100
0000
0010
0100
0000
0010
0100
,  // measure 54
0000
0010
0100
0000
0000
0000
0000
0000
,  // measure 55
1000
0000
0010
1000
,  // measure 56
0001
0000
0010
0001
,  // measure 57
0100
0000
0000
0000
0010
0000
1000
0010
,  // measure 58
0000
1000
0001
0010
,  // measure 59
0100
0000
0000
0100
0000
0000
0000
0000
,  // measure 60
0010
0000
0000
0010
0000
0000
0000
0000
,  // measure 61
0001
0100
1000
0100
,  // measure 62
0001
0000
0000
0000
,  // measure 63
2002
0000
0000
3003
1000
0000
0100
0000
,  // measure 64
0020
0000
0000
0030
0001
0000
1000
0000
,  // measure 65
0020
0000
0000
0030
0100
0000
0001
0000
,  // measure 66
0020
0000
0000
0030
0100
1000
0010
0000
,  // measure 67
0202
0000
0000
0303
0001
0000
0010
0000
,  // measure 68
0200
0000
0000
0300
0010
0000
0001
0000
,  // measure 69
2000
0000
0000
3000
0010
0000
0100
0000
,  // measure 70
0001
0000
0000
0000
,  // measure 71
2002
0000
0000
0000
,  // measure 72
0000
0000
0000
0000
,  // measure 73
0000
0000
0000
0000
,  // measure 74
0000
0000
0000
0000
,  // measure 75
0000
0000
0000
0000
,  // measure 76
0000
0000
0000
0000
,  // measure 77
0000
0000
0000
0000
,  // measure 78
0000
0000
3003
0000
,  // measure 79
0001
0000
0001
0000
,  // measure 80
0100
0000
0100
0010
,  // measure 81
1000
0000
1000
0000
,  // measure 82
0100
0000
0100
0010
,  // measure 83
0001
0000
0100
0001
,  // measure 84
1000
0000
0010
1000
,  // measure 85
0002
0000
0000
0000
,  // measure 86
0103
0000
0010
1000
,  // measure 87
0100
0000
0010
0001
,  // measure 88
1000
0000
0000
0000
0010
0000
0100
0010
,  // measure 89
0000
1000
0001
0010
,  // measure 90
0100
0000
0010
0001
,  // measure 91
1000
0000
0010
1000
,  // measure 92
0001
1000
0000
0001
1000
0000
0001
1000
,  // measure 93
0000
0001
1000
0000
0000
0000
0000
0000
,  // measure 94
0001
0000
0010
0001
,  // measure 95
0100
0000
0001
1000
,  // measure 96
0100
0000
0000
0000
0010
0000
0100
0010
,  // measure 97
0000
0001
1000
0010
,  // measure 98
0100
0000
0000
0100
0000
0000
0000
0000
,  // measure 99
0010
0000
0000
0010
0000
0000
0000
0000
,  // measure 100
1000
0001
0000
1000
0001
0000
1000
0001
,  // measure 101
0000
1000
0001
0000
0000
0000
0000
0000
,  // measure 102
0010
0000
0000
0000
0001
0000
1000
0001
,  // measure 103
0000
1000
0010
0000
,  // measure 104
0100
0000
0000
0000
0001
0000
1000
0001
,  // measure 105
0000
0010
0100
0000
,  // measure 106
1000
0010
0100
0000
,  // measure 107
0001
0010
0100
0000
,  // measure 108
1000
0000
0000
1000
0000
0000
0001
0000
,  // measure 109
0000
0001
0000
0000
0000
0000
0000
0000
,  // measure 110
1000
0000
0000
0000
0010
0000
0100
0010
,  // measure 111
0000
1000
0001
0000
,  // measure 112
0010
0000
0000
0000
0001
0000
1000
0001
,  // measure 113
0000
1000
0000
0000
0010
0100
0000
0000
,  // measure 114
0001
0100
0001
0000
,  // measure 115
1000
0100
1000
0000
,  // measure 116
0001
0010
1000
0010
,  // measure 117
0001
0000
0000
0000
,  // measure 118
2002
0000
0000
3003
0001
0000
0010
0000
,  // measure 119
0200
0000
0000
0300
1000
0000
0001
0000
,  // measure 120
0200
0000
0000
0300
0010
0000
1000
0000
,  // measure 121
0200
0000
0000
0300
0010
0001
0100
0000
,  // measure 122
2020
0000
0000
3030
1000
0000
0100
0000
,  // measure 123
0020
0000
0000
0030
0100
0000
1000
0000
,  // measure 124
0002
0000
0000
0003
0100
0000
0010
0000
,  // measure 125
2000
0000
0000
3000
0100
0010
0002
0000
,  // measure 126
0003
0000
0000
0000
;

//---------------dance-single - ---------------
#NOTEDATA:;
#CHARTNAME:XO JA-;
#CHARTSTYLE:;
#CREDIT:D0omsday;
#STEPSTYPE:dance-single;
#DESCRIPTION:;
#DIFFICULTY:Medium;
#METER:14;
#METERF:14;
#RADARVALUES:0,0,0,0,0;
#NOTES:
// measure 0
0000
0000
0000
0000
,  // measure 1
0000
0000
0000
0000
,  // measure 2
0000
0000
0000
0000
,  // measure 3
0000
0000
0000
0000
,  // measure 4
0000
0000
0000
0000
,  // measure 5
0000
0000
0000
0000
,  // measure 6
0000
0000
0000
0000
,  // measure 7
0000
0000
0000
0000
,  // measure 8
1000
0100
0010
0100
,  // measure 9
1000
0010
0100
0000
,  // measure 10
0001
0010
0001
1000
,  // measure 11
0010
1000
0100
0000
,  // measure 12
0010
0100
0010
0100
,  // measure 13
1000
0100
1000
0000
0001
0100
0001
0000
,  // measure 14
2002
0000
0000
3003
,  // measure 15
1000
0100
0010
0001
,  // measure 16
1000
0000
0010
0000
0100
0000
0001
0100
,  // measure 17
0001
0000
1000
0000
0100
0000
0010
0100
,  // measure 18
0000
0010
0100
0010
0100
0000
1000
0000
,  // measure 19
0001
0100
0010
1000
,  // measure 20
0001
0000
0010
0000
0100
0000
1000
0100
,  // measure 21
1000
0100
0000
0100
0010
0000
0010
0001
,  // measure 22
0000
0001
1000
0000
0000
0000
0000
0000
,  // measure 23
1000
0010
0100
0001
,  // measure 24
1000
0000
0100
0000
0010
0000
0001
0010
,  // measure 25
0001
0000
1000
0000
0010
0000
0100
0001
,  // measure 26
0000
0100
0001
0100
0001
0000
0010
0000
,  // measure 27
0001
1000
0001
1000
0000
0000
0000
0000
,  // measure 28
1000
0001
1000
0001
0000
0000
0000
0000
,  // measure 29
1000
0100
0000
0100
0010
0000
0010
0001
,  // measure 30
0000
0001
1000
0000
0000
0000
0000
0000
,  // measure 31
0010
1000
0001
0010
,  // measure 32
0100
0001
0100
1000
,  // measure 33
0010
0100
0001
0010
,  // measure 34
0001
0000
0100
0000
0010
0000
1000
0001
,  // measure 35
1000
0100
0010
0001
,  // measure 36
0100
1000
0100
0010
,  // measure 37
0100
0000
0000
0101
0000
0000
1001
0000
,  // measure 38
0000
1000
0001
1000
0000
0000
0000
0000
,  // measure 39
0001
0010
0001
0100
,  // measure 40
0010
1000
0100
0010
,  // measure 41
1000
0010
0100
1000
,  // measure 42
0010
0000
0100
0000
0001
0000
1000
0100
,  // measure 43
1000
0010
0100
0010
,  // measure 44
1000
0100
0001
0100
,  // measure 45
1000
0000
0001
0000
0100
0000
0010
1000
,  // measure 46
0010
0000
0000
0000
,  // measure 47
1000
0001
0010
0001
,  // measure 48
1000
0000
0010
0000
0100
0000
0001
0100
,  // measure 49
0001
0000
1000
0000
0100
0000
1000
0001
,  // measure 50
0000
1000
0001
1000
0001
0000
0010
0000
,  // measure 51
0100
1000
0010
1000
,  // measure 52
0001
0000
0010
0000
0100
0000
0010
0001
,  // measure 53
0010
0001
0000
0001
0100
0000
0100
0010
,  // measure 54
0000
0010
1000
0000
0000
0000
0000
0000
,  // measure 55
0001
0010
0100
0010
,  // measure 56
0001
0000
1000
0000
0010
0000
1000
0001
,  // measure 57
1000
0000
0010
0000
0100
0000
0010
1000
,  // measure 58
0000
0010
1000
0010
1000
0000
0001
0000
,  // measure 59
1000
0001
1000
0001
0000
0000
0000
0000
,  // measure 60
0001
1000
0001
1000
0000
0000
0000
0000
,  // measure 61
0001
0100
0001
0100
0010
1000
0010
1000
,  // measure 62
0001
0000
0000
0000
,  // measure 63
0022
0000
0000
0033
0001
0000
0100
0010
,  // measure 64
2000
0000
0000
3000
0100
0000
0010
0000
,  // measure 65
0002
0000
0000
0003
1000
0000
0010
0100
,  // measure 66
0001
0000
0010
0100
0001
0100
1000
0000
,  // measure 67
2002
0000
0000
3003
1000
0000
0010
0100
,  // measure 68
0002
0000
0000
0003
0010
0000
0100
0000
,  // measure 69
2000
0000
0000
3000
0001
0000
0100
0010
,  // measure 70
1000
0000
0000
0000
,  // measure 71
2002
0000
0000
0000
,  // measure 72
0000
0000
0000
0000
,  // measure 73
0000
0000
0000
0000
,  // measure 74
0000
0000
0000
0000
,  // measure 75
0000
0000
0000
0000
,  // measure 76
0000
0000
0000
0000
,  // measure 77
0000
0000
0000
0000
,  // measure 78
0000
0000
3003
0000
,  // measure 79
0001
0100
0010
0100
,  // measure 80
0001
0010
0100
0000
,  // measure 81
1000
0010
1000
0001
,  // measure 82
0010
0001
0100
0000
,  // measure 83
0010
0100
0010
0100
,  // measure 84
0001
0100
0001
0000
1000
0100
1000
0000
,  // measure 85
2002
0000
0000
3003
,  // measure 86
0001
0100
1000
0100
,  // measure 87
0001
0000
0100
0000
0010
0000
0100
0001
,  // measure 88
1000
0000
0100
0000
0010
0000
0100
1000
,  // measure 89
0000
0100
1000
0100
1000
0000
0001
0000
,  // measure 90
1000
0010
0001
0010
,  // measure 91
1000
0000
0010
0000
0100
0000
0010
1000
,  // measure 92
0001
0010
0000
0010
0100
0000
0100
1000
,  // measure 93
0000
1000
0010
0000
0000
0000
0000
0000
,  // measure 94
1000
0100
0001
0100
,  // measure 95
1000
0000
0100
0000
0010
0000
0100
1000
,  // measure 96
0001
0000
0100
0000
0010
0000
0100
0001
,  // measure 97
0000
0100
0001
0100
0001
0000
1000
0000
,  // measure 98
0001
1000
0001
1000
0000
0000
0000
0000
,  // measure 99
1000
0001
1000
0001
0000
0000
0000
0000
,  // measure 100
1000
0010
0000
0010
0001
0000
0001
0010
,  // measure 101
0000
0010
1000
0000
0000
0000
0000
0000
,  // measure 102
0001
0000
0010
0000
0001
0000
0100
0010
,  // measure 103
0000
0100
0010
0100
0010
0000
1000
0000
,  // measure 104
0100
0000
0010
0000
0001
0000
1000
0010
,  // measure 105
0000
1000
0010
1000
0010
0000
0100
0000
,  // measure 106
0001
0010
1000
0010
,  // measure 107
0001
0000
1000
0000
0010
0100
0010
0000
,  // measure 108
1000
0100
0000
0100
0001
0000
0001
0100
,  // measure 109
0000
0100
1000
0000
0000
0000
0000
0000
,  // measure 110
0001
0000
0010
0000
0001
0000
0100
0010
,  // measure 111
0000
0100
0010
0100
0010
0000
0000
0000
,  // measure 112
1000
0000
0100
0000
0010
0000
0001
1000
,  // measure 113
0000
0001
0000
0000
0100
0100
0000
0000
,  // measure 114
0001
0100
0001
0010
,  // measure 115
1000
0010
0001
1000
,  // measure 116
0001
0100
0010
1000
0001
0010
0100
1000
,  // measure 117
0001
0000
0000
0000
,  // measure 118
2020
0000
0000
3030
1000
0000
0001
0010
,  // measure 119
0200
0000
0000
0300
0010
0000
0001
0000
,  // measure 120
0200
0000
0000
0300
0001
0000
1000
0010
,  // measure 121
0100
0000
0001
0010
1000
0010
0001
0000
,  // measure 122
0202
0000
0000
0303
0001
0000
1000
0100
,  // measure 123
0020
0000
0000
0030
0100
0000
1000
0000
,  // measure 124
0020
0000
0000
0030
1000
0000
0001
0100
,  // measure 125
0010
0000
1000
0100
0001
0100
2000
0000
,  // measure 126
3000
0000
0000
0000
;

//---------------dance-single - ---------------
#NOTEDATA:;
#CHARTNAME:JA XO;
#CHARTSTYLE:;
#CREDIT:D0omsday;
#STEPSTYPE:dance-single;
#DESCRIPTION:;
#DIFFICULTY:Hard;
#METER:16;
#METERF:16;
#RADARVALUES:0,0,0,0,0;
#NOTES:
// measure 0
0000
0000
0000
0000
,  // measure 1
0000
0000
0000
0000
,  // measure 2
0000
0000
0000
0000
,  // measure 3
0000
0000
0000
0000
,  // measure 4
0000
0000
0000
0000
,  // measure 5
0000
0000
0000
0000
,  // measure 6
0000
0000
0000
0000
,  // measure 7
0000
0000
0000
0000
,  // measure 8
0001
0010
0001
1000
,  // measure 9
0010
0100
0001
0010
,  // measure 10
0010
0001
1000
0010
,  // measure 11
1000
0100
0010
0001
,  // measure 12
0001
0100
0010
0000
1000
0100
0010
0000
,  // measure 13
0001
1000
0001
1000
0010
0100
0010
0100
,  // measure 14
0002
0000
0000
0000
,  // measure 15
1003
0100
1000
0000
0001
0000
0010
0000
,  // measure 16
0001
0100
0001
0000
1000
0000
0010
1000
,  // measure 17
0100
0010
0100
0000
1000
0000
0001
0100
,  // measure 18
0000
0010
0100
0001
0010
0000
0100
0000
,  // measure 19
1000
0001
1000
0000
0010
0000
0100
0000
,  // measure 20
0001
1000
0001
0000
0010
0000
0100
0010
,  // measure 21
0001
0001
0000
0100
0100
0000
0010
0010
,  // measure 22
0000
1000
1000
0000
0000
0000
0000
0000
,  // measure 23
0001
0010
0001
0000
1000
0000
0100
0000
,  // measure 24
1000
0010
1000
0000
0001
0000
0100
0001
,  // measure 25
0010
0100
0010
0000
0001
0000
1000
0010
,  // measure 26
0000
0100
0010
1000
0100
0000
0010
0000
,  // measure 27
0001
0100
0010
1000
0000
0000
0000
0000
,  // measure 28
1000
0100
0010
0001
0000
0000
0000
0000
,  // measure 29
1000
1000
0000
0001
0001
0000
0100
0100
,  // measure 30
0000
0010
0010
0000
0000
0000
0000
0000
,  // measure 31
1000
0001
0010
0001
,  // measure 32
0100
0000
0010
0000
1000
0000
0100
1000
,  // measure 33
0001
0100
0010
1000
,  // measure 34
0001
0010
0100
0010
0001
0100
0010
0100
,  // measure 35
0001
0010
0001
1000
,  // measure 36
0010
0000
1000
0000
0100
0000
1000
0001
,  // measure 37
0100
0000
0000
0110
0000
0000
1001
0000
,  // measure 38
0000
0001
0010
1000
0000
0000
0000
0000
,  // measure 39
0010
0100
1000
0001
,  // measure 40
0100
0000
0001
0000
1000
0000
0010
0100
,  // measure 41
0001
0010
0001
0100
,  // measure 42
0010
1000
0100
0010
0100
1000
0010
0100
,  // measure 43
0010
0000
1000
0000
0001
0000
0010
0001
,  // measure 44
0100
0000
0010
0000
1000
0000
0001
0010
,  // measure 45
0100
1000
0010
1000
0001
0100
0001
0010
,  // measure 46
0100
0000
0000
0000
,  // measure 47
1000
0001
0100
0000
0010
0000
0100
0000
,  // measure 48
0001
0010
0100
0000
1000
0000
0010
1000
,  // measure 49
0001
0010
0100
0000
0010
0000
0001
0100
,  // measure 50
0000
0010
0100
0001
0010
0000
0100
0000
,  // measure 51
1000
0010
0100
0000
0010
0000
1000
0000
,  // measure 52
0001
0010
0100
0000
1000
0000
0001
0100
,  // measure 53
0010
0010
0000
1000
1000
0000
0001
0001
,  // measure 54
0000
0010
0010
0000
0000
0000
0000
0000
,  // measure 55
0001
1000
0010
0000
0100
0000
0010
0000
,  // measure 56
1000
0100
0010
0000
0001
0000
0100
0001
,  // measure 57
1000
0100
0010
0000
0100
0000
1000
0010
,  // measure 58
0000
0100
0010
1000
0100
0000
0010
0000
,  // measure 59
0001
0010
0100
1000
0000
0000
0000
0000
,  // measure 60
1000
0010
0100
0001
0000
0000
0000
0000
,  // measure 61
1000
0100
0010
0100
0001
0100
0010
0100
,  // measure 62
1000
0000
0000
0000
,  // measure 63
2002
0000
0000
0000
0000
0000
3003
0000
1000
0000
0010
0000
0100
0000
0001
1000
,  // measure 64
0002
0000
0000
0003
0010
0100
0010
0001
,  // measure 65
0200
0000
0000
0000
0000
0000
0300
0000
0010
0000
1000
0000
0100
0000
0010
0001
,  // measure 66
0010
0100
0001
0100
1000
0001
1000
0000
,  // measure 67
2020
0000
0000
0000
0000
0000
3030
0000
0010
0000
0100
0000
0001
0000
1000
0100
,  // measure 68
2000
0000
0000
3000
0010
0100
0010
1000
,  // measure 69
0200
0000
0000
0000
0000
0000
0300
0000
0010
0000
0001
0000
1000
0000
0010
0100
,  // measure 70
0010
0000
0000
0000
,  // measure 71
1000
0100
0010
0100
,  // measure 72
1000
0001
0100
0010
,  // measure 73
0100
0000
0001
0000
1000
0000
0001
0010
,  // measure 74
0000
0100
1000
0000
0010
0000
0100
0000
,  // measure 75
0001
1000
0001
0010
,  // measure 76
0100
1000
0010
1000
,  // measure 77
0001
0000
0010
0000
0001
0000
1000
0010
,  // measure 78
0000
0100
0001
0000
1000
0000
0100
0000
,  // measure 79
0010
0100
1000
0010
,  // measure 80
0100
0001
0010
0001
,  // measure 81
0001
1000
0010
1000
,  // measure 82
0100
0010
0100
1000
,  // measure 83
1000
0010
0100
0000
0001
0010
0100
0000
,  // measure 84
1000
0001
1000
0001
0010
0100
0010
0100
,  // measure 85
2000
0000
0000
0000
,  // measure 86
3010
0100
0010
0100
0001
0000
1000
0000
,  // measure 87
0100
0010
0100
0010
0001
0000
0100
0001
,  // measure 88
1000
0010
1000
0010
0100
0000
0001
0010
,  // measure 89
0000
0001
1000
0010
0100
0001
1000
0000
,  // measure 90
0100
0010
0100
0010
0001
0000
1000
0000
,  // measure 91
0010
0100
0010
0100
0001
0000
1000
0100
,  // measure 92
0010
0010
0000
0001
0001
0000
1000
1000
,  // measure 93
0000
0010
0010
0000
0000
0000
0000
0000
,  // measure 94
1000
0100
1000
0100
0010
0000
0001
0000
,  // measure 95
1000
0010
1000
0010
0100
0000
0001
1000
,  // measure 96
0001
0010
0001
0010
0100
0000
1000
0010
,  // measure 97
0000
0100
0001
1000
0001
0010
0100
0000
,  // measure 98
1000
0100
0010
0001
0000
0000
0000
0000
,  // measure 99
0001
0100
0010
1000
0000
0000
0000
0000
,  // measure 100
1000
1000
0000
0001
0001
0000
0010
0010
,  // measure 101
0000
0100
0100
0000
0000
0000
0000
0000
,  // measure 102
1000
0010
0100
0010
1000
0001
0010
0100
,  // measure 103
0000
1000
0001
0100
0010
0100
0001
1000
,  // measure 104
0100
0010
0001
1000
0010
1000
0001
0010
,  // measure 105
0000
0001
1000
0010
1000
0100
0010
0001
,  // measure 106
0100
0010
0100
0001
1000
0010
1000
0001
,  // measure 107
0010
0100
1000
0001
1000
0010
1000
0001
,  // measure 108
0010
0100
0000
0010
1000
0000
0010
0100
,  // measure 109
0000
0010
0001
0000
0000
0000
0000
0000
,  // measure 110
1000
0010
0100
0001
1000
0100
0010
0001
,  // measure 111
0000
0010
0001
0100
0010
0000
0000
0000
,  // measure 112
1000
0001
0010
0001
1000
0010
0100
0001
,  // measure 113
0000
0010
0000
0000
0001
0001
0000
0000
,  // measure 114
1000
0010
0100
0001
0010
0100
0001
0100
,  // measure 115
1000
0010
0001
0010
1000
0100
0001
0100
,  // measure 116
0010
0001
0100
0010
1000
0100
0010
0001
,  // measure 117
1000
0000
0000
0000
,  // measure 118
0202
0000
0000
0000
0000
0000
0303
0000
0001
0000
0010
0000
0100
0000
1000
0001
,  // measure 119
2000
0000
0000
3000
0010
0100
0001
0100
,  // measure 120
0020
0000
0000
0000
0000
0000
0030
0000
1000
0000
0100
0000
0010
0000
0001
1000
,  // measure 121
0001
0100
1000
0100
0010
1000
0010
0000
,  // measure 122
0202
0000
0000
0000
0000
0000
0303
0000
0100
0000
0010
0000
1000
0000
0001
0010
,  // measure 123
0002
0000
0000
0003
0010
0100
1000
0010
,  // measure 124
0200
0000
0000
0000
0000
0000
0300
0000
0010
0000
0100
0000
0001
0000
1000
0100
,  // measure 125
1000
0010
0001
0010
1000
0001
2000
0000
,  // measure 126
3000
0000
0000
0000
;

//---------------dance-single - ---------------
#NOTEDATA:;
#CHARTNAME:SJ FS BU XO SS?;
#CHARTSTYLE:;
#CREDIT:D0omsday;
#STEPSTYPE:dance-single;
#DESCRIPTION:;
#DIFFICULTY:Challenge;
#METER:18;
#METERF:18;
#RADARVALUES:0,0,0,0,0;
#NOTES:
// measure 0
0000
0000
0000
0000
,  // measure 1
0000
0000
0000
0000
,  // measure 2
0000
0000
0000
0000
,  // measure 3
0000
0000
0000
0000
,  // measure 4
0000
0000
0000
0000
,  // measure 5
0000
0000
0000
0000
,  // measure 6
0000
0000
0000
0000
,  // measure 7
0000
0000
0000
0000
,  // measure 8
0001
0010
0001
0100
,  // measure 9
0010
0000
1000
0000
0100
0000
0010
0001
,  // measure 10
0010
0100
1000
0001
,  // measure 11
0100
0000
0010
0000
1000
0000
0001
0100
,  // measure 12
0001
0010
0100
0010
0001
1000
0010
0100
,  // measure 13
0001
0010
0001
1000
0010
1000
0100
0010
,  // measure 14
0002
0000
0000
0000
,  // measure 15
1003
0100
1000
0010
0100
0001
0010
0100
,  // measure 16
1000
0100
1000
0010
0100
0001
0010
0100
,  // measure 17
1000
0100
1000
0010
0100
0001
0010
1000
,  // measure 18
0000
0010
0100
1000
0001
0000
0100
0000
,  // measure 19
0001
0010
0001
0100
0010
1000
0100
0010
,  // measure 20
0001
0010
0001
0100
0010
1000
0100
0010
,  // measure 21
0001
0011
0000
1000
1010
0000
0001
0101
,  // measure 22
0000
1000
1100
0000
0002
0000
0000
0000
,  // measure 23
1003
0010
1000
0001
0010
0100
0010
0001
,  // measure 24
1000
0010
1000
0001
0010
0100
0010
0001
,  // measure 25
1000
0010
1000
0001
0010
0100
0010
1000
,  // measure 26
0000
0010
0100
1000
0001
0000
0100
0000
,  // measure 27
0001
0010
1000
0010
0000
0000
0000
0000
,  // measure 28
0001
0100
1000
0100
0000
0000
0000
0000
,  // measure 29
0010
0110
0000
1000
1010
0000
0001
0011
,  // measure 30
0000
1000
1001
0000
0000
0000
0000
0000
,  // measure 31
0001
0010
0000
0010
0000
1000
0001
0010
,  // measure 32
0001
0100
0000
0100
0000
1000
0001
0100
,  // measure 33
0001
0010
0000
0010
0000
1000
0001
0010
,  // measure 34
0001
0000
1000
0000
0010
0000
0100
0000
0001
1000
0001
0000
0010
0000
0100
0000
,  // measure 35
1000
0100
0000
0100
0000
0001
1000
0100
,  // measure 36
1000
0010
0000
0010
0000
0001
1000
0010
,  // measure 37
1000
0100
0100
0001
0100
0100
1000
0100
,  // measure 38
0100
0001
1000
0001
0010
0000
0000
0000
,  // measure 39
0001
0100
0000
0100
0000
1000
0010
0100
,  // measure 40
0001
0010
0000
0010
0000
1000
0100
0010
,  // measure 41
0001
0100
0000
0100
0000
1000
0010
0100
,  // measure 42
0001
0000
1000
0000
0001
0000
0010
0000
0100
1000
0100
0000
0010
0000
0001
0000
,  // measure 43
0100
0010
0100
0010
1000
0001
1000
0001
,  // measure 44
0010
0100
0010
0100
1000
0001
1000
0001
,  // measure 45
0100
0000
0010
0000
1000
0000
0100
0000
0010
0000
0001
0000
0100
0000
0010
1000
,  // measure 46
0010
0000
0000
0000
,  // measure 47
1000
0010
1000
0100
0010
0001
0100
0001
,  // measure 48
1000
0010
1000
0100
0010
0001
0100
0001
,  // measure 49
1000
0010
1000
0100
0010
0001
0100
1000
,  // measure 50
0000
0100
0001
0010
0100
0000
1000
0000
,  // measure 51
0001
0100
0001
0010
0100
1000
0010
1000
,  // measure 52
0001
0100
0001
0010
0100
1000
0010
1000
,  // measure 53
0001
0011
0000
1000
1100
0000
0001
0101
,  // measure 54
0000
1000
1010
0000
0002
0000
0000
0000
,  // measure 55
1003
0010
1000
0001
0100
0001
0010
0001
,  // measure 56
1000
0010
1000
0001
0100
0001
0010
0001
,  // measure 57
1000
0010
1000
0001
0100
0001
0010
1000
,  // measure 58
0000
0010
0001
1000
0010
0000
0100
0000
,  // measure 59
0001
0100
1000
0100
0000
0000
0000
0000
,  // measure 60
0001
0010
1000
0010
0000
0000
0000
0000
,  // measure 61
0001
0000
0010
0000
0100
0000
1000
0000
0010
0000
0100
0000
0001
0000
1000
0001
,  // measure 62
1000
0000
0000
0000
,  // measure 63
1200
0000
0000
0000
0000
0000
1300
0000
0010
0000
1000
0000
0001
0000
0010
0010
,  // measure 64
2000
0000
0000
3001
0010
0001
0100
0010
,  // measure 65
2000
0000
0000
0000
0000
0000
3001
0000
0010
0000
0001
0000
1000
0000
0100
0100
,  // measure 66
0001
0010
1000
0010
0001
0100
0010
0000
,  // measure 67
0201
0000
0000
0000
0000
0000
0301
0000
0010
0000
0100
0000
1000
0000
0100
0100
,  // measure 68
0002
0000
0000
0013
0100
1000
0010
0100
,  // measure 69
0002
0000
0000
0000
0000
0000
1003
0000
0100
0000
0010
0000
0001
0000
0100
0100
,  // measure 70
1000
0000
0000
0000
,  // measure 71
0001
0100
0001
0010
,  // measure 72
0100
1000
0010
1000
,  // measure 73
0001
0000
0010
0000
0001
0000
1000
0100
,  // measure 74
0000
0100
0001
0000
0010
0000
0001
0000
,  // measure 75
1000
0010
1000
0100
,  // measure 76
0010
0001
0100
0001
,  // measure 77
1000
0000
0010
0000
1000
0000
0001
0010
,  // measure 78
0000
0010
1000
0000
0001
0000
0010
0000
,  // measure 79
0100
0010
0001
0100
,  // measure 80
0010
0000
1000
0000
0001
0000
0010
0100
,  // measure 81
0010
0001
0100
0010
,  // measure 82
1000
0000
0001
0000
1000
0000
0100
0010
,  // measure 83
0100
1000
0001
0100
0010
0100
0001
0010
,  // measure 84
0100
1000
0100
0010
0001
1000
0010
1000
,  // measure 85
0002
0000
0000
0000
,  // measure 86
1003
0001
0010
0001
0001
0001
0100
0001
,  // measure 87
1000
0001
0010
0001
0001
0001
0100
0001
,  // measure 88
1000
0001
0010
0001
0001
0001
0100
1000
,  // measure 89
0000
0100
0001
0010
0100
0000
1000
0000
,  // measure 90
0001
1000
0010
1000
1000
1000
0100
1000
,  // measure 91
0001
1000
0010
1000
1000
1000
0100
1000
,  // measure 92
0001
0011
0000
1000
1010
0000
0001
0101
,  // measure 93
0000
1000
1100
0000
0002
0000
0000
0000
,  // measure 94
1003
0001
0100
0001
0001
0001
0010
0001
,  // measure 95
1000
0001
0100
0001
0001
0001
0010
0001
,  // measure 96
1000
0001
0100
0001
0001
0001
0010
1000
,  // measure 97
0000
0010
0001
0100
0010
0000
1000
0000
,  // measure 98
0100
0001
0100
1000
0000
0000
0000
0000
,  // measure 99
0010
0001
0010
1000
0000
0000
0000
0000
,  // measure 100
0001
0101
0000
1000
1010
0000
0001
0011
,  // measure 101
0000
1000
1100
0000
0000
0000
0000
0000
,  // measure 102
0001
1000
0100
0010
0001
1000
0010
0100
,  // measure 103
0000
0100
1000
0010
0001
0010
1000
0001
,  // measure 104
0010
0100
1000
0010
1000
0001
0010
0100
,  // measure 105
0000
0000
0100
0000
0001
0000
1000
0000
0100
0010
0100
0000
1000
0000
0010
0000
,  // measure 106
0100
1000
0100
0001
1000
0100
0010
0001
,  // measure 107
1000
0001
0100
0010
0100
0001
0010
0100
,  // measure 108
1000
1001
0000
0010
0110
0000
1000
1100
,  // measure 109
0000
0001
0011
0000
2000
0000
0000
0000
,  // measure 110
3001
0010
0001
0100
0010
0001
0010
0100
,  // measure 111
0000
0000
0100
0000
1000
0001
1000
0000
0010
0000
0000
0000
0000
0000
0000
0000
,  // measure 112
1000
0100
0010
0001
0100
1000
0100
0010
,  // measure 113
0000
0010
0000
0000
1001
1001
0000
0000
,  // measure 114
1000
0000
0000
0100
0000
0000
0001
0000
0000
0100
0000
0000
1000
0000
0000
0001
0000
0000
0100
0000
0010
0000
1000
0000
,  // measure 115
0001
0000
0000
0010
0000
0000
0100
0000
1000
0000
0001
0000
0100
0000
0000
0010
0000
0000
0001
0000
0010
0000
0100
0000
,  // measure 116
0001
1000
0001
0010
1000
0001
0100
1000
,  // measure 117
0001
0000
0000
0000
,  // measure 118
2010
0000
0000
0000
0000
0000
3010
0000
0100
0000
0001
0000
1000
0000
0100
0100
,  // measure 119
0002
0000
0000
0013
0100
0001
0100
1000
,  // measure 120
0002
0000
0000
0000
0000
0000
0013
0000
0001
0000
1000
0000
0010
0000
0100
0100
,  // measure 121
1000
0010
0001
0010
0100
0001
0010
0000
,  // measure 122
0120
0000
0000
0000
0000
0000
0130
0000
1000
0000
0001
0000
0100
0000
0010
0010
,  // measure 123
0002
0000
0000
1003
0010
0001
0010
1000
,  // measure 124
0200
0000
0000
0000
0000
0000
1300
0000
0100
0000
0010
0000
0001
0000
0100
0100
,  // measure 125
2000
0000
0000
0000
0000
0000
3000
0000
0000
0000
0000
0000
0020
0000
0000
0000
0000
0000
0030
0000
0000
0000
0000
0000
0200
0000
0000
0000
0000
0000
0300
0000
0000
0000
0002
0000
0000
0000
0000
0000
0003
0000
0000
0000
0000
0020
0000
0000
,  // measure 126
0000
0000
0000
0030
0000
0000
0000
0200
0000
0000
0000
0000
0000
0300
0000
0000
0000
0000
0000
0000
0000
0000
0000
0000
0002
0000
0000
0000
0000
0000
0000
0000
0000
0000
0000
0000
0003
0000
0000
0000
0000
0000
0000
0000
0000
0000
0000
0000
;
