#VERSION:0.83;
#TITLE:Rock You;
#SUBTITLE:;
#ARTIST:BUS STOP;
#TITLETRANSLIT:;
#SUBTITLETRANSLIT:;
#ARTISTTRANSLIT:;
#GENRE:DANCEMANIA;
#ORIGIN:;
#CREDIT:;
#BANNER:;
#BACKGROUND:;
#PREVIEWVID:;
#JACKET:;
#CDIMAGE:;
#DISCIMAGE:;
#LYRICSPATH:;
#CDTITLE:;
#MUSIC:Rock You.ogg;
#OFFSET:-0.005000;
#SAMPLESTART:35.827999;
#SAMPLELENGTH:13.433000;
#SELECTABLE:YES;
#BPMS:0.000=107.195;
#STOPS:;
#DELAYS:;
#WARPS:;
#TIMESIGNATURES:0.000=4=4;
#TICKCOUNTS:0.000=4;
#COMBOS:0.000=1;
#SPEEDS:0.000=1.000=0.000=0;
#SCROLLS:0.000=1.000;
#FAKES:;
#LABELS:0.000=Song Start;
#BGCHANGES:;
#KEYSOUNDS:;
#ATTACKS:
;

//---------------dance-single - ----------------
#NOTEDATA:;
#CHARTNAME:;
#STEPSTYPE:dance-single;
#DESCRIPTION:;
#CHARTSTYLE:;
#DIFFICULTY:Medium;
#METER:6;
#RADARVALUES:0.290813,0.356245,0.201448,0.063615,0.000000,192.000000,173.000000,19.000000,6.000000,0.000000,0.000000,0.000000,0.000000,0.000000,0.290813,0.356245,0.201448,0.063615,0.000000,192.000000,173.000000,19.000000,6.000000,0.000000,0.000000,0.000000,0.000000,0.000000;
#CREDIT:TonyAkita;
#NOTES:
// measure 0
0000
0000
0000
0000
,  // measure 1
0000
0000
0000
0000
,  // measure 2
0000
0000
0000
0000
,  // measure 3
0020
0000
0000
0030
,  // measure 4
1000
0001
1000
0000
0010
0000
1000
0000
,  // measure 5
0001
0000
0100
0000
0001
0010
0001
0000
,  // measure 6
1000
0000
0001
0000
1000
0100
0010
0000
,  // measure 7
0001
0000
1000
0000
0001
0100
0010
1000
,  // measure 8
0001
0000
0010
0000
0001
0100
0001
0000
,  // measure 9
1000
0000
0100
0000
0010
0100
1000
0000
,  // measure 10
0001
0100
0010
1000
,  // measure 11
0020
0000
0000
0030
,  // measure 12
1000
0010
1000
0100
,  // measure 13
1001
1001
0000
0000
0001
0100
0010
1000
,  // measure 14
0001
0010
0001
0100
,  // measure 15
0001
1000
0010
0000
1000
0100
1000
0001
,  // measure 16
0010
0011
1000
1100
,  // measure 17
1001
1001
0000
0000
0001
0100
0001
1000
,  // measure 18
0010
1010
0001
0101
,  // measure 19
0001
1000
0001
0000
1000
0100
0010
0001
,  // measure 20
1000
0010
1000
0100
,  // measure 21
0010
0001
0100
0001
,  // measure 22
1000
0010
1000
0001
,  // measure 23
0010
0000
0001
0000
1000
0001
1000
0001
,  // measure 24
0200
0010
0000
0310
,  // measure 25
1001
0000
0000
0000
,  // measure 26
1000
0100
0010
0000
0001
0000
1000
0000
,  // measure 27
0001
0000
0100
0000
0010
1000
0001
0000
,  // measure 28
0010
0000
0001
0000
0100
0001
0100
0000
,  // measure 29
0010
0000
1000
0000
0100
1000
0100
0010
,  // measure 30
0001
0000
0100
0000
0001
0010
0001
0000
,  // measure 31
1000
0000
0010
0000
1000
0100
0010
0000
,  // measure 32
0001
0100
0010
1000
,  // measure 33
0020
0000
0000
0030
,  // measure 34
1000
0100
0010
0001
,  // measure 35
1001
1001
0000
0000
0001
0100
0001
0010
,  // measure 36
0001
0100
0010
1000
,  // measure 37
0001
1000
0001
0000
1000
0100
0010
0001
,  // measure 38
0010
0011
1000
1100
,  // measure 39
1001
1001
0000
0000
0001
0100
0010
0000
,  // measure 40
1001
0100
1001
0010
,  // measure 41
2002
0000
0000
3003
,  // measure 42
0110
0000
0000
0000
;

//---------------dance-single - ----------------
#NOTEDATA:;
#CHARTNAME:;
#STEPSTYPE:dance-single;
#DESCRIPTION:;
#CHARTSTYLE:;
#DIFFICULTY:Hard;
#METER:10;
#RADARVALUES:0.396838,0.400776,0.180243,0.222653,0.084820,262.000000,245.000000,17.000000,21.000000,0.000000,0.000000,0.000000,0.000000,0.000000,0.396838,0.400776,0.180243,0.222653,0.084820,262.000000,245.000000,17.000000,21.000000,0.000000,0.000000,0.000000,0.000000,0.000000;
#CREDIT:TonyAkita;
#NOTES:
0000
0000
0000
0000
,
0000
0000
0000
0000
,
0000
0000
0000
0000
,
2002
0000
0000
0000
0003
0000
0000
0010
,
3010
1000
0001
0000
0100
0001
0100
0000
,
0001
0000
0010
0000
0001
0000
1000
0000
0100
1000
0100
0000
1100
0000
0000
0000
,
1000
0010
1000
0000
0100
1000
0001
0000
,
0010
0000
0001
0000
0010
0000
0100
0000
1000
0100
1000
0000
0001
0100
0001
0000
,
0010
0001
1000
0000
0100
1000
0010
0000
,
0100
0000
0001
0000
1000
0000
0001
0000
1000
0010
1000
0000
1010
0000
0000
0000
,
0001
0010
0001
1000
0001
0100
0010
0000
,
1000
0000
0100
0000
0010
0000
0001
0000
1000
0001
1000
0000
1001
0000
0000
0000
,
2000
3010
2000
3001
,
1000
1100
0000
0000
0001
0100
0010
1000
,
0002
0013
0002
1003
,
0001
0000
1000
0010
1000
0000
0000
0000
0001
0100
0001
0000
1000
0000
0001
0000
,
1000
1000
0100
0000
1000
1000
0010
0000
,
1010
1001
0000
0000
0001
0100
0010
1000
,
0001
0001
0010
0000
0001
0001
0100
0000
,
0101
1001
0000
0000
1000
0100
0010
0001
,
1000
0000
0010
0000
0000
0000
1000
0001
1000
0000
0100
0000
0010
0000
0000
0000
,
0001
0100
0001
0010
0100
1000
0001
0000
,
0010
0000
0001
0000
0000
0000
1000
0001
1000
0000
0010
0000
1000
0000
0000
0000
,
0001
0100
0010
1000
0001
0010
0001
0000
,
2000
3200
0320
0032
,
0203
0000
0000
0000
0000
0000
0010
0010
,
0310
1000
0001
0000
0100
0001
0010
0000
,
0100
0000
1000
0000
0001
0000
0100
0000
0001
0010
0001
0000
0011
0000
0000
0000
,
1000
0010
1000
0000
0100
1000
0010
0000
,
0100
0000
0001
0000
1000
0000
0100
0000
0010
0100
0010
0000
0001
1000
0001
0000
,
1000
0010
0100
0000
0001
1000
0100
0000
,
0010
0000
0001
0000
0100
0000
0001
0000
1000
0001
1000
0000
1001
0000
0000
0000
,
0001
0100
0010
1000
0001
0010
0001
0000
,
1000
0000
0100
0000
1000
0000
0010
0000
1000
0001
1000
0000
1001
0000
0000
0000
,
2000
3200
0320
0032
,
1003
1001
0000
0000
0001
1000
0010
1000
,
0002
0203
0320
2030
,
3001
0000
0010
0001
0010
0000
0000
0000
0001
1000
0001
0000
0100
0000
0010
0000
,
1000
0010
1000
0000
0001
0010
0001
0000
,
1001
0110
0000
0000
1000
0010
0100
0001
,
1000
0100
1000
0000
0001
0100
0001
0000
,
2002
0000
0000
3003
,
0110
0000
0000
0000
;
