#VERSION:0.83;
#TITLE:Rise of the World;
#SUBTITLE:;
#ARTIST:cosMo@BousouP;
#TITLETRANSLIT:;
#SUBTITLETRANSLIT:;
#ARTISTTRANSLIT:;
#GENRE:;
#CREDIT:Flicks;
#MUSIC:Rise of the World.ogg;
#BANNER:Rise of the World.png;
#BACKGROUND:Rise of the World-bg.png;
#CDTITLE:;
#SAMPLESTART:65.319;
#SAMPLELENGTH:8.986;
#SELECTABLE:YES;
#OFFSET:-0.225;
#BPMS:0.000=212.000;
#STOPS:;
#BGCHANGES:;
#FGCHANGES:;

//--------------- dance-single - Flicks ----------------
#NOTEDATA:;
#STEPSTYPE:dance-single;
#DESCRIPTION:Flicks;
#DIFFICULTY:Beginner;
#METER:4;
#RADARVALUES:0,0,0,0,0;
#NOTES:
0000
0000
0000
0000
,
0000
0000
0000
0000
,
0000
0000
0000
0000
,
0000
0000
0000
0000
,
0000
0000
0000
0000
,
0000
0000
1000
0000
,
0000
0000
0001
0000
,
0000
0000
1000
0000
,
0000
0000
0001
0000
,
0000
0000
1000
0000
,
0000
0000
0100
0000
,
0000
0000
0010
0000
,
0000
0000
0001
0000
,
0000
0000
1000
0000
,
0000
0000
0001
0000
,
0000
0000
1000
0000
,
0000
0000
0001
0000
,
0000
0000
1000
0000
,
0000
0000
0000
0000
,
0000
0000
0001
0000
,
0000
0000
0000
0000
,
0000
0000
1000
0000
,
0000
0000
0000
0000
,
0000
0000
0001
0000
,
0000
0000
0000
0000
,
0000
0000
1000
0000
,
0000
0000
0001
0000
,
0000
0000
0100
0000
,
0000
0000
0010
0000
,
0000
0000
1000
0000
,
0000
0000
0001
0000
,
0000
0000
1000
0000
,
0000
0000
0100
0000
,
0000
0000
1000
0000
,
0000
0000
0001
0000
,
0000
0000
0100
0000
,
0000
0000
0001
0000
,
0000
0000
1000
0000
,
0000
0000
0100
0000
,
0000
0000
0010
0000
,
0000
0000
0001
0000
,
0000
0000
1000
0000
,
0000
0000
0001
0000
,
0000
0000
1000
0000
,
0000
0000
0001
0000
,
0000
0000
1000
0000
,
0000
0000
0001
0000
,
0000
0000
0100
0000
,
0000
0000
0010
0000
,
0000
0000
1000
0000
,
0000
0000
0000
0000
,
0000
0000
0001
0000
,
0000
0000
0000
0000
,
0000
0000
1001
0000
,
0000
0000
1001
0000
,
0000
0000
1001
0000
,
0000
0000
2000
0000
,
0000
0000
3001
0000
,
0000
0000
1000
0000
,
0000
0000
0100
0000
,
0000
0000
0010
0000
,
0000
0000
0001
0000
,
0000
0000
1000
0000
,
0000
0000
0100
0000
,
0000
0000
0010
0000
,
0000
0000
0001
0000
,
0000
0000
1000
0000
,
0000
0000
0001
0000
,
0000
0000
0100
0000
,
0000
0000
0010
0000
,
0000
0000
0010
0000
,
0000
0000
0010
0000
,
0000
0000
1000
0000
,
0000
0000
2002
0000
,
0000
0000
0000
0000
,
0000
0000
0000
0000
,
0000
0000
0000
0000
,
0000
3003
1000
0000
,
0001
0000
1000
0000
,
0001
0000
1000
0000
,
0001
0000
2000
0000
,
3000
0000
0001
0000
,
0000
0000
0010
0000
,
0000
0000
0100
0000
,
0000
0000
1000
0000
,
0000
0000
0001
0000
,
0000
0000
1000
0000
,
0000
0000
0010
0000
,
0000
0000
0100
0000
,
0000
0000
0001
0000
,
0000
0000
1000
0000
,
0000
0000
0001
0000
,
0000
0000
1000
0000
,
0000
0000
0001
0000
,
0000
0000
0010
0000
,
0000
0000
0100
0000
,
0000
0000
1000
0000
,
0000
0000
1001
0000
,
0000
0000
1001
0000
,
0000
0000
0110
0000
,
0000
0000
0000
0000
,
0000
0000
2002
0000
,
0000
0000
0000
0000
,
0000
0000
0000
3003
;

//--------------- dance-single - Flicks ----------------
#NOTEDATA:;
#STEPSTYPE:dance-single;
#DESCRIPTION:Flicks;
#DIFFICULTY:Easy;
#METER:8;
#RADARVALUES:0,0,0,0,0;
#NOTES:
0000
0000
0000
0000
,
0000
0000
0000
0000
,
0000
0000
0000
0000
,
0000
0000
0000
0000
,
0000
0000
0000
0000
,
0000
0000
1000
0001
,
1000
0000
0001
1000
,
0001
0000
1000
0100
,
0010
0100
1000
0001
,
1000
0000
0001
0100
,
0010
1000
0001
1000
,
0100
0010
0001
0100
,
0001
1000
0100
1000
,
0002
0000
1003
0010
,
0100
0001
1000
0001
,
0010
0100
1000
0010
,
1000
0001
0010
0001
,
2000
0000
3001
0000
,
0000
0000
1000
0000
,
0001
0000
1000
0000
,
0000
0000
0001
0000
,
1000
0000
0001
0000
,
1000
0010
1000
0000
,
0001
0000
1000
0000
,
0001
0010
0001
0000
,
2000
0000
3001
0100
,
0010
1000
0001
0010
,
0100
1000
0001
0100
,
0010
1000
0001
0010
,
0100
1000
1000
0100
,
0010
0001
2000
0000
,
3001
1000
0001
0100
,
0010
1000
0001
1000
,
0001
0000
2000
0000
,
0000
0000
0000
0000
,
3100
0001
0200
0000
,
1300
0000
1000
0000
,
0001
1000
0002
0000
,
0000
0000
0000
0000
,
0103
1000
0100
0001
,
1000
0001
1000
0100
,
1000
0000
0001
0100
,
0010
1000
0010
0100
,
0001
1000
0100
0010
,
0001
0010
0100
1000
,
0001
0000
0001
0100
,
0010
1000
0001
0100
,
0010
1000
0001
0010
,
0100
1000
0001
0010
,
0100
0000
2200
0000
,
0000
0000
0000
0000
0000
0000
0000
3300
,
0000
0000
1000
0000
,
0000
0001
0000
0000
,
1000
0000
0001
1000
,
0001
1000
0001
0100
,
0001
1000
0100
1000
,
0001
0100
0002
0000
,
0000
0000
1003
0100
,
0010
0100
1000
0100
,
0001
0100
1000
0000
,
0001
0000
1000
0001
,
1000
0000
0101
0000
,
1001
0000
1100
0000
,
1001
0000
2001
0000
,
3001
0000
0101
0000
,
0101
0000
0001
0100
,
0010
0100
0001
0100
,
1000
0100
0001
0000
,
1000
0000
0001
0000
,
2002
3003
1000
0100
,
0010
0002
1003
0100
,
0010
0002
1003
0001
,
0100
0001
1000
0001
,
0010
0001
1000
0000
,
0010
0000
0100
0000
,
0001
1000
1002
0000
,
0013
0000
0100
1000
,
0001
1000
1001
1000
,
1000
0000
0001
0001
,
0001
0000
0100
0100
,
0100
0000
0010
0000
,
0110
0000
1000
0100
,
0010
0100
1000
0100
,
0010
0001
0100
0010
,
0100
0001
1000
0100
,
0001
0100
1000
0100
,
0010
0001
0100
0010
,
0100
0001
0100
1000
,
0100
0001
1000
0001
,
1000
0001
2000
0000
,
3002
0000
2003
0000
,
3002
0000
2003
0000
,
3002
0000
2003
0000
,
3002
0000
1003
0100
,
0010
0001
0010
0100
,
1000
0010
0100
0001
,
0100
0010
1000
0001
,
1000
0001
1001
0000
,
0000
0000
1001
0000
,
0000
0000
2000
0000
,
0000
0000
0000
0000
,
0000
0000
0000
3000
0001
0000
0100
0000
,
1000
0100
0001
1000
,
0100
0001
0200
0000
,
0300
0000
0000
0000
;

//--------------- dance-single - Flicks ----------------
#NOTEDATA:;
#STEPSTYPE:dance-single;
#DESCRIPTION:Flicks;
#DIFFICULTY:Medium;
#METER:14;
#RADARVALUES:0,0,0,0,0;
#NOTES:
0000
0000
0000
0000
,
0000
0000
0000
0000
,
0000
0000
0000
0000
,
0000
0000
0000
0000
,
0000
0000
0000
0000
,
0000
0000
0000
0000
1000
0001
1000
0100
,
0010
0000
0001
1000
0001
0100
0010
0000
,
1000
0001
1000
0000
0001
1000
0001
0010
,
0100
0000
1000
0001
1000
0010
0100
0001
,
1000
0001
1000
0000
0001
0010
0100
0000
,
2000
0000
0100
0000
3100
0000
1000
0001
,
1000
0010
1000
0000
0010
0100
0001
1000
,
0001
0000
1000
0100
0010
0001
1000
0000
,
0001
0000
0000
0000
0100
0000
0010
0000
0000
0000
0010
0000
1000
0000
0000
0001
0000
0000
1000
0000
0000
0100
0000
0000
,
0010
0000
0001
1000
0001
0100
0010
0000
,
1000
0100
0010
0001
1000
0010
0100
0001
,
1000
0000
0001
1000
0001
1000
0100
0010
,
0001
0010
0100
1000
0001
0000
0001
0000
,
1000
0000
0010
0100
0010
0000
1000
0000
,
0001
0000
0001
1000
,
0001
0000
0010
0100
0010
0000
0001
0000
,
1000
0000
1000
0010
,
0100
0000
0000
0001
0000
0000
1000
0000
0001
0000
0000
0000
0010
0000
0000
0000
,
0100
0000
1000
0001
,
1000
0010
0100
0010
1000
0000
0001
0000
,
1000
0001
1000
0001
1000
0100
0010
0001
,
1000
0001
0100
0001
1000
0100
0010
0001
,
1000
0001
1000
0000
0001
0100
0010
1000
,
0001
1000
0100
1000
0001
0100
0010
1000
,
0001
1000
0001
0000
1000
0100
0010
0100
,
1000
0100
0001
0100
1000
0001
0100
0010
,
0100
0001
1000
0000
0002
0000
0000
0000
,
1003
0100
1000
1100
0000
0000
0110
0000
,
0011
1001
2000
0000
,
0000
0000
0000
0000
3100
0010
0001
1000
,
0002
0203
2300
0000
,
0000
0000
0000
0000
3100
0010
1000
0001
,
2000
3200
0302
0000
,
0000
0000
0000
0000
0103
0010
0001
1000
,
0001
0000
0000
0100
0000
0000
0010
0000
1000
0000
0001
0000
1000
0000
0002
0000
,
0000
0000
1003
0000
0100
0010
0001
1000
,
0001
1000
0001
0000
1000
0001
1000
0001
,
1000
0000
0001
0000
0100
0000
0001
0000
1000
0000
0000
0001
0000
0000
1000
0000
,
0100
1000
0001
1000
0001
0100
1000
0100
,
0001
0000
1000
0000
0100
0000
0002
0000
0000
0000
0103
0000
0000
1000
0000
0000
,
0001
1000
0001
0000
1000
0010
1000
0010
,
0100
0001
0100
0001
1000
0100
0010
0001
,
1000
0010
0100
0001
1000
0001
1000
0000
,
0100
0010
0100
1000
0100
0010
0001
1000
,
0001
0000
0000
0100
0000
0000
0010
0000
2020
0000
0000
0000
0000
0000
0000
0000
,
0000
0000
0000
0000
0000
0000
0000
3030
,
0000
0000
1000
0000
,
0000
0001
0000
0000
,
1000
0000
0000
0000
1000
0100
0010
0100
,
1000
0100
0010
0100
1000
0001
0100
0010
,
0100
0001
0100
0010
0100
0001
0100
0010
,
1000
0100
0010
0001
2000
0000
0000
0000
,
0000
0000
0000
0000
3001
0100
0010
1000
,
0001
0000
1000
0000
0001
0000
0000
1000
0100
0000
0000
0100
0010
0000
0000
0010
,
0001
0000
0000
1000
0001
0000
1000
0000
0001
0000
0000
0100
0000
0000
0001
0000
,
2000
0000
3000
0100
2000
0000
0000
0000
,
3001
0000
0100
0000
0001
0000
1000
0000
0100
0010
0000
0000
0010
0001
0000
0000
,
1000
0000
0000
0001
0000
0000
1000
0000
0010
0100
0000
0000
0100
0001
0000
0000
,
1000
0001
1000
0100
0020
0000
0032
1000
,
1003
0000
0101
0101
,
1001
0000
1100
0000
1000
0100
0010
0001
,
1000
0000
0001
0000
1000
0000
0000
0001
0100
0000
0000
0100
0010
0000
0000
0010
,
1000
0000
0000
0001
1000
0000
0001
0000
1000
0000
0000
0100
0000
0000
1000
0000
,
0002
0000
0003
0100
0002
0000
0000
0000
,
1003
0001
1000
0000
0001
0100
1000
0100
,
0001
1000
0002
0000
1003
0100
0001
0100
,
1000
0001
2000
0000
3001
0100
0010
0100
,
0001
0100
0010
0100
0001
1000
0100
0010
,
0100
0000
0000
1000
0000
0000
0100
0000
0000
0000
0000
0000
1001
0000
0000
0000
0000
0000
0001
0000
0000
0000
0100
0000
,
0010
0000
0000
0010
0000
1000
0001
0000
0000
1000
0000
0100
,
0010
0000
0000
0010
0000
0000
0011
0000
0000
0001
0000
0010
,
0100
0000
0000
0100
0000
1000
0001
0000
0000
1000
0000
0010
,
0100
0000
0000
0100
0000
0000
0101
0000
0001
0000
0100
0000
,
1000
0000
0100
0000
0010
0000
1000
0000
0001
0000
1000
0000
,
1000
0000
0100
0000
0001
0000
0100
0000
0010
0000
0001
0000
,
1000
0000
0001
0000
1000
0000
0002
0000
0000
0000
0000
0000
,
2003
0000
0000
0000
0000
0000
3001
0000
0100
0001
0000
1000
,
0001
0000
1000
0100
0000
1000
0001
0000
1000
0001
1000
0001
,
1000
0000
0000
0001
0000
0000
1000
0000
0010
1000
0000
0001
,
1000
0000
0001
0010
0000
0001
2000
0000
0000
3002
0000
0000
,
2003
0000
0000
3002
0000
0000
1003
0000
0010
0100
0000
0100
,
0001
0000
0001
1000
0000
1000
0100
0000
1000
0100
1000
0100
,
1000
0000
0002
0000
0000
0000
1003
0000
0010
0100
0000
0100
,
0001
0000
0001
1000
0000
1000
0100
0000
0100
0010
0000
0010
,
0001
0000
1000
0002
0000
0000
1003
0000
0000
0000
0000
0000
,
1001
0000
0101
0000
,
0101
0000
1001
0000
,
1001
0000
1100
0000
,
1100
0000
0000
0000
1000
0100
0010
0001
,
1000
0100
0010
0001
0100
0010
1000
0001
,
0100
0010
1000
0100
0010
0000
0000
0000
,
0110
0000
1001
0000
,
1010
0000
0000
0000
0000
0000
1001
0000
0000
1000
0000
0100
,
0010
0000
0001
1000
0000
0000
1001
0000
0000
1000
0000
0010
,
0100
0000
0001
1000
0000
0000
2002
0000
0000
0000
0000
0000
,
0000
0000
0000
0000
,
0000
0000
3003
0000
1000
0010
0100
1000
,
0100
0001
1000
0001
0010
0100
0001
0100
,
1000
0000
0001
0000
0100
0000
0010
0000
1000
0000
0000
0001
0000
0000
0000
0000
;

//--------------- dance-single - Flicks ----------------
#NOTEDATA:;
#STEPSTYPE:dance-single;
#DESCRIPTION:Flicks;
#DIFFICULTY:Hard;
#METER:17;
#RADARVALUES:0,0,0,0,0;
#NOTES:
0000
0000
0000
0000
,
0000
0000
0000
0000
,
0000
0000
0000
0000
,
0000
0000
0000
0000
,
0000
0000
0000
0000
,
0000
0000
0000
0000
1000
0001
1000
0100
,
0010
0000
0001
1000
0001
0100
0010
0000
,
1000
0100
0010
0001
1000
0100
0010
0001
,
1000
0000
0000
0000
0001
0000
1000
0000
0010
0000
0100
0000
0001
0000
0100
0001
,
0100
0000
0001
0000
1000
0000
0000
0000
0001
0000
0010
0000
0100
0000
0010
0100
,
0010
0100
1000
0001
0100
0010
1000
0000
,
0001
1000
0001
1000
0001
0010
0100
1000
,
0001
0000
1000
0010
0100
0001
1000
0001
,
1000
0000
0100
0000
0010
0000
0001
0000
0010
0000
0100
0000
1000
0000
0000
0001
0000
0000
0100
0000
0000
0010
0000
0000
,
1000
0000
0001
1000
0001
0010
0100
0000
,
1000
0010
0100
0001
1000
0010
0100
0001
,
1000
0000
0100
0000
0010
0000
0001
0000
1000
0000
0100
0000
0010
0000
0001
0010
,
0001
0000
1000
0000
0001
1000
0001
1000
0001
0000
0000
0000
0001
0000
0000
0000
,
1000
0000
0010
0100
0010
0000
1000
0000
,
0001
0000
0001
1000
,
0001
0000
0010
0100
0010
0000
0001
0000
,
1000
0000
1000
0010
,
0100
0000
0000
0001
0000
0000
1000
0000
0001
0000
0000
0000
0010
0000
0000
0000
,
0100
0000
1000
0001
,
1000
0010
0100
0010
1000
0000
0001
0000
,
1000
0000
0100
0000
1000
0100
1000
0100
1000
0000
0100
0000
0010
0000
0100
0000
,
1000
0100
0001
0100
0010
0001
1000
0001
,
1001
0000
0001
0100
0010
0100
0001
0100
,
1000
0100
0010
1000
0001
1000
0001
1000
,
1001
0000
0001
0010
0100
0010
0001
0010
,
1000
0010
0001
1000
0010
0001
0010
1000
,
0001
1000
0001
1000
0100
0010
0100
1000
,
0001
0100
0010
0110
0000
0000
1001
0000
,
1001
1001
2000
0001
,
3000
0000
1000
0000
0100
0000
0010
0000
0001
0010
0001
0000
1000
0000
0000
0000
,
0001
0100
0020
1000
,
0030
0000
1000
0000
0010
0000
0100
0000
0001
0100
0001
0000
1000
0000
0001
0000
,
1000
0000
0001
0000
1000
0000
0001
0010
0002
0000
0000
0000
1000
0000
0000
0000
,
0003
0000
0001
0000
0100
0000
0010
0000
0100
0001
0100
0000
0001
0000
0000
0000
,
1000
0100
0001
0100
2000
0000
3001
2000
,
0000
0000
0000
0000
3001
0000
0000
0000
1000
0000
0001
0100
0001
0000
1000
0000
,
0001
0000
0000
0010
0000
0000
0100
1000
0001
0000
1000
0010
1000
0000
0010
0000
,
0100
0000
0010
0100
0010
0000
0100
0000
0001
0000
0000
1000
0000
0000
0001
0000
,
1000
0100
1000
0000
0001
0000
1000
0000
0001
1000
0001
1000
0001
0000
1000
0000
,
0001
0000
0100
0000
0010
0000
1000
0000
0001
0000
0010
0000
0000
1000
0000
0000
,
0010
0000
0001
1000
0001
0000
1000
0000
0001
1000
0001
1000
0001
0000
1000
0000
,
0000
0000
0100
0000
0010
0000
0001
0000
1000
0001
1000
0000
0010
0100
0010
0000
,
0100
0010
0100
0000
0001
0000
1000
0000
0001
0000
0010
0000
0100
0000
0000
0000
,
1000
0000
0100
0000
0010
0000
0001
0000
1000
0001
1000
0001
1000
0000
0001
0000
,
0100
0000
0000
0001
0000
0000
0100
0000
0202
0000
0000
0000
0000
0000
0000
0000
,
0000
0000
0000
0000
0000
0000
0000
0303
,
0000
0000
1000
0000
,
0000
0001
0000
0000
,
1000
0000
0000
0000
1000
0001
0100
0001
,
1000
0001
0010
0001
1000
0010
0100
0001
,
1000
0000
0001
0000
0010
0000
0100
0000
1000
0001
1000
0000
0010
0100
0010
0000
,
0100
0001
0100
0000
0001
1000
0001
1000
0001
0000
0000
0000
0000
0000
0000
0000
,
0000
0000
0000
0000
1000
0010
0100
0001
,
0100
0000
0010
0000
1000
0000
0001
0010
0100
0000
0010
0100
0010
0000
0100
0010
,
0001
0000
1000
0001
1000
0000
0001
0000
1000
0000
0000
1000
0000
0000
1000
0000
,
0002
0000
0003
1000
0001
0000
1000
0010
,
0100
0000
0001
0100
0010
0000
1000
0000
0001
1000
0001
0000
1000
0001
1000
0000
,
0100
0000
0000
0010
0000
0000
0100
0000
1000
0001
1000
0000
0001
1000
0001
0000
,
1000
0010
0100
0000
0001
0100
0010
1000
0020
0000
0000
0000
0000
0000
0130
0000
,
0002
0000
0000
0000
0003
0000
1000
0001
2000
0000
0000
0000
3002
0000
0000
0000
,
1003
0000
0001
0000
1000
0100
1000
0100
1000
0000
0100
0000
0010
0000
0001
0000
,
0010
0000
0100
0000
1000
0000
0001
0100
0010
0000
0100
0010
0100
0000
0010
0100
,
0001
0000
1000
0001
1000
0000
0001
0000
1000
0000
0000
1000
0000
0000
1000
0000
,
0002
0000
0003
1000
0002
0000
0000
0003
,
1000
0001
1000
0001
2000
0000
0000
0000
3001
0000
0100
0000
1000
0000
0001
0000
,
0010
1000
0002
0000
1003
0100
0001
1000
,
0010
0000
0001
0000
2000
0000
0000
0000
3001
0100
0001
0000
1000
0010
1000
0000
,
0001
1000
0001
0000
1000
0100
1000
0000
0001
0010
0001
0000
1000
0001
1000
0000
,
0001
0000
0000
1000
0000
0000
0001
0000
0000
1000
0000
0000
0001
0000
0000
1000
0000
0000
0001
0000
0000
1000
0000
0000
0001
0000
0000
0000
0000
0000
0000
0000
0000
0000
0000
0000
1000
0000
0000
0000
0000
0000
0000
0000
0100
0000
0000
0000
,
0010
0000
0000
0010
0000
0001
1000
0000
0000
1000
0000
0001
,
0100
0001
0100
0010
1000
0010
1000
0000
0000
1000
0000
0010
,
0100
0000
0000
0100
0000
0001
1000
0000
0000
1000
0000
0001
,
0010
0001
0010
0100
1000
0100
1000
0000
0001
0000
0100
0000
,
1000
0000
0100
0000
0010
1000
0001
0000
1000
0000
0100
0000
,
0001
0000
0100
0000
0010
0001
1000
0000
0001
0000
0100
0000
,
1000
0000
0100
0000
0001
0000
2000
0000
0000
0000
0000
0000
,
3002
0000
0000
0000
0000
0000
1003
0000
0001
0010
0001
0010
,
0100
0000
1000
0010
1000
0010
0100
0000
0001
0100
1000
0100
,
0001
0000
1000
0100
1000
0100
0010
0000
0001
0100
0001
0100
,
0010
0000
1000
0010
0001
0010
2000
0000
0000
3002
0000
0000
,
2003
0000
0000
3002
0000
0000
1003
0100
1000
0100
0010
0001
,
0010
0001
1000
0001
1000
0001
0100
0001
0100
0010
1000
0010
,
1000
0001
1000
0001
1000
0100
0010
0001
1000
0100
0010
0001
,
1000
0001
0100
0010
1000
0001
2000
0000
0000
3200
0000
0000
,
0302
0000
0203
0000
1300
0100
1000
0100
,
0010
0001
0010
0001
0010
0100
0010
0001
,
1000
0010
0100
0010
1000
0010
1000
0010
,
0100
0001
0100
0001
1000
0001
0010
0100
,
1000
0000
0010
0000
0100
0000
0000
0000
0001
0000
1000
0000
0001
1000
0001
0000
,
1000
0000
0100
0000
0010
0100
0010
0000
0001
0000
1000
0000
0001
1000
0001
0000
,
1000
0000
0010
0000
0100
0010
0100
0000
0001
1000
0001
0000
1000
0001
1000
0000
,
0100
0010
0100
0000
0010
0100
0010
0000
0001
1000
0001
0000
1000
0001
1000
0000
,
0001
0000
0000
1000
0000
0000
0001
0000
0000
1000
0000
0000
0001
0000
0000
1000
0000
0000
0001
0000
0000
1000
0000
0000
0001
0000
0000
0000
0000
0000
0000
0000
0000
0000
0000
0000
0001
0000
0000
0000
0000
0000
0000
0000
0100
0000
0000
0000
,
1000
0000
0100
0001
0000
0000
1001
0000
0000
1000
0000
0100
,
0001
0000
0100
1000
0000
0000
2002
0000
0000
0000
0000
0000
,
0000
0000
0000
0000
,
0000
0000
0000
0000
3003
0000
0000
0000
0001
1000
0001
1000
0001
1000
0001
1000
,
0001
1000
0001
1000
0001
1000
0001
1000
0001
1000
0001
1000
0001
1000
0001
1000
,
0001
1000
0001
1000
0001
1000
0001
1000
0002
0000
0000
1003
0000
0000
0000
0000
;

//--------------- dance-single - Flicks ----------------
#NOTEDATA:;
#STEPSTYPE:dance-single;
#DESCRIPTION:Flicks;
#DIFFICULTY:Challenge;
#METER:18;
#RADARVALUES:0,0,0,0,0;
#NOTES:
0000
0000
0000
0000
,
0000
0000
0000
0000
,
0000
0000
0000
0000
,
0000
0000
0000
0000
,
0000
0000
0000
0000
,
0000
0000
0000
0000
1000
0001
1000
0100
,
0010
0000
0001
1000
0001
0100
0010
0000
,
1000
0100
0010
0001
1000
0100
0010
0001
,
1000
0000
0000
0000
0001
0000
1000
0000
0010
0000
1000
0000
0010
1000
0010
1000
,
0010
0000
0100
0000
0001
0000
0000
0000
1000
0000
0100
0000
1000
0100
1000
0100
,
1000
0100
0010
0001
0100
0010
1000
0000
,
0001
1000
0001
1000
0001
0010
0100
1000
,
0001
0000
1000
0010
0100
0001
1000
0001
,
1000
0000
0100
0000
0010
0000
0001
0000
0100
0000
0010
0000
1000
0000
0000
0001
0000
0000
0010
0000
0000
0100
0000
0000
,
1000
0000
0001
1000
0001
0100
0010
0000
,
1000
0100
0010
0001
1000
0100
0010
0001
,
1000
0000
0010
0000
0100
0000
0001
0000
1000
0000
0010
0000
0100
0000
0001
0100
,
0010
1000
0001
1000
0001
1000
0100
0010
0001
0000
0000
0000
0001
0000
0000
0000
,
1000
0000
0010
0100
0010
0000
1000
0000
,
0001
0000
0001
1000
,
0001
0000
0010
0100
0010
0000
0001
0000
,
1000
0000
1000
0010
,
0100
0000
0000
0001
0000
0000
1000
0000
0001
0000
0000
0000
0010
0000
0000
0000
,
0100
0000
1000
0001
,
1000
0010
0100
0010
1000
0000
0001
0000
,
1000
0000
0100
0000
1000
0100
0010
0001
1000
0000
0001
0000
0100
0000
1000
0000
,
0100
0010
1000
0001
1000
0100
0010
0001
,
1000
0001
1000
0001
1000
0000
0001
0000
1000
0000
0010
0000
0100
0000
0001
0000
,
1000
0100
0001
0100
0010
0001
1000
0001
,
1000
0001
1000
0001
1000
0000
0001
0000
1000
0000
0001
0000
0100
0000
0010
0000
,
0001
0010
1000
0001
1000
0100
0010
0001
,
1000
0001
1000
0001
1000
0000
0001
0000
1000
0000
0010
0000
0100
0000
0001
0000
,
1000
0000
0100
0000
0010
0000
0001
0000
1000
0001
1000
0001
0100
0001
0100
0010
,
0100
0010
1000
0010
1000
0001
1000
0001
2000
0000
0000
0000
0001
0000
0000
0000
,
3000
0000
1000
0000
0100
0000
0010
0000
0001
0010
0001
0000
1000
0000
0000
0000
,
0001
0100
0020
1000
,
0030
0000
1000
0000
0010
0000
0100
0000
0001
0100
0001
0000
1000
0000
0001
0000
,
1000
0000
0001
0010
0001
0000
1000
0010
2000
0000
0000
0000
0001
0000
0000
0000
,
3000
0000
1000
0000
0100
0000
0010
0000
0100
1000
0100
0000
1000
0000
0000
0000
,
0001
0100
1000
0100
0002
0000
1003
0002
,
0000
0000
0000
0000
1003
0000
0000
0000
0001
0000
1000
0100
1000
0000
0001
0000
,
1000
0010
0100
0010
1000
0001
0010
0100
1000
0000
0001
0000
1000
0010
0100
0010
,
1000
0000
0001
0000
1000
0100
0010
0001
1000
0000
0100
0010
0001
0000
1000
0000
,
0001
1000
0001
1000
0001
0000
1000
0000
0001
0100
0001
0100
0010
0100
0010
1000
,
0010
1000
0001
1000
0100
0010
0001
1000
0001
0000
1000
0000
0001
0100
0001
0000
,
1000
0000
0001
0000
0010
0000
0100
0000
1000
0100
0010
0001
1000
0001
0100
0000
,
0000
0000
0001
0000
1000
0000
0001
0000
1000
0100
1000
0100
0010
0100
0010
0001
,
0010
0001
1000
0001
0100
0010
1000
0001
1000
0000
0001
0000
1000
0000
0100
0010
,
0100
0000
0010
0001
0010
0000
0001
0000
1000
0010
1000
0010
0100
0010
0100
0001
,
0100
0000
0000
0100
0000
0000
0100
0000
0202
0000
0000
0000
0000
0000
0000
0000
,
0000
0000
0000
0000
0000
0000
0000
0303
,
0000
0000
1000
0000
,
0000
0001
0000
0000
,
1000
0000
0000
0000
0000
0000
0000
0000
1000
0000
0001
0010
0001
0000
1000
0000
,
0001
0000
1000
0010
1000
0000
0001
0000
1000
0000
0100
0010
0100
0000
1000
0000
,
0001
0000
0100
0010
0100
0000
0001
0000
1000
0100
1000
0100
0010
0001
0010
0001
,
1000
0001
0100
0001
0100
0010
1000
0010
1000
0000
0000
0000
0000
0000
0000
0000
,
0000
0000
0000
0000
1000
0100
0010
0001
1000
0000
0010
0000
0100
0000
0001
0000
,
0100
0000
0010
0000
1000
0000
0001
0010
0100
0000
1000
0001
1000
0000
0100
0010
,
0001
0000
1000
0010
1000
0000
0001
0000
0010
0000
0000
1000
0000
0000
0010
0000
,
0002
0000
0003
1000
0001
0000
1000
0010
,
0100
0000
0001
0100
0010
0100
0010
1000
0001
0010
0100
0000
0010
0100
1000
0000
,
0100
0000
0000
0001
0000
0000
0100
0000
1000
0001
0100
0000
0010
0100
0001
0000
,
1000
0100
0010
0000
0001
0010
0100
0010
0002
0000
0000
0000
0000
0000
0103
0000
,
0002
0000
0000
0000
0003
0000
1000
0001
2000
0000
0000
0000
3002
0000
0000
0000
,
1003
0000
0001
0000
1000
0100
1000
0100
1000
0000
0100
0000
0010
0000
0001
0000
,
0010
0000
0100
0000
1000
0000
0001
0100
0010
0000
1000
0001
1000
0000
0010
0100
,
0001
0000
1000
0100
1000
0000
0001
0000
0100
0000
0000
1000
0000
0000
0100
0000
,
0002
0000
0003
0001
2000
0000
0000
3000
,
0001
1000
0001
1000
0002
0000
0000
0000
1003
0000
0100
0000
0001
0000
1000
0000
,
0010
0001
2000
0000
3001
0100
1000
0001
,
0010
0000
1000
0000
0002
0000
0000
0000
1003
0100
1000
0100
0010
0001
0010
0001
,
1000
0010
0100
0001
0100
0001
0100
0010
1000
0010
1000
0001
1000
0001
1000
0100
,
0010
0000
0000
0100
0000
0000
1000
0000
0000
0001
0000
0000
0100
0000
0000
0010
0000
0000
0100
0000
0000
0001
0000
0000
1000
0000
0000
0000
0000
0000
0000
0000
0000
0000
0000
0000
1000
0000
0000
0000
0100
0000
0000
0000
1000
0000
0000
0000
,
0100
0000
0000
0010
0001
0010
0001
0000
0000
1000
0010
0100
,
0010
1000
0001
0010
0100
0010
0001
0000
0000
1000
0010
1000
,
0010
0000
0000
0100
0001
0100
0001
0000
0000
1000
0100
0010
,
0100
1000
0001
0100
0010
0100
0001
0000
1000
0000
0100
0000
,
0001
0000
0100
0000
0010
0001
1000
0000
0001
0000
0100
0000
,
1000
0000
0100
0000
0010
1000
0001
0000
1000
0000
0100
0000
,
0001
0000
0100
0000
1000
0000
0002
0000
0000
0000
0000
0000
,
2003
0000
0000
0000
0000
0000
3001
1000
0010
1000
0001
1000
,
0010
0100
0001
1000
0000
0000
0001
1000
0100
1000
0001
1000
,
0100
0010
0001
1000
0000
0000
0001
0100
0010
1000
0001
1000
,
0100
0001
0100
1000
0000
0000
0001
0100
1000
0100
0001
1000
,
0100
0010
0001
1000
0100
0010
0001
1000
0010
0100
0001
1000
,
0010
0100
0001
1000
0000
0000
0001
0010
0100
0010
0100
1000
,
0001
1000
0010
0100
0010
0100
0001
1000
0100
0010
0100
1000
,
0010
0100
0010
1000
0001
0010
0100
0010
0001
0100
0010
0100
,
0001
0000
1000
0000
0001
0000
1000
0000
0000
0000
0000
0000
0001
0000
0000
0010
0000
0000
0001
0000
0000
0010
0000
0000
,
0100
1000
0100
1000
0100
0010
0100
1000
,
0001
0100
0010
0100
0001
0100
0001
0100
,
0010
1000
0010
1000
0001
1000
0100
0010
,
0001
0000
0100
0000
0010
0000
0000
0000
1000
0000
0100
0000
0010
0001
0010
0001
,
0010
0000
0100
0000
1000
0001
1000
0001
1000
0000
0010
0000
0100
0001
0100
0001
,
0100
0010
1000
0001
1000
0000
0001
0000
0010
0000
0100
0000
0010
0100
0010
0100
,
0010
0000
0001
0000
0100
0000
0010
0000
1000
0100
0010
0100
1000
0100
1000
0001
,
1000
0000
0000
0001
0000
0000
1000
0000
0000
0001
0000
0000
0100
0000
0000
0010
0000
0000
0100
0000
0000
0001
0000
0000
1000
0000
0000
0000
0000
0000
0000
0000
0000
0000
0000
0000
0001
0000
0000
0000
0010
0000
0000
0000
0100
0000
0000
0000
,
0001
0100
0010
0001
0000
0000
1001
0000
0000
1000
0010
0100
,
1000
0100
0010
1000
0010
0100
0002
0000
0000
0000
0000
0000
,
0000
0000
0000
0000
,
0000
0000
0000
0000
0000
0000
0003
0000
1000
0100
1000
0100
0010
0001
0010
0001
,
1000
0001
0100
0001
0100
0010
1000
0010
1000
0001
1000
0001
1000
0100
0010
0001
,
1000
0100
0010
0001
1000
0010
0100
0001
0200
0000
0000
0301
0000
0000
0000
0000
;
