#VERSION:0.83;
#TITLE:Renaissance;
#SUBTITLE:;
#ARTIST:LhoU;
#TITLETRANSLIT:;
#SUBTITLETRANSLIT:;
#ARTISTTRANSLIT:;
#GENRE:FUSION;
#ORIGIN:;
#CREDIT:;
#BANNER:Renaissance.png;
#BACKGROUND:Renaissance-bg.png;
#PREVIEWVID:;
#JACKET:Renaissance-jacket.png;
#CDIMAGE:;
#DISCIMAGE:;
#LYRICSPATH:;
#CDTITLE:;
#MUSIC:Renaissance.ogg;
#OFFSET:-0.333000;
#SAMPLESTART:15.092970;
#SAMPLELENGTH:14.679998;
#SELECTABLE:YES;
#BPMS:0.000=130.000;
#STOPS:;
#DELAYS:;
#WARPS:;
#TIMESIGNATURES:0.000=4=4;
#TICKCOUNTS:0.000=4;
#COMBOS:0.000=1;
#SPEEDS:0.000=1.000=0.000=0;
#SCROLLS:0.000=1.000;
#FAKES:;
#LABELS:0.000=Song Start;
#BGCHANGES:0.000=Renaissance.mp4=1.000=0=0=0=StretchNoLoop====,
99999=-nosongbg-=1.000=0=0=0 // don't automatically add -songbackground-
;
#KEYSOUNDS:;
#ATTACKS:
;

//---------------dance-single - ----------------
#NOTEDATA:;
#CHARTNAME:;
#STEPSTYPE:dance-single;
#DESCRIPTION:;
#CHARTSTYLE:;
#DIFFICULTY:Hard;
#METER:14;
#RADARVALUES:0.614398,0.641094,0.107296,0.536481,0.464950,481.000000,469.000000,12.000000,60.000000,0.000000,0.000000,0.000000,0.000000,0.000000,0.614398,0.641094,0.107296,0.536481,0.464950,481.000000,469.000000,12.000000,60.000000,0.000000,0.000000,0.000000,0.000000,0.000000;
#CREDIT:BlindedVanguard573;
#NOTES:
// measure 0
0000
0000
0000
0000
,  // measure 1
0000
0000
0000
0000
,  // measure 2
0000
0000
0000
0000
,  // measure 3
0000
0000
0000
0000
,  // measure 4
2001
0010
3001
0000
2000
0010
3001
0000
,  // measure 5
2000
0000
0010
0000
3001
0000
0010
0001
0010
0000
0000
0000
0001
0000
0100
0010
,  // measure 6
0100
0000
0001
0000
1000
0000
0100
0010
0100
0000
1000
0000
0001
0000
0100
0010
,  // measure 7
1000
0000
0000
0000
0001
0010
0100
1000
0002
0000
0003
0000
2000
0000
3000
0000
,  // measure 8
0001
0100
0002
0000
0010
0000
0000
0000
1003
0100
2000
0000
0010
0000
3000
0002
,  // measure 9
0100
0000
0000
2003
0100
0000
0000
3002
0010
0000
0000
0000
1003
0000
0000
0010
,  // measure 10
0001
0000
0010
0000
0100
0000
0001
0010
0001
0000
0010
0000
0100
0000
1000
0001
,  // measure 11
1000
0000
0000
0000
0001
0100
0010
1000
0001
0000
0000
0000
0010
0000
0100
0000
,  // measure 12
1000
0100
2000
0000
0010
0000
0000
0000
3001
0100
0002
0000
0010
0000
0003
2000
,  // measure 13
0100
0000
0000
3002
0100
0000
0000
2003
0010
0000
0000
0000
3001
0000
0000
0010
,  // measure 14
1000
0000
0010
0000
0100
0000
1000
0010
1000
0000
0010
0000
0100
0000
0000
0000
,  // measure 15
1001
0000
0000
0000
0001
0010
0100
1000
0001
0000
0000
0000
0100
0000
0010
0000
,  // measure 16
0000
2002
0000
0000
,  // measure 17
3003
0000
0000
0000
,  // measure 18
0002
0000
0100
0000
1003
0000
0100
1000
0200
0000
1000
0000
0310
0000
0100
1000
,  // measure 19
0001
0000
0100
0000
1000
0000
0000
0100
0020
0000
1000
0000
0130
0000
0010
1000
,  // measure 20
0002
0000
0010
0000
0103
0000
0000
0001
2000
0000
0010
0000
3100
0000
0000
1000
,  // measure 21
0002
0000
0100
0000
0013
0000
0001
1000
0010
0000
0100
0000
0001
0000
0000
0000
,  // measure 22
0022
0000
0000
0000
0030
0000
1003
0001
0020
0000
0000
0000
0000
0000
0031
1000
,  // measure 23
0020
0000
0000
0000
0032
0000
0000
0013
0200
0000
0000
0000
0301
0000
0010
0001
,  // measure 24
2000
0000
0010
0000
3001
0000
0010
0001
0100
0000
1000
0000
2000
0000
3000
0000
,  // measure 25
0200
0000
0001
0000
0310
0000
1000
0100
0020
0000
0001
0000
0130
0000
1000
0001
,  // measure 26
1000
0000
0001
0100
0010
0000
1000
0010
0100
0000
0001
0100
0010
0000
1000
0000
,  // measure 27
0001
0000
0010
0100
1000
0000
0100
0010
0001
0000
0010
0100
1000
0000
0001
0000
,  // measure 28
0100
0000
0010
1000
0100
0000
0010
0001
0100
0000
0010
1000
0100
0000
0010
0000
,  // measure 29
0001
0000
0100
0001
0010
0000
0100
1000
0001
0000
0100
0000
1000
0000
0100
0000
,  // measure 30
0001
0000
0010
0001
0100
0000
0001
0010
0100
0000
1000
0010
0100
0000
0010
0000
,  // measure 31
1000
0000
0010
1000
0100
0000
1000
0010
0100
0000
0001
0010
0100
0000
0010
0000
,  // measure 32
0001
0000
0100
1000
0100
0000
0010
0000
1000
0000
0100
0001
0100
0000
0010
0001
,  // measure 33
1000
0000
0000
0000
0000
0000
0010
0100
0002
0000
0000
0000
0000
0000
0003
0000
,  // measure 34
2001
0010
3100
0000
2000
0010
3100
0000
,  // measure 35
2000
0000
0010
0000
3100
0000
0010
0001
0010
0000
0000
0000
0001
0000
0100
0010
,  // measure 36
1000
0000
0010
0000
0100
0000
0001
0010
0001
0000
0010
0000
0100
0000
1000
0001
,  // measure 37
1000
0000
0000
0000
0001
0100
0010
1000
0100
0000
0000
0000
0010
0000
0001
1000
,  // measure 38
0002
0010
0103
0000
0002
0010
0103
0000
,  // measure 39
0002
0000
0010
0000
0103
0000
0010
1000
0010
0000
0000
0000
1000
0000
0100
0010
,  // measure 40
0001
0000
0010
0000
0100
0000
1000
0010
1000
0000
0010
0000
0100
0000
0001
1000
,  // measure 41
0020
0000
0000
0000
1030
0000
0100
0010
0002
0000
0000
0000
0000
0000
0003
0000
,  // measure 42
2001
0100
3010
0000
2000
0100
3010
0000
,  // measure 43
2000
0000
0100
0000
3010
0000
0100
0001
1000
0000
0000
0000
0001
0000
0010
0100
,  // measure 44
0001
0000
0100
0000
0010
0000
0001
0100
0010
0000
1000
0000
0100
0000
0010
0001
,  // measure 45
1000
0000
0000
0000
0001
0010
0100
1000
0010
0000
0000
0000
0100
0000
0001
1000
,  // measure 46
0002
0100
0013
0000
0002
0100
0013
0000
,  // measure 47
0002
0000
0100
0000
0013
0000
0100
1000
0001
0000
0000
0000
1000
0000
0010
0100
,  // measure 48
1000
0000
0100
0000
0010
0000
1000
0100
0010
0000
0001
0000
1000
0000
0001
0100
,  // measure 49
1000
0000
0000
0000
0100
1000
0100
0001
2000
0000
3000
0000
0002
0000
0003
0000
,  // measure 50
1000
0020
0100
0000
1030
0000
0001
0000
1000
0200
0010
0000
1300
0000
0010
1000
,  // measure 51
0100
0000
1000
0100
0010
0000
0100
0010
0002
0000
0010
0000
1003
0000
0001
0100
,  // measure 52
1000
0000
0100
0000
0010
0000
1000
0010
1000
0000
0100
0000
0010
0000
0001
1000
,  // measure 53
0001
0000
0100
0000
0001
0010
0100
1000
0200
0000
0010
0000
1300
0000
1001
0000
,  // measure 54
0001
0200
0010
0000
0301
0000
1000
0000
0001
0020
0100
0000
0031
0000
0100
0001
,  // measure 55
0010
0000
0001
0010
0100
0000
0010
0100
2000
0000
0100
0000
3001
0000
1000
0010
,  // measure 56
0001
0000
0010
0000
0100
0000
0001
0100
0001
0000
0010
0000
0100
0000
1000
0000
,  // measure 57
0001
0000
0010
0000
0001
0100
0010
1000
0020
0000
0100
0000
1030
0000
0000
0000
,  // measure 58
0102
1003
0001
1000
2100
3001
1000
0000
,  // measure 59
1010
0000
0101
0000
1001
0001
1000
0000
;

//---------------dance-single - ----------------
#NOTEDATA:;
#CHARTNAME:;
#STEPSTYPE:dance-single;
#DESCRIPTION:;
#CHARTSTYLE:;
#DIFFICULTY:Beginner;
#METER:3;
#RADARVALUES:0.178827,0.212804,0.053648,0.017883,0.000000,140.000000,134.000000,6.000000,2.000000,0.000000,0.000000,0.000000,0.000000,0.000000,0.178827,0.212804,0.053648,0.017883,0.000000,140.000000,134.000000,6.000000,2.000000,0.000000,0.000000,0.000000,0.000000,0.000000;
#CREDIT:BlindedVanguard573;
#NOTES:
0000
0000
0000
0000
,
0000
0000
0000
0000
,
0000
0000
0000
0000
,
0000
0000
0000
0000
,
0001
0000
1000
0000
,
0010
0010
0010
0000
,
1000
0000
0001
0000
,
0100
0100
0100
0000
,
0001
0000
0010
0000
,
1000
1000
1000
0000
,
0010
0000
0100
0000
,
1000
0000
0001
0000
,
0100
0000
0010
0000
,
0001
0001
0001
0000
,
0100
0000
0010
0000
,
1000
0000
0001
0001
,
0000
2002
0000
0000
,
3003
0000
0000
0000
,
0001
0000
0010
0000
,
0100
0100
0100
0000
,
1000
0000
0001
0000
,
0100
0000
0010
0000
,
1000
0000
0100
0000
,
0010
0010
0010
0000
,
0001
0000
1000
0000
,
0010
0000
0100
0000
,
0001
0001
0001
0000
,
0010
0010
0010
0000
,
0100
0100
0100
0000
,
1000
1000
1000
0000
,
0001
0001
0001
0000
,
0100
0100
0100
0000
,
0010
0010
0010
0000
,
1000
0000
0001
0000
,
1001
0000
0000
0000
,
0000
0000
0000
0000
,
0001
0000
0100
0000
,
0010
0010
0010
0010
,
0010
0000
1000
0000
,
0001
0001
0001
0000
,
0010
0000
0100
0000
,
1000
0000
0001
0000
,
1001
0000
0010
0000
,
0100
0100
0100
0000
,
0001
0000
1000
0000
,
0100
0000
0010
0010
,
0010
0000
0001
0000
,
1000
1000
1000
0000
,
0010
0000
0100
0000
,
0001
0000
1001
0000
,
0001
0000
0010
0000
,
0100
0100
0100
0100
,
0100
0000
1000
0000
,
0001
0001
0001
0001
,
0001
0000
0100
0000
,
0010
0010
0010
0010
,
0010
0000
1000
0000
,
0001
0001
0001
0000
,
1001
0000
1001
0000
,
0010
0010
0010
0000
;

//---------------dance-single - ----------------
#NOTEDATA:;
#CHARTNAME:;
#STEPSTYPE:dance-single;
#DESCRIPTION:;
#CHARTSTYLE:;
#DIFFICULTY:Easy;
#METER:5;
#RADARVALUES:0.270795,0.320547,0.152003,0.053648,0.000000,212.000000,195.000000,17.000000,6.000000,0.000000,0.000000,0.000000,0.000000,0.000000,0.270795,0.320547,0.152003,0.053648,0.000000,212.000000,195.000000,17.000000,6.000000,0.000000,0.000000,0.000000,0.000000,0.000000;
#CREDIT:BlindedVanguard573;
#NOTES:
0000
0000
0000
0000
,
0000
0000
0000
0000
,
0000
0000
0000
0000
,
0000
0000
0000
0000
,
0001
0001
1000
1000
,
0001
0100
0010
1000
,
0001
0001
1000
1000
,
0100
0010
1001
0000
,
0001
0001
1000
1000
,
0010
0100
1000
0100
,
0010
1000
0001
0100
,
0001
0010
0100
1000
,
0001
0001
1000
1000
,
0100
0010
1000
0010
,
0100
1000
0001
0010
,
0001
0100
0010
1000
,
0000
2002
0000
0000
,
3003
0000
0000
0000
,
0001
0000
0010
0000
,
0100
1000
0001
1000
,
0010
0000
0100
0000
,
0001
0010
0100
1000
,
0001
0000
0100
0000
,
0010
1000
0001
0000
,
1000
0100
0010
0010
,
0001
0100
0010
1000
,
0001
0010
0001
0001
,
1000
0010
1000
1000
,
0001
0100
0001
0001
,
1000
0100
0001
0100
,
1000
0010
0100
0100
,
0001
0010
0100
0100
,
1000
0001
0010
0100
,
0001
0000
0100
0000
,
1001
0000
1001
0000
,
0001
0100
0010
1000
,
1001
0000
1001
0000
,
1000
0100
0010
0001
,
0011
0000
1100
0000
,
1000
0010
0100
0001
,
0101
0000
1010
0000
,
1000
0001
2002
3003
,
0001
0001
1000
1000
,
0010
0100
0001
1000
,
0100
0100
0010
0010
,
0001
0100
1000
0100
,
0001
0001
1000
1000
,
0100
0010
0001
1000
,
0010
0010
0100
0100
,
1000
0100
0001
1001
,
1000
1000
0001
0001
,
0010
0100
0001
0100
,
0010
0001
1000
0100
,
1000
0010
0100
0001
,
1000
1000
0001
0001
,
0100
0010
0001
0010
,
0100
0001
1000
0010
,
1000
0100
0010
0001
,
1001
0000
0110
0000
,
1001
1001
2002
3003
;

//---------------dance-single - ----------------
#NOTEDATA:;
#CHARTNAME:;
#STEPSTYPE:dance-single;
#DESCRIPTION:;
#CHARTSTYLE:;
#DIFFICULTY:Medium;
#METER:10;
#RADARVALUES:0.453454,0.454109,0.196710,0.205651,0.026824,355.000000,333.000000,22.000000,23.000000,0.000000,0.000000,0.000000,0.000000,0.000000,0.453454,0.454109,0.196710,0.205651,0.026824,355.000000,333.000000,22.000000,23.000000,0.000000,0.000000,0.000000,0.000000,0.000000;
#CREDIT:BlindedVanguard573;
#NOTES:
0000
0000
0000
0000
,
0000
0000
0000
0000
,
0000
0000
0000
0000
,
0000
0000
0000
0000
,
0001
1000
0010
0000
0001
1000
0010
0000
,
0001
1000
0010
0100
0001
0000
1000
0000
,
0001
0010
0100
1000
0001
1000
0100
0010
,
0001
0000
0100
0010
1000
0000
1001
0000
,
2000
0100
3100
0000
0020
0001
0031
0000
,
0101
1010
1002
0103
,
0001
0010
0100
0010
0100
1000
0001
0100
,
0010
0000
1000
0100
0010
0000
1001
0000
,
0002
0100
0103
0000
0020
1000
1030
0000
,
1100
0011
2001
3100
,
1000
0010
0100
0010
0100
0001
1000
0000
,
1001
0000
0001
0100
1000
0000
0100
0001
,
0000
2002
0000
3003
,
0000
0000
0000
0000
,
1000
0100
1000
0000
0001
0100
0001
0000
,
1000
0100
0001
0000
0200
0000
0310
0000
,
0001
0010
0001
0000
1000
0010
1000
0000
,
0001
0010
1000
0010
0002
0000
1003
0000
,
0102
0013
2100
3010
,
1020
0032
2003
3100
,
0010
1000
0100
0000
0010
0001
0100
0000
,
0010
1000
0001
0000
0100
0001
1000
0001
,
0010
0100
1000
0100
0010
0001
0010
0000
,
0001
0100
0010
1000
0010
0100
0001
0000
,
1000
0001
0010
0100
1000
0001
0100
0000
,
0010
1000
0001
0010
0100
1000
0001
0010
,
0001
0100
1000
0100
0010
1000
0001
0000
,
1000
0100
0001
0100
0010
0001
1000
0000
,
0001
0100
1000
0100
0001
0010
1000
0010
,
0001
0000
0000
0100
0020
0000
0000
0030
,
1000
0001
0010
0000
1000
0001
0010
0000
,
1000
0001
0010
0100
1000
0000
0001
0000
,
1000
0010
0100
0001
1000
0001
0100
0010
,
1000
0000
0100
0010
0001
0000
1001
0000
,
1000
0001
0100
0000
1000
0001
0100
0000
,
1000
0001
0100
0010
1000
0000
0001
0000
,
1000
0100
0010
0001
1000
0001
0010
0100
,
1000
0000
0010
0100
2000
0000
0000
3000
,
0100
0010
1000
0000
0100
0010
1000
0000
,
0100
0010
1000
0100
0010
0000
0011
0000
,
0001
0100
0010
1000
0001
0010
0100
1000
,
0001
0000
1000
0100
0001
0000
0100
0010
,
0001
0100
0010
0000
0001
0100
0010
0000
,
0001
0100
0010
1000
0001
0000
1001
0000
,
1000
0100
0001
0100
1000
0010
0001
0010
,
0100
0000
0001
0010
0100
0000
1001
0000
,
2000
0000
0100
0000
3001
0000
0000
0000
0002
0000
0100
0000
1003
0000
0000
1000
,
0010
0000
0000
0010
0100
0000
0000
0100
0002
0000
0000
0000
1003
0000
0000
0000
,
0001
0010
0100
0001
0100
0010
0001
0100
,
0010
0000
1000
0001
0010
0000
1001
0000
,
0002
0000
0100
0000
1003
0000
0000
0000
2000
0000
0100
0000
3001
0000
0000
0001
,
0010
0000
0000
0010
0100
0000
0000
0100
2000
0000
0000
0000
3001
0000
0000
0000
,
1000
0010
0100
1000
0100
0010
1000
0000
,
0100
0000
0010
0001
1000
0000
1001
0000
,
0001
0100
1000
0001
0010
1000
0001
0000
,
0011
0000
1100
0000
1001
0001
1000
0000
;
