#VERSION:0.83;
#TITLE:REINCARNATION;
#SUBTITLE:;
#ARTIST:P*Light;
#TITLETRANSLIT:;
#SUBTITLETRANSLIT:;
#ARTISTTRANSLIT:;
#GENRE:;
#ORIGIN:;
#CREDIT:;
#BANNER:REINCARNATION.png;
#BACKGROUND:REINCARNATION-bg.png;
#PREVIEWVID:;
#JACKET:;
#CDIMAGE:;
#DISCIMAGE:;
#LYRICSPATH:;
#CDTITLE:;
#MUSIC:REINCARNATION.ogg;
#OFFSET:0.000000;
#SAMPLESTART:0.000000;
#SAMPLELENGTH:0.000000;
#SELECTABLE:YES;
#GASongDataVersion:1;
#GASongData:{"SyncOffset"\:0,"DefaultChartType"\:"dance_single","DefaultChartIndex"\:2};
#BPMS:0.000000=220.000000;
#STOPS:;
#DELAYS:;
#WARPS:;
#TIMESIGNATURES:0.000000=4=4;
#TICKCOUNTS:;
#COMBOS:;
#SPEEDS:;
#SCROLLS:0.000000=1.000000,
64.000000=0.500000,
96.000000=1.000000,
224.000000=0.500000,
296.000000=0.625000,
304.000000=0.750000,
312.000000=0.000000,
315.000000=0.750000,
320.000000=1.000000;
#FAKES:;
#LABELS:;
#LASTSECONDHINT:0.000000;
#KEYSOUNDS:;
#ATTACKS:;

//---------------dance-single - ----------------
#NOTEDATA:;
#CHARTNAME:;
#STEPSTYPE:dance-single;
#DESCRIPTION:;
#CHARTSTYLE:;
#DIFFICULTY:Medium;
#METER:13;
#RADARVALUES:;
#CREDIT:Burner;
#GAChartDataVersion:1;
#GAChartData:{"MusicOffset"\:0,"ShouldUseChartMusicOffset"\:false,"ExpressedChartConfig"\:"a19d532e-b0ce-4759-ad1c-02ecbbdf2efd","Patterns"\:{}};
#OFFSET:0.000000;
#BPMS:0.000000=220.000000;
#STOPS:;
#DELAYS:;
#WARPS:;
#TIMESIGNATURES:0.000000=4=4;
#TICKCOUNTS:;
#COMBOS:;
#SPEEDS:;
#SCROLLS:0.000000=1.000000,
64.000000=0.500000,
96.000000=1.000000,
224.000000=0.500000,
296.000000=0.625000,
304.000000=0.750000,
312.000000=0.000000,
315.000000=0.750000,
320.000000=1.000000;
#FAKES:;
#LABELS:;
#DISPLAYBPM:220.000000;
#NOTES:
0000
0000
0000
0000
,
0000
0000
0000
0000
,
0000
0000
0000
0000
,
0000
0000
0000
0000
,
0000
0000
0000
0000
,
0000
0000
0000
0000
,
0000
0000
0000
0000
,
0000
0000
0000
0000
,
1000
0000
0010
0100
0000
0100
0001
0000
,
0001
0000
1000
0100
0000
0100
0010
0000
,
0001
0000
0100
0010
0000
0010
1000
0000
,
0001
0000
0010
0100
0000
0100
4000
0000
,
3010
0000
0000
0100
0000
0000
0000
0000
0001
0000
0000
0010
0000
0000
0000
0000
,
0100
0000
0000
1000
0000
0000
0000
0000
0000
0001
0000
0000
1000
0000
0010
0000
,
1000
0100
0010
0001
,
1000
0000
0000
0000
,
2002
0000
0000
3003
0001
1000
0100
0000
,
0010
0000
0001
1000
0001
0000
1000
0000
,
0010
0000
0010
0000
0100
0001
0100
0000
,
0010
0000
1000
0100
1000
0000
0001
0000
,
2002
0000
0000
3003
1000
0000
0100
0000
,
0010
0000
0001
1000
0001
0000
0100
0000
,
0010
0000
0000
0010
0000
0000
0010
0000
1000
0000
0100
0000
1000
0000
0000
0000
,
0010
0000
0100
0001
0010
0001
0010
0001
,
1000
0100
0010
0010
,
0010
0000
0010
0000
0001
0100
0001
0000
,
0100
0010
0100
0100
,
0100
0010
0100
0000
0010
0000
1000
0100
,
0010
0000
0000
0001
0000
0000
0000
0000
0010
0000
0000
0100
0000
0000
0000
0000
,
1000
0000
0000
0001
0000
0000
0000
0000
1000
0000
0010
0000
1000
0000
0000
0000
,
0001
0010
0100
1000
0010
0100
0001
0010
,
0100
0000
1000
0000
1000
0010
0100
0010
,
0100
0001
0010
0100
,
1000
1000
1000
0001
,
0100
0000
0100
0000
0000
0010
0000
1000
,
0001
0001
0001
0010
,
0001
0100
0010
1000
,
0100
0010
0100
1000
,
0004
4000
0000
0000
0000
0000
0000
0000
,
3003
0000
0000
0000
,
1000
0100
0010
0001
,
0100
0000
0010
0000
1000
0000
0100
0010
,
0100
1000
0010
0100
,
0001
0010
0001
0100
,
0010
1000
0001
0010
,
0100
1000
0001
0100
,
0010
0000
1000
0000
0100
0010
0100
0000
,
1000
0001
1000
0100
0010
0000
0001
1000
,
0010
0000
0100
0001
0000
0001
0010
0000
,
0010
0000
0100
1000
0000
1000
0001
0000
,
0001
0000
0100
0010
0000
0010
1000
0000
,
1000
0000
0100
0010
0000
0010
0004
0000
,
1003
0100
0110
0110
,
0001
1000
0110
0110
,
0001
0100
0010
1000
0100
0010
0001
1000
,
0001
0000
0000
0000
,
1001
0000
0000
0000
,
0000
0000
0000
0000
,
0000
0000
0000
0000
,
0000
0000
0000
0000
,
0000
0000
0000
0000
,
0000
0000
0000
0000
,
0000
0000
0000
0000
,
0000
0000
0000
0000
,
1000
0000
0001
0000
1001
0000
0000
0001
,
0010
0100
0000
1000
0000
0010
0000
0100
,
0000
0000
0000
0000
0000
0001
0010
0000
,
0100
0000
0010
0001
0000
0100
0000
0002
,
0000
0000
0003
0000
,
1000
0100
0000
0010
0000
0000
0001
0000
,
0100
0010
1000
0002
,
0000
1003
0000
0100
0010
0000
0002
0000
,
0000
0000
0000
0000
0003
1000
0000
0010
,
0000
0100
0000
0001
0000
0010
0200
0300
,
1000
0000
0000
0000
0000
0001
0000
1000
,
0000
0010
0100
0010
0100
0010
2000
0000
,
3001
0000
0000
0010
0000
0000
0000
0000
0100
0000
0000
1000
0000
0000
0000
0000
,
0001
0000
0000
0100
0000
0000
0000
0000
0010
0000
0000
1000
0000
0000
0001
0000
,
1001
0000
0000
0000
,
1000
0000
0001
0000
0010
0001
1000
0001
,
1000
0000
0010
0000
0100
0000
0010
1000
,
0100
0010
0001
1000
,
0010
0000
1000
0000
0100
0000
0010
0001
,
0100
0000
0010
0000
0001
0000
0010
1000
,
0001
0000
0010
0000
0100
0000
0010
0001
,
0100
0010
1000
0001
,
0010
0000
0001
0000
0100
0000
0010
1000
,
0010
0000
0010
0000
0000
1000
0100
0010
,
0001
0000
0100
0000
0010
0000
0100
0001
,
0010
0100
1000
0001
,
0100
0000
0001
0000
0010
0000
0100
1000
,
0010
0000
0100
0000
1000
0000
0100
0001
,
1000
0000
0000
0100
0000
0000
0000
0000
0010
0000
0000
0001
0000
0000
0000
0000
,
0100
0000
0000
0010
0000
0000
0000
0000
1000
0000
0000
0001
0000
0000
0000
0000
,
1000
0100
0010
0001
0100
0010
1000
0100
,
1000
0000
0000
0000
,
0001
0100
0010
1010
,
1000
0000
0100
0000
0010
0000
0001
0001
,
1000
0010
0100
0101
,
0001
0010
0100
0100
,
1000
0000
0010
0000
0400
0300
0001
0001
,
0040
0130
0040
0130
1000
0000
0010
0000
,
0400
0000
0000
0300
,
0110
0000
0000
0000
,
2002
0000
0000
3003
;

//---------------dance-single - ----------------
#NOTEDATA:;
#CHARTNAME:;
#STEPSTYPE:dance-single;
#DESCRIPTION:;
#CHARTSTYLE:;
#DIFFICULTY:Hard;
#METER:15;
#RADARVALUES:;
#CREDIT:Burner;
#GAChartDataVersion:1;
#GAChartData:{"MusicOffset"\:0,"ShouldUseChartMusicOffset"\:false,"ExpressedChartConfig"\:"a19d532e-b0ce-4759-ad1c-02ecbbdf2efd","Patterns"\:{}};
#OFFSET:0.000000;
#BPMS:0.000000=220.000000;
#STOPS:;
#DELAYS:;
#WARPS:;
#TIMESIGNATURES:0.000000=4=4;
#TICKCOUNTS:;
#COMBOS:;
#SPEEDS:;
#SCROLLS:0.000000=1.000000,
64.000000=0.500000,
96.000000=1.000000,
224.000000=0.500000,
296.000000=0.625000,
304.000000=0.750000,
312.000000=0.000000,
315.000000=0.750000,
320.000000=1.000000;
#FAKES:;
#LABELS:;
#DISPLAYBPM:220.000000;
#NOTES:
0000
0000
0000
0000
,
0000
0000
0000
0000
,
0000
0000
0000
0000
,
0000
0000
0000
0000
,
0000
0000
0000
0000
,
0000
0000
0000
0000
,
0000
0000
0000
0000
,
0000
0000
0000
0000
,
1000
0000
0010
0100
0000
0100
0001
0000
,
0001
0000
1000
0100
0000
0100
0010
0000
,
0001
0000
0100
0010
0000
0010
1000
0000
,
0001
0000
0010
0100
0000
0100
2000
0000
,
3010
0000
0000
0010
0000
0000
0100
0000
0001
0000
0000
0100
0000
0000
0010
0000
,
1000
0000
0000
0001
0000
0000
0010
0000
0000
0001
0000
0000
1000
0000
0100
0000
,
1000
0010
0100
0010
0001
1000
0100
0001
,
1000
0000
0000
0000
,
2002
0000
0000
3003
0001
0001
0010
0000
,
0100
0000
1000
1000
0010
0100
0001
0000
,
0010
0000
0010
0000
0001
0001
0100
0000
,
0010
0000
1000
1000
0100
0000
0010
0001
,
2002
0000
0000
3003
1000
1000
0010
0000
,
0100
0000
0001
0001
0010
0100
1000
0000
,
0010
0000
0000
0010
0000
0000
0010
0000
1000
0000
1000
0000
0100
0000
0000
0000
,
0010
0000
0001
0001
0100
0010
0100
0010
,
1000
0100
0010
0010
,
0010
0000
0010
0000
0001
0100
0010
0010
,
0010
1000
0100
0100
,
0100
0000
0100
0000
0100
0000
0000
0000
0010
0000
0000
0001
1000
0000
0010
0000
,
0100
0000
0000
0100
0000
0000
0010
0000
1000
0000
0000
1000
0000
0000
0001
0000
,
0010
0000
0000
0010
0000
0000
0100
0000
1000
0000
0001
0000
1000
0000
0000
0000
,
0001
0100
0010
1000
0100
0010
0001
0100
,
0010
0000
1000
0100
1000
0010
0100
0010
,
0100
0001
0010
0100
,
1000
0100
1000
0100
1000
0000
0001
0000
,
0100
0010
0100
0100
0000
0001
0010
0001
,
0100
0010
0100
0010
0100
0001
1000
0000
,
0001
0100
0010
1000
0100
0010
0001
0100
,
0010
1000
0100
1000
0010
0100
0001
0010
,
0100
0010
0001
0100
0010
1000
0100
0010
,
0001
1000
0000
0100
0010
0100
0000
0000
,
1000
0010
0100
0001
0010
0001
0100
0010
,
1000
0100
0010
0001
0100
0010
1000
0100
,
1000
0010
0100
0001
0010
0100
1000
0010
,
0100
0000
0010
0000
1000
0000
0100
0000
0010
0001
0000
0100
0000
0000
0010
0000
,
1000
0100
0010
0001
0100
0010
0100
0001
,
0010
0100
1000
0010
0100
0001
0010
0100
,
0010
0001
0100
0010
1000
0001
1000
0100
,
0010
0001
0010
0000
0001
0000
0100
0100
,
0001
0100
0010
1000
0100
0010
0100
1000
,
0010
0100
0001
0010
0100
0010
0001
0001
,
0100
0010
1000
0100
0010
0100
1000
0001
,
0100
0000
0010
0000
1000
0000
0100
0000
0010
0001
0000
0200
0000
0000
0000
0000
,
0310
0000
0000
1000
0000
0000
0100
0000
0110
0000
0000
0100
1000
0000
0010
0000
,
0100
0001
0010
0100
1100
0000
1000
1000
,
0001
0100
0010
1000
0100
0010
0001
0100
,
0010
0000
0000
0000
,
1001
0000
0000
0000
,
0000
0000
0000
0000
,
0000
0000
0000
0000
,
0000
0000
0000
0000
,
0000
0000
0000
0000
,
0000
0000
0000
0000
,
0000
0000
0000
0000
,
0000
0000
0000
0000
,
1000
0000
0001
0000
1001
0000
0000
0001
,
0010
0100
0000
1000
0000
0010
0000
0100
,
0000
0000
0001
0000
1001
1000
0100
0000
,
0010
0000
0100
1000
0000
0010
0000
0100
,
0001
1000
1001
0001
,
0010
0100
0000
0010
0000
0000
0001
0000
,
0100
0010
1000
0002
,
0000
1003
0000
0100
0010
0000
0002
0000
,
0000
0000
0000
0000
0003
1000
0000
0010
,
0000
0100
0000
0001
0000
0010
0200
0300
,
1000
0001
1000
0001
0000
0001
0000
1000
,
0000
0010
0100
0010
0100
0010
2000
0000
,
3001
0000
0000
0010
0000
0000
0100
0000
1000
0000
0000
0010
0000
0000
0100
0000
,
0001
0000
0000
1000
0000
0000
0100
0000
0010
0000
0000
0001
0000
0000
0100
0000
,
0110
0000
0000
0000
,
1000
0000
0001
0000
0010
0001
1000
0001
,
1000
0000
0010
0000
0100
0000
0010
1000
,
0100
0000
0010
0000
0001
0000
1000
1000
,
0010
0000
1000
0000
0100
0000
0010
0001
,
0100
0100
0010
0000
0001
0000
0010
1000
,
0001
0000
0010
0000
0100
0000
0010
0001
,
0100
0100
0010
0000
1000
0000
0001
0001
,
0010
0000
0001
0000
0100
0000
0010
1000
,
0010
0000
0010
0000
0000
1000
0100
0010
,
0001
0000
0100
0000
0010
0000
0100
0001
,
0010
0000
0100
0000
1000
0000
0001
0001
,
0100
0000
0001
0000
0010
0000
0100
1000
,
0010
0010
0100
0000
1000
0000
0100
0001
,
1000
0000
0000
0100
0000
0000
0010
0000
0001
0000
0000
0100
0000
0000
0010
0000
,
1000
0000
0000
0001
0000
0000
0010
0000
0001
0000
0000
0100
0000
0000
0010
0000
,
1000
0100
0010
0001
0100
0010
1000
0100
,
0110
0000
0000
0000
,
0001
0100
0010
1000
0100
0010
0011
0000
,
0001
0100
0010
1000
1010
0000
0010
0010
,
1000
0100
0010
0001
0100
0010
0110
0000
,
0100
0001
0010
0100
1100
0000
0011
0000
,
0001
0100
0010
1000
0200
0310
0001
0001
,
0200
0310
0200
0310
1000
0100
0010
0001
,
2000
0000
0000
3000
,
1001
0000
0000
0000
,
0220
0000
0000
0330
;

//---------------dance-single - ----------------
#NOTEDATA:;
#CHARTNAME:;
#STEPSTYPE:dance-single;
#DESCRIPTION:;
#CHARTSTYLE:;
#DIFFICULTY:Challenge;
#METER:19;
#RADARVALUES:;
#CREDIT:Burner;
#GAChartDataVersion:1;
#GAChartData:{"MusicOffset"\:0,"ShouldUseChartMusicOffset"\:false,"ExpressedChartConfig"\:"a19d532e-b0ce-4759-ad1c-02ecbbdf2efd","Patterns"\:{}};
#OFFSET:0.000000;
#BPMS:0.000000=220.000000;
#STOPS:;
#DELAYS:;
#WARPS:;
#TIMESIGNATURES:0.000000=4=4;
#TICKCOUNTS:;
#COMBOS:;
#SPEEDS:;
#SCROLLS:0.000000=1.000000,
64.000000=0.500000,
96.000000=1.000000,
224.000000=0.500000,
296.000000=0.625000,
304.000000=0.750000,
312.000000=0.000000,
315.000000=0.750000,
320.000000=1.000000;
#FAKES:;
#LABELS:;
#DISPLAYBPM:220.000000;
#NOTES:
0000
0000
0000
0000
,
0000
0000
0000
0000
,
0000
0000
0000
0000
,
0000
0000
0000
0000
,
0000
0000
0000
0000
,
0000
0000
0000
0000
,
0000
0000
0000
0000
,
0000
0000
0000
0000
,
0002
0013
0100
0000
1000
0000
0020
0130
0001
0000
1000
0000
0200
0310
0001
0000
,
2000
3010
0100
0000
0001
0000
0200
0310
1000
0000
0100
0000
0020
0030
0010
0000
,
0002
0103
0010
0000
1000
0000
0200
0310
0001
0000
1000
0000
0020
0130
0001
0000
,
2000
3100
0010
0000
0001
0000
0020
0130
1000
0010
0100
0001
1000
0001
1000
0001
,
1000
0000
0000
0100
0000
0000
0010
0000
0011
0000
0000
0001
0000
0000
0100
0000
,
0110
0000
0000
0000
0000
0000
0000
0000
0000
0000
0000
0000
0000
0000
0000
0000
0000
0000
0000
0000
0000
0000
0000
0000
0000
0000
0000
0000
0000
0000
0000
0000
0000
0000
0000
0000
0010
0000
0000
0000
0000
0000
0000
0000
0000
0000
0000
0000
0000
0000
0000
0000
0000
0000
0000
0000
0000
0000
0000
0000
0000
0000
0000
0000
0000
0000
0000
0000
0000
0000
0000
0000
1000
0000
0000
0000
0000
0000
0000
0000
0000
0000
0000
0000
0000
0000
0000
0000
0000
0000
0000
0000
0000
0000
0000
0000
0000
0000
0000
0000
0000
0000
0000
0000
0000
0000
0000
0000
1001
0000
0000
0000
0000
0000
0000
0000
0000
0000
0000
0000
0000
0000
0000
0000
0000
0000
0000
0000
0000
0000
0000
0000
0000
0000
0000
0000
0000
0000
0000
0000
0000
0000
0000
0000
0M00
0000
0000
0000
0000
0000
0000
0000
0000
0000
0000
0000
0000
0000
0000
0000
0000
0000
0000
0M00
0000
0000
0000
0000
0000
0M00
0000
0000
0000
0000
0000
0000
0000
0000
0000
0000
0000
0000
0000
0000
0000
0000
0000
0M00
0000
0000
0000
0000
,
1000
0010
0100
0001
1000
0100
1000
0010
0100
0001
0010
0001
0100
0010
1000
0001
,
1000
0000
0000
0000
,
0002
0000
0000
0000
0013
0010
0100
0000
,
1000
0000
0000
0000
0000
0000
0000
0000
0000
0000
0000
0000
0010
0000
0000
0000
0100
0000
0000
0000
0001
0000
0000
0000
1000
0000
0000
0000
0000
0000
1000
0000
0000
0000
0000
0000
0100
0000
0000
0010
0000
0000
0001
0000
0000
0010
0000
0000
,
0100
0000
1000
0000
0001
0001
0100
0000
,
0001
0000
0000
0000
0100
0010
0100
0000
0010
0000
0000
0000
1000
0001
1000
0001
,
2000
0000
0000
0000
3100
0100
0010
0000
,
0001
0000
0000
0000
0000
0000
0000
0000
0000
0000
0000
0000
0010
0000
0000
0000
0100
0000
0000
0000
1000
0000
0000
0000
0001
0000
0000
0000
0000
0000
0001
0000
0000
0000
0000
0000
0100
0000
0000
0010
0000
0000
1000
0000
0000
0010
0000
0000
,
1000
0000
0000
0001
0000
0000
1000
0000
1100
0000
0100
0000
1000
0000
0000
0000
,
0010
0100
0001
0100
0010
1000
0100
0010
,
0001
0100
0010
1000
0100
0010
0001
0000
1000
0100
1000
0000
0001
0100
0001
0000
,
1000
0010
1000
0000
0001
0010
0001
0000
1000
0000
0010
0000
0100
0000
0001
0000
,
0001
0010
0001
0000
0100
0000
0010
0000
1000
0100
1000
0000
0001
0010
0001
0000
,
1000
0010
1000
0010
1000
0000
0001
0000
0010
0000
0000
0001
1000
0100
0010
0100
,
1000
0000
0000
0001
0000
0000
0100
0000
0101
0000
0000
0001
0000
0000
1000
0000
,
1100
0000
0000
0100
0000
0000
0010
0000
0110
0000
0100
0000
0010
0000
0000
0000
,
0001
0100
0010
1000
0100
1000
0010
0100
0001
0010
0100
0010
0001
0100
0010
1000
,
0001
0000
0000
0000
0010
0000
0001
0000
1000
0000
0010
0100
0010
0100
0010
0100
,
0001
0000
0010
0000
0100
0000
1000
0001
,
0010
0001
0010
0100
1000
0000
0001
0100
,
0010
1000
0010
1000
0000
0001
0000
1000
,
0001
0010
0001
0010
0001
0100
0010
0000
,
1000
0010
0100
0001
0010
0100
1000
0001
,
0100
0010
1000
0100
0010
0001
0100
0010
,
1000
0100
0010
0001
0100
0001
0010
0100
1000
0010
0100
0010
1000
0100
0010
0001
,
1000
0001
0000
0100
0010
1000
0010
1000
,
0001
0010
0100
1000
0010
1000
0100
0010
0001
0100
0010
0100
0001
0010
0100
1000
,
0001
1000
0010
0100
0001
0010
0100
1000
0010
1000
0100
0010
0001
1000
0001
1000
,
0001
0100
0010
1000
0100
0010
0001
0100
0001
0010
0100
1000
0010
1000
0100
0010
,
0001
0100
0010
1000
0010
0100
0001
0010
0001
0100
0010
1000
0100
1000
0010
0100
,
0001
0010
0100
1000
0010
0100
0001
0010
0100
1000
0001
1000
0010
0100
0001
0010
,
0100
1000
0010
0100
0010
1000
0100
0010
0001
0100
0001
0010
0100
1000
0010
0100
,
0001
0100
0010
1000
0100
0010
0001
0100
0010
1000
0010
1000
0010
0000
0100
0000
,
0100
0001
0010
0000
0100
0000
1000
1000
,
0002
0013
0100
0000
1000
0000
0020
0130
0001
0000
1000
0000
0200
0310
0001
0000
,
2000
3010
0100
0000
0001
0000
0200
0310
1000
0000
0100
0000
0020
0030
0010
0000
,
0002
0103
0010
0000
1000
0000
0200
0310
0001
0000
1000
0000
0020
0130
0001
0000
,
2000
3100
0010
0000
0001
0000
0020
0130
1000
0001
0000
0001
0100
0010
0100
0010
,
1000
0100
0010
0001
0100
0010
1000
0001
1000
0000
0000
0010
0100
0000
0001
0000
,
1000
0100
0010
0001
0100
0010
1000
0100
1000
0000
0000
0000
0100
0000
0100
0000
,
1000
0010
0100
0001
0010
0100
1000
0010
0100
0001
0010
0100
1000
0010
0100
0001
,
1000
0000
0000
0000
,
1001
0000
0000
0000
,
0000
0000
0000
0000
,
0000
0000
0000
0000
,
0000
0000
0000
0000
,
0000
0000
0000
0000
,
0000
0000
0000
0000
,
0000
0000
0000
0000
,
0000
0000
0000
0000
,
0001
0000
0001
0000
0110
0000
1000
0100
,
0010
0001
0000
0001
0000
0100
0000
0010
,
1000
0000
1000
0000
1001
0001
0010
0100
,
1000
0000
0010
0100
0000
0010
0000
1000
,
0001
0001
1001
1000
,
0100
0010
0000
0001
0000
0000
1000
0000
,
0010
0100
0010
2000
,
0000
3001
0000
0010
0100
0000
2000
0000
,
0000
0000
0000
0000
3000
0001
0000
0010
,
0000
0100
0000
1000
0000
0010
0200
0301
,
0010
0100
0010
0100
0000
1000
0000
0001
,
0000
0000
0100
0000
0010
0000
0100
0000
0010
0000
0100
0000
0001
0010
0100
1000
,
0001
0000
0000
1000
0000
0000
0010
0000
1010
0000
0000
1000
0000
0000
0001
0000
,
0011
0000
0000
0010
0000
0000
0100
0000
1100
0000
0000
1000
0000
0000
0001
0000
,
1001
0000
0000
0000
,
1000
0000
0000
0000
0001
0000
0100
0000
0001
0000
0010
0100
0010
0100
0010
0100
,
1000
0010
1000
0000
0001
0010
0001
0000
1000
0100
1000
0000
0001
0100
0010
1000
,
0010
0000
0100
0000
0001
0010
0001
0000
1000
0000
0010
0000
1000
0001
1000
0000
,
0001
0010
0001
0000
1000
0010
1000
0000
0001
0100
0001
0000
1000
0001
0010
0100
,
0010
0000
0010
0000
0001
0000
1000
0000
0010
0000
0000
0100
0010
0100
0001
0100
,
0001
1000
0001
0000
0010
0100
0010
0000
0100
1000
0100
0000
1000
0001
1000
0100
,
0010
0000
0100
0000
1000
0000
0001
0000
1001
0000
0000
0000
1000
0000
0010
0100
,
0010
0000
0100
0001
0010
0100
0010
0001
,
1000
0000
0001
0000
0010
0000
0100
0000
0000
0000
1000
0010
0100
0001
1000
0001
,
1000
0100
1000
0000
0001
0100
0001
0000
1000
0010
1000
0000
0001
1000
0001
0010
,
0100
0000
1000
0000
0010
0000
0100
0000
0001
1000
0001
0000
0010
0100
0010
0100
,
1000
0010
1000
0000
0001
0100
0001
0000
1000
0100
1000
0000
0001
1000
0001
0100
,
0010
0000
0010
0000
1000
0000
0100
0000
0010
0000
0000
0100
1000
0001
1000
0010
,
0100
0000
0000
0001
0000
0000
0010
0000
0110
0000
0000
0100
0000
0000
1000
0000
,
1001
0000
0000
0001
0000
0000
1000
0000
1010
0000
0000
0010
0000
0000
0100
0000
,
0001
0010
0100
1000
0010
0100
0010
1000
0100
0010
0001
0100
0010
1000
0100
1000
,
0001
1001
0011
0000
,
0001
0100
0010
1000
0100
0010
0100
1000
0010
0100
0001
0010
0001
0000
0000
0000
,
1000
0100
0010
0001
0100
0010
0100
0001
0010
0100
1000
0010
1000
0000
1000
0000
,
0001
0100
0010
1000
0100
0010
0100
1000
0010
0100
0001
0010
0001
0000
0000
0000
,
1000
0100
0010
0001
0100
0010
0100
0001
0010
0100
1000
0010
1000
0000
0000
0000
,
0001
0010
0100
1000
0010
0100
0001
1000
0040
0000
0000
0000
0130
0000
0100
0000
,
0004
4003
3004
4003
3100
0100
0010
0001
,
4000
0004
0000
0000
0000
0000
0000
0000
0000
0000
0000
0000
0000
0000
0000
0000
0000
0000
3003
0000
0000
0000
0000
0000
,
0110
0000
0000
0000
,
2002
0000
0000
3003
;
