#VERSION:0.83;
#TITLE:Queef;
#SUBTITLE:;
#ARTIST:CupcakKe;
#TITLETRANSLIT:;
#SUBTITLETRANSLIT:;
#ARTISTTRANSLIT:;
#GENRE:;
#CREDIT:;
#MUSIC:Queef.ogg;
#BANNER:bn.png;
#BACKGROUND:bg.png;
#JACKET:;
#DISCIMAGE:;
#CDIMAGE:;
#SELECTABLE:YES;
#LYRICSPATH:;
#CDTITLE:;
#SAMPLESTART:0.065;
#SAMPLELENGTH:13.061;
#OFFSET:1.568;
#BPMS:0.000000=147.000000;
#STOPS:;
#WARPS:;
#DELAYS:;
#SPEEDS:;
#SCROLLS:;
#TICKCOUNTS:;
#TIMESIGNATURES:;
#LABELS:;
#COMBOS:;
#FAKES:;
#BGCHANGES:;
#FGCHANGES:;
#ATTACKS:;
#LASTSECONDHINT:119.880;

//---------------dance-single - ---------------
#NOTEDATA:;
#CHARTNAME:;
#CHARTSTYLE:;
#CREDIT:Talkion;
#STEPSTYPE:dance-single;
#DESCRIPTION:;
#DIFFICULTY:Beginner;
#METER:2;
#METERF:2;
#RADARVALUES:0,0,0,0,0;
#NOTES:
// measure 0
0000
0000
0000
0000
,  // measure 1
0000
0000
0000
0000
,  // measure 2
0000
0000
0000
0000
,  // measure 3
0000
0000
0000
0000
,  // measure 4
0000
0000
0000
0000
,  // measure 5
0000
0000
0000
0000
,  // measure 6
0000
0000
0000
0000
,  // measure 7
0000
0000
0000
0000
,  // measure 8
0000
0000
0000
0000
,  // measure 9
1000
0000
0000
0000
,  // measure 10
1000
0000
0000
0000
,  // measure 11
0001
0000
0000
0000
,  // measure 12
0001
0000
0000
0000
,  // measure 13
1000
0000
0000
0000
,  // measure 14
1000
0000
0000
0000
,  // measure 15
0001
0000
0000
0000
,  // measure 16
0001
0000
0000
0000
,  // measure 17
1000
0000
0000
0000
,  // measure 18
1000
0000
0000
0000
,  // measure 19
0100
0000
0000
0000
,  // measure 20
1000
0000
0000
0000
,  // measure 21
0001
0000
0000
0000
,  // measure 22
0001
0000
0000
0000
,  // measure 23
0100
0000
0000
0000
,  // measure 24
0001
0000
0000
0000
,  // measure 25
1000
0000
1000
0000
,  // measure 26
1000
0000
0000
0000
,  // measure 27
0001
0000
0001
0000
,  // measure 28
0001
0000
0000
0000
,  // measure 29
1000
0000
1000
0000
,  // measure 30
1000
0000
0000
0000
,  // measure 31
0001
0000
0001
0000
,  // measure 32
0001
0000
0000
0000
,  // measure 33
1000
0000
0000
0000
,  // measure 34
1000
0000
0000
0000
,  // measure 35
0001
0000
0000
0000
,  // measure 36
0001
0000
0000
0000
,  // measure 37
1000
0000
0000
0010
,  // measure 38
0000
0000
0000
0010
,  // measure 39
0000
0000
0000
0010
,  // measure 40
0000
0000
0000
0010
,  // measure 41
0000
0000
0000
0000
,  // measure 42
1000
0000
0000
0000
,  // measure 43
0001
0000
0000
0000
,  // measure 44
0001
0000
0000
0000
,  // measure 45
0010
0000
0000
0000
,  // measure 46
0100
0000
0000
0000
,  // measure 47
0010
0000
0000
0000
,  // measure 48
0100
0000
0000
0000
,  // measure 49
1000
0000
0000
0000
,  // measure 50
1000
0000
0000
0000
,  // measure 51
0001
0000
0000
0000
,  // measure 52
0001
0000
0000
0000
,  // measure 53
0100
0000
0000
0000
,  // measure 54
0010
0000
0000
0000
,  // measure 55
0100
0000
0000
0000
,  // measure 56
0010
0000
0000
0000
,  // measure 57
1000
0000
0000
0000
,  // measure 58
1000
0000
0000
0000
,  // measure 59
0001
0000
0000
0000
,  // measure 60
0001
0000
0000
0000
,  // measure 61
1000
0000
0000
0000
,  // measure 62
1000
0000
0000
0000
,  // measure 63
0001
0000
0000
0000
,  // measure 64
0001
0000
0000
0000
,  // measure 65
1000
0000
1000
0000
,  // measure 66
1000
0000
0000
0000
,  // measure 67
0001
0000
0001
0000
,  // measure 68
0001
0000
0000
0000
,  // measure 69
1000
0000
1000
0000
,  // measure 70
1000
0000
0000
0000
,  // measure 71
0001
0000
0001
0000
,  // measure 72
0001
0000
0000
0000
,  // measure 73
1000
0000
0000
0000
;

//---------------dance-single - ---------------
#NOTEDATA:;
#CHARTNAME:;
#CHARTSTYLE:;
#CREDIT:Talkion;
#STEPSTYPE:dance-single;
#DESCRIPTION:;
#DIFFICULTY:Easy;
#METER:4;
#METERF:4;
#RADARVALUES:0,0,0,0,0;
#NOTES:
// measure 0
0000
0000
0000
0000
,  // measure 1
0000
0000
0000
0000
,  // measure 2
0000
0000
0000
0000
,  // measure 3
0000
0000
0000
0000
,  // measure 4
0000
0000
0000
0000
,  // measure 5
0000
0000
0000
0000
,  // measure 6
0000
0000
0000
0000
,  // measure 7
0000
0000
0000
0000
,  // measure 8
0000
0000
0000
0000
,  // measure 9
1000
0000
1000
0000
,  // measure 10
1000
0000
0100
0000
,  // measure 11
0001
0000
0001
0000
,  // measure 12
0001
0000
0100
0000
,  // measure 13
1000
0000
1000
0000
,  // measure 14
1000
0000
0010
0000
,  // measure 15
0001
0000
0001
0000
,  // measure 16
0001
0000
0010
0000
,  // measure 17
1000
0000
1000
0000
,  // measure 18
0001
0000
0001
0000
,  // measure 19
1000
0000
0100
0000
,  // measure 20
1000
0000
1000
0000
,  // measure 21
0001
0000
0001
0000
,  // measure 22
1000
0000
1000
0000
,  // measure 23
0001
0000
0100
0000
,  // measure 24
0001
0000
0001
0000
,  // measure 25
0010
0000
0010
0000
,  // measure 26
0010
0000
0100
0000
,  // measure 27
0010
0000
0010
0000
,  // measure 28
0001
0000
0100
0000
,  // measure 29
0010
0000
0010
0000
,  // measure 30
0010
0000
0100
0000
,  // measure 31
0010
0000
0010
0000
,  // measure 32
1000
0000
0100
0000
,  // measure 33
1000
0000
1000
0000
,  // measure 34
0001
0000
0001
0000
,  // measure 35
1000
0000
1000
0000
,  // measure 36
0001
0000
0000
0000
,  // measure 37
1000
0000
0000
0010
,  // measure 38
0010
0000
0000
0100
,  // measure 39
0100
0000
0000
0010
,  // measure 40
0010
0000
0000
0100
,  // measure 41
0100
0000
0001
0000
,  // measure 42
1000
0000
1000
0000
,  // measure 43
0001
0000
0001
0000
,  // measure 44
1000
0000
1000
0000
,  // measure 45
0100
0000
0010
0000
,  // measure 46
0100
0000
0010
0000
,  // measure 47
0001
0000
0100
0000
,  // measure 48
0001
0000
0000
0000
,  // measure 49
1000
1000
1000
0000
,  // measure 50
0100
0000
1000
0000
,  // measure 51
0001
0000
0100
0000
,  // measure 52
0001
0000
1000
0000
,  // measure 53
0100
0000
0000
0100
0000
0000
0000
0000
,  // measure 54
0010
0000
0000
0010
0000
0000
0000
0000
,  // measure 55
0100
0000
0000
0100
0000
0000
0000
0000
,  // measure 56
0010
0000
0000
0010
0000
0000
0000
0000
,  // measure 57
0001
0000
0001
0000
,  // measure 58
0001
0000
0100
0000
,  // measure 59
1000
0000
1000
0000
,  // measure 60
1000
0000
0100
0000
,  // measure 61
0001
0000
0001
0000
,  // measure 62
0001
0000
0010
0000
,  // measure 63
1000
0000
1000
0000
,  // measure 64
1000
0000
0010
0000
,  // measure 65
0100
0000
0100
0000
,  // measure 66
0100
0000
0010
0000
,  // measure 67
0100
0000
0100
0000
,  // measure 68
1000
0000
0010
0000
,  // measure 69
0100
0000
0100
0000
,  // measure 70
0100
0000
0010
0000
,  // measure 71
0100
0000
0100
0000
,  // measure 72
0001
0000
0010
0000
,  // measure 73
0001
0000
0000
0000
;

//---------------dance-single - JU DS----------------
#NOTEDATA:;
#CHARTNAME:;
#CHARTSTYLE:;
#CREDIT:Talkion;
#STEPSTYPE:dance-single;
#DESCRIPTION:JU DS-;
#DIFFICULTY:Medium;
#METER:8;
#METERF:8;
#RADARVALUES:0,0,0,0,0;
#NOTES:
// measure 0
0000
0000
0000
0000
,  // measure 1
0000
0000
0000
0000
,  // measure 2
0000
0000
0000
0000
,  // measure 3
0000
0000
0000
0000
,  // measure 4
0000
0000
0000
0000
,  // measure 5
0000
0000
0000
0000
,  // measure 6
0000
0000
0000
0000
,  // measure 7
0000
0000
0000
0000
,  // measure 8
0000
0000
0000
0000
,  // measure 9
1000
0000
1000
0000
,  // measure 10
1000
0000
2100
3000
,  // measure 11
0001
0000
0001
0000
,  // measure 12
0001
0000
0000
0000
0102
0000
2003
3000
,  // measure 13
0001
0000
0001
0000
,  // measure 14
0001
0000
0012
0003
,  // measure 15
1000
0001
0010
0001
,  // measure 16
1000
0000
2010
3000
,  // measure 17
0001
0001
0010
0000
,  // measure 18
1000
1000
0010
0000
,  // measure 19
0001
0100
0010
0100
,  // measure 20
0001
0000
0001
0000
0010
0000
0002
0003
,  // measure 21
1000
1000
0010
0000
,  // measure 22
0001
0001
0010
0000
,  // measure 23
1000
0100
0010
0100
,  // measure 24
1000
1000
0010
0000
,  // measure 25
1010
0001
1010
0001
,  // measure 26
1010
1000
0200
0300
,  // measure 27
0011
1000
0011
1000
,  // measure 28
0011
0001
0200
0300
,  // measure 29
0101
1000
0101
1000
,  // measure 30
0101
0001
0020
0030
,  // measure 31
1100
0001
1100
0001
,  // measure 32
1100
1000
0020
0030
,  // measure 33
1000
1000
0001
0001
,  // measure 34
0010
0100
1000
1000
,  // measure 35
0010
0100
0001
0001
,  // measure 36
0010
0100
1000
0000
,  // measure 37
0001
0100
0001
0110
,  // measure 38
1000
0100
1000
0110
,  // measure 39
0001
0100
0001
0110
,  // measure 40
1000
0100
1000
0110
,  // measure 41
0001
0100
0001
0100
,  // measure 42
0010
1000
0100
0100
,  // measure 43
0010
0001
0100
0100
,  // measure 44
0010
1000
0100
0100
,  // measure 45
0010
0002
0100
1003
,  // measure 46
0010
2000
0100
3001
,  // measure 47
0010
0002
0100
1003
,  // measure 48
0010
1000
0100
0000
,  // measure 49
1000
1000
1000
0001
,  // measure 50
0100
0001
1000
0100
,  // measure 51
0010
0100
1000
0010
,  // measure 52
0100
0010
1000
0000
,  // measure 53
0001
0020
0001
0130
,  // measure 54
1000
0020
1000
0130
,  // measure 55
0001
0020
0001
0130
,  // measure 56
1000
0020
1000
0130
,  // measure 57
0001
0000
0001
0000
,  // measure 58
0001
0000
0102
0003
,  // measure 59
1000
0000
1000
0000
,  // measure 60
1000
0000
0000
0000
2100
0000
3002
0003
,  // measure 61
1000
0000
1000
0000
,  // measure 62
1000
0000
2010
3000
,  // measure 63
0001
1000
0010
1000
,  // measure 64
0001
0000
0012
0003
,  // measure 65
0010
0100
0010
0100
,  // measure 66
1000
1000
0020
0030
,  // measure 67
0101
0010
0101
0010
,  // measure 68
0101
0001
0020
0030
,  // measure 69
0011
0100
0011
0100
,  // measure 70
0011
0001
0200
0300
,  // measure 71
1010
0100
1010
0100
,  // measure 72
1010
1000
0200
0300
,  // measure 73
1000
0000
0000
0000
;

//---------------dance-single - DS XO----------------
#NOTEDATA:;
#CHARTNAME:;
#CHARTSTYLE:;
#CREDIT:Talkion;
#STEPSTYPE:dance-single;
#DESCRIPTION:DS XO-;
#DIFFICULTY:Hard;
#METER:12;
#METERF:12;
#RADARVALUES:0,0,0,0,0;
#NOTES:
// measure 0
0000
0000
0000
0000
,  // measure 1
0000
0000
0000
0000
,  // measure 2
0000
0000
0000
0000
,  // measure 3
0000
0000
0000
0000
,  // measure 4
0000
0000
0000
0000
,  // measure 5
0000
0000
0000
0000
,  // measure 6
0000
0000
0000
0000
,  // measure 7
0000
0000
0000
0000
,  // measure 8
0000
0000
0000
0000
,  // measure 9
1000
0100
0000
0000
1000
0100
0000
0000
,  // measure 10
0010
0001
0000
0000
2001
0000
3000
0000
,  // measure 11
0001
0100
0000
0000
0001
0100
0000
0000
,  // measure 12
0010
1000
0000
0000
1002
0000
0043
0030
,  // measure 13
0001
0010
0000
0000
0001
0010
0000
0000
,  // measure 14
0100
1000
0000
0000
1002
0000
0003
0000
,  // measure 15
1000
0010
0100
0010
1000
0001
0010
0100
,  // measure 16
1000
0000
0000
0010
0200
0000
0304
0003
,  // measure 17
1000
0100
1000
0001
0100
0010
0000
0000
,  // measure 18
1000
0100
1000
0001
0100
0010
1000
0000
,  // measure 19
0001
0010
0100
0010
0001
0100
0100
0010
,  // measure 20
1000
0000
0100
0000
1000
0000
0001
0000
0100
0000
0010
0000
2010
3000
0000
0000
,  // measure 21
0001
0100
0001
1000
0100
0010
0010
0000
,  // measure 22
0001
0100
0001
1000
0100
0010
0010
0001
,  // measure 23
1000
0020
0100
0000
1030
0100
0100
0010
,  // measure 24
0001
0100
0001
1000
0100
0010
0001
0000
,  // measure 25
1000
0020
0100
1030
0001
0020
0100
0031
,  // measure 26
1000
0010
0100
0100
2000
3000
0101
0000
,  // measure 27
1000
0200
0010
1300
0001
0100
0010
0100
,  // measure 28
0001
0010
0100
0100
0002
0003
1100
0000
,  // measure 29
0001
0200
0010
0301
1000
0200
0010
1300
,  // measure 30
0001
0100
0010
0010
0002
0003
1010
0000
,  // measure 31
0001
0020
0100
0031
1000
0010
0100
0010
,  // measure 32
1000
0100
0010
0010
2000
3000
0010
0100
,  // measure 33
1100
0000
0000
0000
1100
0000
0000
0000
0002
0000
0000
0103
0040
0000
0030
0000
,  // measure 34
1000
0000
0010
0000
0100
0000
0010
0000
2000
0000
0000
3100
0010
0000
0000
0000
,  // measure 35
0001
0000
0010
0000
0100
0000
0010
0000
0002
0000
0000
0103
0010
0000
0000
0000
,  // measure 36
1000
0010
0100
0010
1000
0000
0000
0001
,  // measure 37
1000
0100
0010
0001
0010
0100
0002
0003
,  // measure 38
0100
0000
0000
0000
0100
0000
0010
0000
0000
0000
0001
0000
0100
0000
0000
0000
0100
0000
2000
0000
0000
3000
0000
0000
,  // measure 39
0100
0000
0000
0000
0100
0000
0010
0000
0000
0000
1000
0000
0100
0000
0000
0000
0100
0000
0002
0000
0000
0003
0000
0000
,  // measure 40
0100
0000
0000
0000
0100
0000
0010
0000
0000
0000
0001
0000
1000
0000
0000
0010
0000
0000
0002
0000
0000
0003
0000
0000
,  // measure 41
0010
0010
0100
0100
0010
0010
0100
0100
,  // measure 42
0001
1000
0100
0010
0100
1000
0010
0010
,  // measure 43
1000
0001
0100
0010
0100
0001
0010
0010
,  // measure 44
0001
1000
0100
0010
0100
1000
0010
0010
,  // measure 45
1000
0001
0010
0001
0100
0010
2010
3000
,  // measure 46
0001
1000
0010
1000
0100
0010
0042
0033
,  // measure 47
0001
1000
0100
1000
0010
0100
0102
0003
,  // measure 48
1000
0001
0100
0001
0010
0000
0000
0002
,  // measure 49
1000
1000
1000
1003
0010
0100
0010
1000
,  // measure 50
0100
1000
0001
0010
0100
0010
0001
0100
,  // measure 51
0001
1000
0100
1000
0010
0100
0001
0010
,  // measure 52
0001
1000
0010
1000
0100
0010
0001
0000
,  // measure 53
1002
0000
0000
0100
0000
0000
0010
0000
0000
0100
0000
0000
1003
0000
0000
0000
,  // measure 54
2001
0000
0000
0100
0000
0000
0010
0000
0000
0100
0000
0000
3001
0000
0000
0000
,  // measure 55
1002
0000
0000
0100
0000
0000
0013
0000
0100
0000
0010
0000
0001
0000
0000
0000
,  // measure 56
2001
0000
0000
0100
0000
0000
0010
0000
0000
0100
0000
0000
3001
0000
0000
0000
,  // measure 57
1000
0010
0000
0000
1000
0010
0000
0000
,  // measure 58
0100
0001
0000
0000
2001
0000
3000
0000
,  // measure 59
0001
0010
0000
0000
0001
0010
0000
0000
,  // measure 60
0100
1000
0000
0000
1002
0000
0403
0300
,  // measure 61
0001
0100
0000
0000
0001
0100
0000
0000
,  // measure 62
0010
1000
0000
0000
1002
0000
0003
0000
,  // measure 63
1000
0100
0010
0100
1000
0001
0100
0010
,  // measure 64
1000
0000
0000
0100
0020
0000
0030
0000
,  // measure 65
0001
2000
0100
3001
1000
0002
0100
1003
,  // measure 66
0001
1000
0100
0100
0002
0003
1100
0000
,  // measure 67
0100
2000
0010
3001
0100
0001
0010
0100
,  // measure 68
0010
0001
0100
0100
2000
3000
0101
0000
,  // measure 69
0100
0002
0010
1003
0100
2000
0010
3001
,  // measure 70
0100
0001
0010
0010
2000
3000
0011
0000
,  // measure 71
0010
0002
0100
1003
0010
1000
0100
0010
,  // measure 72
0100
1000
0010
0010
0002
0003
0010
0100
,  // measure 73
0001
0000
0000
0000
;

//---------------dance-single - JU- SS- XO----------------
#NOTEDATA:;
#CHARTNAME:;
#CHARTSTYLE:;
#CREDIT:Talkion;
#STEPSTYPE:dance-single;
#DESCRIPTION:JU- SS- XO-;
#DIFFICULTY:Challenge;
#METER:15;
#METERF:15;
#RADARVALUES:0,0,0,0,0;
#NOTES:
// measure 0
0000
0000
0000
0000
,  // measure 1
0000
0000
0000
0000
,  // measure 2
0000
0000
0000
0000
,  // measure 3
0000
0000
0000
0000
,  // measure 4
0000
0000
0000
0000
,  // measure 5
0000
0000
0000
0000
,  // measure 6
0000
0000
0000
0000
,  // measure 7
0000
0000
0000
0000
,  // measure 8
0000
0000
0000
0000
,  // measure 9
0011
0000
0001
0000
1000
0000
0000
0000
0011
0000
0010
0100
0000
0000
0010
0000
,  // measure 10
0011
0000
0001
0000
1000
0000
0000
0000
2100
0000
0000
0001
0000
0000
3010
0000
,  // measure 11
1010
0000
1000
0000
0001
0000
0000
0000
1010
0000
0010
0100
0000
0000
0010
0000
,  // measure 12
1010
0000
1000
0000
0001
0000
0000
0000
0102
0000
0000
1003
0400
0000
0300
0000
,  // measure 13
1100
0000
1000
0000
0001
0000
0000
0000
1100
0000
0100
0010
0000
0000
0100
0000
,  // measure 14
1100
0000
1000
0000
0001
0000
0000
0000
0012
0000
0000
1000
0000
0000
0103
0000
,  // measure 15
0010
0000
0100
0000
0001
0000
0010
0000
0100
0000
1000
0001
1000
0000
0010
0000
,  // measure 16
0110
0000
0100
0001
0020
0000
0034
0003
,  // measure 17
0100
0010
1000
0100
1000
0001
0000
0000
,  // measure 18
1000
0000
0010
0100
0010
0000
1000
0000
0100
0000
1000
0000
0001
0000
0000
0000
,  // measure 19
1000
0000
0010
0100
0010
0000
1000
0000
0100
0000
0010
0000
0010
0000
0001
0000
,  // measure 20
1000
0000
0010
0100
0010
0000
1000
0000
0100
0000
1000
0000
2001
3000
0000
0000
,  // measure 21
0001
0000
0010
0100
0010
0000
0001
0000
0100
0000
0001
0000
0001
0000
0000
0000
,  // measure 22
1000
0000
0100
0010
0100
0000
1000
0000
0010
0000
0100
0010
0000
0000
1000
0000
,  // measure 23
0001
0000
0010
0100
0010
0000
0001
0000
0100
0000
0010
0000
0010
0000
1000
0000
,  // measure 24
0001
0000
0010
0100
0010
0000
0001
0000
0100
0000
0010
0100
0000
0000
0001
0000
,  // measure 25
1000
0010
1000
0000
0200
0000
0010
0000
1300
0010
1000
0000
0200
0000
0010
0000
,  // measure 26
1300
0010
1000
0000
0100
0000
0001
M000
0012
0000
0000
0013
0100
0000
1000
0000
,  // measure 27
0001
0000
0100
0010
2000
0000
0100
0000
3001
0000
0100
0010
2000
0000
0100
0000
,  // measure 28
3001
0000
0100
0010
0100
0000
1000
000M
2010
0000
0000
3010
0100
0000
0000
0000
,  // measure 29
0001
0100
0001
0000
0020
0000
0100
0000
0031
0100
0001
0000
0020
0000
0100
0000
,  // measure 30
0031
0100
0001
0000
0010
0000
1000
000M
2100
0000
0000
3100
0010
0000
0001
0000
,  // measure 31
1000
0000
0010
0100
0002
0000
0010
0000
1003
0000
0010
0100
0002
0000
0010
0000
,  // measure 32
1003
0000
0010
0100
0010
0000
0001
M000
0102
0000
0000
0103
0010
0000
1000
0100
,  // measure 33
0010
0000
0000
0000
0011
0000
0000
0000
1020
0000
0000
0130
0040
0000
0030
0000
,  // measure 34
1000
0000
0001
0000
0010
0000
0100
0000
1200
0000
0000
0310
0100
0000
0000
0000
,  // measure 35
1000
0001
1000
0000
0010
0000
0100
0000
0201
0000
0000
0310
0100
0000
0000
0000
,  // measure 36
0001
0000
1000
0010
1000
0000
0001
0010
0002
0000
0000
0103
0010
0000
1000
0001
,  // measure 37
1000
0100
0010
0100
1000
0000
0001
0000
1000
0100
0010
0100
0002
0000
0103
0000
,  // measure 38
1000
0000
0001
0000
0100
0000
0001
0000
1000
0000
0100
0000
1000
0000
0001
0000
0100
0000
2000
0000
0000
3100
0000
0000
,  // measure 39
0001
0000
1000
0000
0100
0000
1000
0000
0001
0000
0100
0000
0001
0000
1000
0000
0100
0000
0002
0000
0000
0103
0000
0000
,  // measure 40
1000
0000
0001
0000
0100
0000
0001
0000
1000
0000
0100
0000
1000
0000
0000
0010
0000
0000
0002
0000
0000
0003
0000
0000
,  // measure 41
0010
0010
0100
0100
0010
0010
0100
0100
,  // measure 42
0001
0010
0001
0000
1000
0000
0001
0010
0001
1000
0010
0100
0001
0000
0001
0000
,  // measure 43
1000
0010
1000
0000
0001
0000
1000
0010
1000
0001
0010
0100
1000
0000
1000
0000
,  // measure 44
0001
0000
0100
0010
0100
0000
0001
0000
0010
0000
0010
0000
0100
0000
0100
0000
,  // measure 45
1000
0000
0001
0100
0001
0000
1000
0000
0100
0010
0100
1000
0020
0000
0030
0000
,  // measure 46
1000
0000
0001
0010
0001
0000
1000
0010
0100
0010
1000
0000
4200
0000
3300
0000
,  // measure 47
0001
0000
0001
0000
0100
0010
1000
0010
0100
0000
0001
0000
0021
0000
0030
0000
,  // measure 48
1000
0000
0010
0000
1000
0000
0001
0010
0100
0010
0001
0000
0201
0000
0300
0000
,  // measure 49
0001
1000
0001
1000
0001
1000
0001
1000
0100
0000
1000
0010
0100
0000
0001
0000
,  // measure 50
1001
0000
1000
0100
0010
0000
0001
0010
0100
0000
1000
0001
0100
0001
0010
0100
,  // measure 51
1000
0000
0001
0000
0101
0000
1000
0000
1100
0000
0100
0010
0001
0000
0100
0000
,  // measure 52
0010
0100
0001
0000
0011
0000
1000
0000
2010
0000
0010
0000
3001
0000
0000
0000
,  // measure 53
0010
0100
0000
0100
0000
1000
0001
0000
0100
0010
0000
0000
0012
0000
0000
1003
,  // measure 54
0010
0000
0010
0100
0000
0001
1000
0000
0100
0010
0000
0000
2010
0000
0000
0000
,  // measure 55
3001
0000
1000
0100
0000
0100
0010
0000
0001
0000
0100
0000
2100
0000
0000
3001
,  // measure 56
0100
0000
0100
0010
0000
1000
0001
0000
0010
0100
0000
0000
0102
0000
0000
0000
,  // measure 57
1003
0010
0000
0000
0001
0010
0000
0000
,  // measure 58
1000
0010
0000
0000
0210
0000
0300
0000
,  // measure 59
0001
0010
0000
0000
1000
0010
0000
0000
,  // measure 60
0001
0010
0000
0000
0210
0000
4300
3000
,  // measure 61
0001
0100
0000
0000
1000
0100
0000
0000
,  // measure 62
0001
0100
0000
0000
0120
0000
0030
0000
,  // measure 63
1000
0100
0010
0100
1000
0010
0100
0010
,  // measure 64
1000
0000
0000
0100
0120
0000
0030
0000
,  // measure 65
0001
1000
0001
0000
0100
0000
0010
0000
1000
0001
1000
0000
0100
0000
0010
0000
,  // measure 66
0001
1000
0001
0000
0100
0000
1000
00M0
2001
0000
0000
3010
0100
0000
0001
0000
,  // measure 67
1000
0000
0100
0010
0002
0000
0100
0000
1003
0000
0100
0010
0002
0000
0100
0000
,  // measure 68
1003
0000
0100
0010
0100
0000
0001
00M0
1002
0000
0000
0013
0100
0000
0000
0000
,  // measure 69
1000
0100
1000
0000
0020
0000
0100
0000
1030
0100
1000
0000
0020
0000
0100
0000
,  // measure 70
1030
0100
1000
0000
0010
0000
0001
0M00
1002
0000
0000
0103
0010
0000
1000
0000
,  // measure 71
0001
0000
0010
0100
2000
0000
0010
0000
3001
0000
0010
0100
2000
0000
0010
0000
,  // measure 72
3001
0000
0010
0100
0010
0000
1000
0M00
2001
0000
0000
3100
0010
0000
0001
0000
,  // measure 73
0100
0000
0000
0000
;
