#VERSION:0.83;
#TITLE:PON PON PARADE;
#SUBTITLE:;
#ARTIST:kinoshita;
#TITLETRANSLIT:;
#SUBTITLETRANSLIT:;
#ARTISTTRANSLIT:;
#GENRE:;
#CREDIT:Flicks;
#MUSIC:PON PON PARADE.ogg;
#BANNER:PON PON PARADE.png;
#BACKGROUND:PON PON PARADE-bg.png;
#CDTITLE:;
#SAMPLESTART:26.978;
#SAMPLELENGTH:9.742;
#SELECTABLE:YES;
#OFFSET:-0.225;
#BPMS:0.000=194.000;
#STOPS:;
#BGCHANGES:-0.727=PON PON PARADE.avi=1.000=1=0=0=StretchNoLoop==CrossFade==;
#FGCHANGES:;

//--------------- dance-single - Flicks ----------------
#NOTEDATA:;
#STEPSTYPE:dance-single;
#DESCRIPTION:Flicks;
#DIFFICULTY:Beginner;
#METER:3;
#RADARVALUES:0,0,0,0,0;
#NOTES:
0000
0000
0000
0000
,
0000
0000
0000
0000
,
0000
0000
0000
0000
,
0000
0000
0000
0000
,
0001
0000
0000
0000
,
1000
0000
0000
0000
,
0100
0000
0000
0000
,
0010
0000
0000
0000
,
0001
0000
0000
0000
,
1000
0000
0000
0000
,
0001
0000
0000
0000
,
1000
0000
0000
0000
,
0001
0000
0000
0000
,
0100
0000
0000
0000
,
0010
0000
0000
0000
,
1000
0000
0000
0000
,
0001
0000
0000
0000
,
1000
0000
0000
0000
,
0000
1000
0000
0000
,
0001
0000
0000
0000
,
1000
0000
0001
0000
,
1000
0000
0001
0000
,
1000
0000
0000
0000
,
0100
0000
0000
0000
,
0010
0000
0000
0000
,
0001
0000
0000
0000
,
1000
0000
0000
0000
,
0001
0000
0000
0000
,
1000
0000
0000
0000
,
0001
0000
0000
0000
,
0100
0000
0000
0000
,
0010
0000
0000
0000
,
0100
0000
0000
0000
,
0001
0000
0000
0000
,
1000
0000
0000
0000
,
0100
0000
0000
0000
,
0010
0000
0000
0000
,
0100
0000
0000
0000
,
1000
0000
0000
0000
,
0001
0000
0000
0000
,
1000
0000
0000
0000
,
0000
0000
1001
0000
,
0000
0000
0000
0000
,
0000
0000
0000
0000
,
0001
0000
0000
0000
,
1000
0000
0000
0000
,
0010
0000
0000
0000
,
0100
0000
0000
0000
,
0001
0000
0000
0000
,
0010
0000
0000
0000
,
0100
0000
0000
0000
,
0100
0000
0000
0000
,
1000
0000
0000
0000
,
0000
0000
0000
0000
,
0000
0000
0000
0000
,
0000
0000
0000
0000
,
0001
0000
0000
0000
,
1000
0000
0000
0000
,
0001
0000
0000
0000
,
1000
0000
0000
0000
,
0000
0001
0000
0000
,
1000
0000
0000
0000
,
0001
0000
0000
0000
,
0100
0000
0000
0000
,
0010
0000
0000
0000
,
0100
0000
0000
0000
,
0001
0000
0000
0000
,
1000
0000
0000
0000
,
0100
0000
0000
0000
,
0010
0000
0000
0000
,
0001
0000
0000
0000
,
0010
0000
0000
0000
,
0100
0000
0000
0000
,
1000
0000
0000
0000
,
0001
0000
0000
0000
,
0100
0000
0000
0000
,
0010
0000
0000
0000
,
1000
0000
0000
0000
,
0001
0000
0000
0000
,
0000
1000
0000
1001
;

//--------------- dance-single - Flicks ----------------
#NOTEDATA:;
#STEPSTYPE:dance-single;
#DESCRIPTION:Flicks;
#DIFFICULTY:Easy;
#METER:9;
#RADARVALUES:0,0,0,0,0;
#NOTES:
0000
0000
0000
0000
,
0000
0000
0000
0000
,
0000
0000
0000
0000
,
0000
0000
0000
0000
,
1000
0001
1000
0001
,
0100
0000
0010
0000
1000
1000
0000
0001
,
0000
1000
0001
0000
1000
0000
0100
0000
,
0010
0100
1000
0000
,
0001
1000
0010
0100
,
0010
0000
0000
1000
0000
0010
0000
1010
,
0000
0001
1000
0100
,
0010
0000
0001
0000
1000
0000
0000
0010
,
0000
0000
1000
0000
0001
0000
0000
0100
,
0000
0001
1000
0001
,
1000
0100
0010
0100
,
1000
0001
1000
0000
0001
0000
0000
0000
,
1000
0010
1000
0010
,
0100
0000
0001
1000
0000
0000
0001
0000
,
0000
1001
1000
0001
,
0010
0100
0010
0001
,
1001
0000
0101
0000
,
0100
0010
0100
0000
,
0001
0001
1000
0100
,
0010
0001
0010
0100
,
1000
0001
0100
0010
,
1000
0010
0100
0001
,
1000
1000
0001
1000
,
0100
0010
0100
1000
,
0001
0010
0100
0010
,
0001
2000
3002
0003
,
1000
1000
0001
0001
,
0100
0010
0000
1000
0000
0001
0000
1000
,
0100
0100
0010
0010
,
0001
0001
0000
2000
0000
0000
0000
3000
,
1000
1000
0001
0001
,
0100
0010
0000
1000
0000
0001
0000
1000
,
0100
0000
0010
0100
0000
0000
0010
0000
,
0001
0000
1000
0001
0000
0000
0000
0000
,
1001
0000
1010
0000
,
1001
0000
0000
0000
1000
0100
0000
0010
,
0000
0001
1000
0001
,
0000
1000
1000
0001
0001
0000
1000
0000
,
0002
0000
0203
0000
,
1300
0000
0100
0000
0001
1000
0000
0001
,
0000
1000
0001
0000
1000
0000
0100
0000
,
0010
0001
0010
0000
,
0100
0001
0100
1000
,
0001
0000
1000
0001
0000
1000
0000
1001
,
0000
1001
0001
0100
,
1000
0100
0001
1000
,
1001
0000
1100
0000
,
0100
0010
0100
0000
,
1000
0000
0000
0000
,
0001
0000
0000
0000
,
1000
0000
0000
0000
,
0001
0000
0000
0000
,
1001
0000
0101
0000
,
0110
1000
0001
1000
,
0001
0100
0010
1000
,
0100
0010
0001
1001
,
1000
1000
0001
0100
,
0010
1000
0100
1000
,
0010
0100
0001
0010
,
0001
0010
0100
1000
,
0001
0001
1000
0001
,
0100
0010
0100
0001
,
1000
0010
0100
0010
,
1000
0002
2003
3000
,
0001
0001
1000
1000
,
0100
0010
0000
0001
0000
1000
0000
0001
,
0100
0100
0010
0010
,
1000
1000
0000
0002
0000
0000
0000
0003
,
0001
0001
1000
1000
,
0100
0010
0000
0001
0000
1000
0000
0001
,
0100
0000
0010
0100
0000
0000
0010
0000
,
1000
0000
0100
0010
0000
0001
1000
0000
,
1001
0000
1010
0000
,
1001
0000
0000
0000
1000
0100
0000
0001
,
0000
0100
0010
0001
,
0000
1000
1000
0001
0001
0000
1001
0000
;

//--------------- dance-single - Flicks ----------------
#NOTEDATA:;
#STEPSTYPE:dance-single;
#DESCRIPTION:Flicks;
#DIFFICULTY:Medium;
#METER:12;
#RADARVALUES:0,0,0,0,0;
#NOTES:
0000
0000
0000
0000
,
0000
0000
0000
0000
,
0000
0000
0000
0000
,
0000
0000
0000
0000
,
1000
0000
0100
0000
0010
0001
1000
0000
,
0001
0100
0001
1000
0001
0100
0000
0110
,
0000
1000
0001
1000
0100
0000
0010
0001
,
1000
0001
1000
0010
0000
1000
0001
1000
,
0000
0001
0010
0100
1000
0000
0001
0000
,
1000
0010
0100
0001
0000
1001
0000
1001
,
0000
0001
1000
0001
0010
0000
0100
1000
,
0001
1000
0001
0100
0000
0001
1000
0001
,
0000
1000
0100
0010
0000
0001
0100
0010
,
0000
1000
0100
0001
0000
0100
0010
0001
,
1000
0001
1000
0001
,
1000
0001
0100
0010
0000
1000
0001
0000
,
1001
0000
1100
0000
1000
0100
0010
0100
,
1000
0000
0001
1000
0000
0010
1000
0010
,
0000
0000
1001
0000
0001
0020
0000
0031
,
1000
0001
0100
0010
0100
0001
1000
0100
,
1000
2000
3000
0000
0001
0002
0003
0000
,
0001
0000
0101
0000
1001
1000
0001
1000
,
0001
0000
0010
0000
0100
1000
0000
0010
,
0000
0100
0010
0100
0010
1000
0001
0000
,
1000
0001
0010
0001
0100
0001
0000
1000
,
0100
1000
0001
1000
0000
0001
0100
1000
,
0100
0000
0010
0000
1000
0001
0000
1000
,
0000
0100
0010
0100
1000
0001
1000
0000
,
0001
1000
0010
0100
0001
1000
0100
0001
,
0100
0000
0010
0000
0001
1000
0001
1000
,
0001
0000
1001
0000
1000
0001
1000
0010
,
1000
0020
0000
0230
0000
2300
0000
3100
,
0001
0000
1001
0000
0001
1000
0001
0010
,
0001
0100
0000
0001
0000
0100
0010
1000
,
0001
0000
1001
0000
1000
0001
1000
0100
,
1000
0200
0000
0320
0000
2030
0000
3010
,
0001
0000
1000
0010
0000
1000
0001
0010
,
0100
0000
1000
0010
0000
1000
0001
0000
,
1001
0000
0000
1000
0100
0000
0010
0000
0100
0000
0000
1000
0001
0000
1000
0000
,
0001
0000
0000
0100
0010
0000
0100
0000
0001
0000
2000
0000
0000
0000
3001
0000
,
0000
1000
0001
0010
0100
1000
0100
0010
,
0000
0100
0010
0100
0010
0000
0110
0000
,
0010
0000
0000
0001
0000
0100
0010
0000
0000
1000
0000
0001
,
2000
0000
3200
0000
0301
0200
0000
1300
,
0000
0001
1000
0000
0001
0000
0100
0000
,
0010
0100
0010
1000
0000
0001
1000
0000
,
0100
0010
0100
1000
0001
0010
0100
0010
,
0001
0000
1000
1010
0000
1010
0000
1001
,
0000
1000
0100
0010
0001
0100
0001
0010
,
0100
1000
0001
1000
0000
0010
0100
0001
,
1000
2000
3000
0000
0001
0002
0003
0000
,
0001
0011
1001
0000
,
0001
0000
1000
0000
,
0001
0000
1000
0000
,
0001
1000
0001
0000
0100
0010
0000
0100
,
0001
1000
0001
1000
0000
0001
0100
1000
,
0100
0000
0010
0000
1000
0100
0000
0000
,
0010
0001
1000
0001
,
0100
0010
0100
0010
1000
0001
0000
1001
,
0000
1000
0100
0001
0200
0000
1300
0000
,
0001
0000
0100
0000
0010
1000
0000
0100
,
0000
0010
0100
0010
0100
1000
0001
0000
,
1000
0001
0100
0001
0010
0001
0000
1000
,
0010
1000
0001
1000
0000
0001
0010
1000
,
0010
0000
0100
0000
1000
0001
0000
1000
,
0000
0010
0100
0010
1000
0001
1000
0000
,
0001
1000
0100
0010
0001
1000
0010
0001
,
0010
0000
0100
0000
0001
1000
0001
1000
,
0001
0000
1001
0000
1000
0001
1000
0100
,
1000
0200
0000
0320
0000
2030
0000
3010
,
0001
0000
1001
0000
0001
1000
0001
0100
,
0001
0010
0000
0001
0000
0010
0100
1000
,
0001
0000
1001
0000
1000
0001
1000
0010
,
1000
0020
0000
0230
0000
2300
0000
3100
,
0001
0000
1000
0100
0000
1000
0001
0100
,
0010
0000
1000
0100
0000
1000
0001
0000
,
1000
0000
0000
0001
0100
0000
0010
0000
1000
0000
0000
0001
1000
0000
0001
0000
,
0010
0000
0000
0001
0010
0000
0100
0000
0001
0000
0200
0000
0000
0000
1300
0000
,
0000
0001
1000
0010
0100
0001
0100
1000
,
0000
0100
0010
0100
0010
0000
0110
0000
;

//--------------- dance-single - Flicks ----------------
#NOTEDATA:;
#STEPSTYPE:dance-single;
#DESCRIPTION:Flicks;
#DIFFICULTY:Hard;
#METER:14;
#RADARVALUES:0,0,0,0,0;
#NOTES:
0000
0000
0000
0000
,
0000
0000
0000
0000
,
0000
0000
0000
0000
,
0000
0000
0000
0000
,
1000
0000
0100
0000
0010
0001
0010
0000
,
0100
1000
0100
0001
0100
0010
0000
0011
,
0000
1000
0010
1000
0100
1000
0001
0100
,
0010
1000
0100
1000
0000
0001
0100
0001
,
0000
1000
0100
0010
0001
1000
0010
0100
,
1000
0100
0001
1000
0000
1100
0000
0110
,
0000
0001
1000
0001
0100
0001
1000
0100
,
0010
0001
0100
0001
0000
1000
0100
1000
,
0000
0001
0010
0001
0000
1000
0010
0100
,
0000
0001
0100
1000
0000
0100
0010
1000
,
0001
1000
0001
0000
0010
0000
0100
0000
,
0010
0001
1000
0001
0000
1000
0010
0100
,
0002
0000
0010
0000
1003
0001
0100
0010
,
0100
0000
0001
0101
0000
0001
1000
0001
,
0000
0000
1001
0000
1000
0200
0000
0301
,
0100
0010
0001
0100
0010
0100
0001
0010
,
0001
1002
0103
0101
,
0001
0000
0011
0000
0110
0100
0010
0100
,
1100
0000
1100
0000
0001
0001
0100
0010
,
0100
0001
1000
0010
0100
0010
1000
0000
,
0001
1000
0100
0001
0100
1000
0100
0010
,
0100
0001
0100
1000
0001
0100
0010
1000
,
1010
0000
0101
0000
1000
1000
0100
0010
,
0100
1000
0001
0010
0100
0010
0001
0000
,
0001
1000
0010
0001
0010
0100
0001
0100
,
1000
0100
0001
0000
0110
0010
0100
0010
,
1010
0000
1010
0000
0001
0001
1000
1000
,
0100
0200
0000
0010
0000
1000
0000
0310
,
0001
0000
1002
0000
0103
0100
0001
0001
,
0100
0200
0000
0010
0000
0301
0100
0010
,
0110
0000
1001
0000
1000
1000
0001
0001
,
0010
0020
0000
0100
0000
0001
0000
0130
,
1000
0100
0010
0001
0000
1000
0010
0001
,
0010
1000
0010
0100
0000
0001
1000
0000
,
1100
0000
0000
0100
0010
0000
0001
0000
0011
0000
0000
0001
0010
0000
0100
0000
,
1100
0000
0000
1000
0001
0000
0100
0000
0010
0000
2010
0000
0000
0000
3001
0000
,
0000
0010
0100
1000
0001
0100
1000
0100
,
0000
0001
0001
1000
1000
0000
1001
0000
,
0001
0000
0000
1000
0100
0010
0001
0000
0000
0001
0100
0010
,
2000
0000
3001
0000
1000
1001
0000
1001
,
0000
1000
0100
1000
0010
0000
1000
0100
,
0010
0000
1000
0000
0010
0000
0001
0000
0000
0000
0100
0010
0100
0000
0001
0000
,
0100
0010
0001
0010
1000
0001
1000
0100
,
0010
0000
0001
0011
0000
0110
0000
1100
,
0000
1000
0010
0100
0001
0100
1000
0100
,
0001
0000
0100
0000
0010
0000
0100
0000
0000
0000
0001
1000
0001
0000
1000
0000
,
0100
1100
0000
0001
0100
0110
0000
1000
,
0001
0000
0010
0000
0011
0010
0001
0010
,
0001
0000
1000
0000
,
0001
0000
0100
0000
,
0001
0100
0010
1000
,
0100
0000
0010
0001
0000
0010
0001
1000
,
0001
0001
0000
0000
1000
1000
0000
0000
,
0002
0203
0320
2030
,
3001
0010
0100
1000
0010
0100
0000
1001
,
0000
0001
0010
1000
0020
0000
0031
0000
,
0101
0000
0101
0000
1000
1000
0100
0010
,
0001
0100
0001
0010
0100
0010
0001
0000
,
1000
0001
0100
1000
0100
0001
0010
0100
,
0010
1000
0010
0001
0010
0100
1000
0100
,
0110
0000
1100
0000
0001
0001
0100
0010
,
1000
0100
1000
0010
0100
0001
1000
0000
,
0001
1000
0100
0001
0100
1000
0010
0100
,
0010
0001
0010
1000
0010
0100
0001
1000
,
1100
0000
1100
0000
1000
1000
0001
0001
,
0100
0200
0000
0010
0000
1000
0000
0310
,
1000
0000
2001
0000
3100
0100
1000
1000
,
0100
0200
0000
0001
0000
1300
0100
0010
,
0110
0000
1001
0000
0001
0001
1000
1000
,
0010
0020
0000
0100
0000
0001
0000
1030
,
0001
0010
0100
1000
0000
0001
0100
1000
,
0100
0001
0010
1000
0000
0010
0001
0000
,
1010
0000
0000
1000
0010
0000
0100
0000
0101
0000
0000
1000
0100
0000
0010
0000
,
0011
0000
0000
0001
0100
0000
1000
0000
0100
0000
0102
0000
0000
0000
1003
0000
,
0000
0001
1000
0100
0001
1000
0010
0001
,
0000
1000
1000
0010
0010
0000
1001
0000
;
