#VERSION:0.83;
#TITLE:PM is Here!;
#SUBTITLE:;
#ARTIST:BEMANI Sound Team "PON";
#TITLETRANSLIT:;
#SUBTITLETRANSLIT:;
#ARTISTTRANSLIT:;
#GENRE:;
#CREDIT:Graphics by forcednature;
#MUSIC:PM is Here!.ogg;
#BANNER:PM is Here!.png;
#BACKGROUND:PM is Here!-bg.png;
#CDTITLE:;
#SAMPLESTART:76.454;
#SAMPLELENGTH:15.000;
#SELECTABLE:YES;
#OFFSET:0.000;
#BPMS:0.000=165.000;
#STOPS:;
#TIMESIGNATURES:0.000=4=4;
#BGCHANGES:;
#FGCHANGES:;

//--------------- dance-single - Extraordiberry ----------------
#NOTEDATA:;
#STEPSTYPE:dance-single;
#DESCRIPTION:Extraordiberry;
#DIFFICULTY:Beginner;
#METER:3;
#RADARVALUES:0,0,0,0,0;
#CREDIT:Extraordiberry;
#NOTES:
0000
0000
0000
0000
,
0000
0000
0000
0000
,
0000
0000
0000
0000
,
1001
0000
0000
0000
,
1000
0000
0000
0000
,
0100
0000
0000
0000
,
1000
0000
0000
0000
,
0001
0000
0000
0000
,
0000
0000
0000
0000
,
1000
0000
0000
0000
,
0000
0000
0000
0000
,
0001
0000
0000
0000
,
0100
0000
0000
0000
,
1001
0000
0000
0000
,
1000
0000
0000
0000
,
0001
0000
0000
0000
,
0000
0000
0000
0000
,
1000
0000
0000
0000
,
0000
0000
0000
0000
,
0001
0000
0000
0000
,
1000
0000
0000
0000
,
1001
0000
0000
0000
,
0001
0000
0000
0000
,
0100
0000
0000
0000
,
0010
0000
0010
0000
,
1000
0000
0000
0000
,
0001
0000
0000
0000
,
1000
0000
0000
0000
,
0100
0000
0000
0000
,
0010
0000
0000
0000
,
0001
0000
0000
0000
,
1000
0000
1000
0000
,
0001
0000
0000
0000
,
1001
0000
0000
0000
,
0100
0000
0000
0000
,
1001
0000
0000
0000
,
0001
0000
0001
0000
,
0100
0000
0000
0000
,
0001
0000
0000
0000
,
1000
0000
1000
0000
,
1000
0000
0000
0000
,
0100
0000
0000
0000
,
0010
0000
0000
0000
,
0001
0000
0001
0000
,
1000
0000
0000
0000
,
1001
0000
0000
0000
,
0001
0000
0000
0000
,
0100
0000
0100
0000
,
0010
0000
0000
0000
,
1001
0000
0000
0000
,
1000
0000
1000
0000
,
0100
0000
0000
0000
,
0010
0010
0010
0000
,
0001
0000
0000
0000
,
1000
0000
0000
0000
,
0010
0000
0000
0000
,
0100
0000
0000
0000
,
0001
0000
0000
0000
,
1000
0000
0000
0000
,
0100
0000
0000
0000
,
0010
0000
0000
0000
,
0001
0000
0001
0000
,
0001
0000
0000
0000
,
0100
0000
0100
0000
,
0100
0000
0000
0000
,
0010
0000
0010
0000
,
0010
0000
0010
0000
,
1000
0000
0000
0000
,
1001
0000
0000
0000
,
1000
0000
0000
0000
,
0100
0000
0010
0000
,
0100
0000
0010
0000
,
0001
0001
0001
0000
,
1000
1000
1000
0000
,
0001
0001
0001
0000
,
1001
0000
0000
0000
;

//--------------- dance-single - Extraordiberry ----------------
#NOTEDATA:;
#STEPSTYPE:dance-single;
#DESCRIPTION:Extraordiberry;
#DIFFICULTY:Easy;
#METER:7;
#RADARVALUES:0,0,0,0,0;
#CREDIT:Extraordiberry;
#NOTES:
0000
0000
0000
0000
,
0000
0000
0000
0000
,
0000
0000
0000
0000
,
1000
1000
1000
0000
,
0001
0001
0001
0000
,
0100
0100
0100
0000
,
0010
0010
0010
0000
,
1000
0000
0100
0000
,
0010
0000
0000
0000
,
0001
0000
0100
0000
,
0010
0000
0000
0000
,
1000
0000
0100
0000
,
0010
0000
0001
0000
,
1000
1000
1000
0000
,
0010
0010
0010
0000
,
1000
0000
0100
0000
,
1000
0000
0001
0000
,
0100
0000
0010
0000
,
0100
0000
0001
0000
,
1000
0000
0100
0000
,
0010
0000
0001
0000
,
1000
1000
1000
0000
,
0010
0010
0010
0000
,
0100
0100
0100
0000
,
0001
1000
0001
0000
,
1001
0000
0001
0001
,
0100
0010
1000
0000
,
0001
0010
0100
0010
,
0001
1000
0001
0000
,
1000
1000
0010
0100
,
0010
1000
0001
0000
,
1000
0100
0010
0001
,
0100
0100
0100
0000
,
0010
0000
1000
0000
,
0001
0000
0010
0000
,
0100
0100
0100
1000
,
0001
0001
0001
0001
,
1000
0000
0010
0000
,
0100
0001
1000
0000
,
0100
0000
0010
0000
,
0100
0100
1000
0000
,
0001
0000
0100
0000
,
0010
1000
0001
0000
,
1000
0100
0010
0001
,
2000
0000
3001
0000
,
1001
0000
0001
0100
,
0010
0100
0001
1000
,
0100
0100
0010
0010
,
0001
0000
1000
0000
,
1001
0000
0001
0100
,
0010
0010
0010
0000
,
1000
0000
0001
0000
,
0010
0010
0010
0000
,
0001
0000
0100
0000
,
1000
0000
0100
0000
,
0001
1000
0100
0000
,
0100
0010
0001
0000
,
1000
0000
0010
0000
,
0001
0000
0010
0000
,
1000
0001
0010
0000
,
0010
0100
1000
0001
,
0100
0100
0100
0010
,
1000
1000
1000
0100
,
0010
0000
0001
0000
,
1000
0000
0010
0000
,
0100
0100
0100
1000
,
0100
0100
0100
0001
,
1000
0000
0000
0000
0000
1001
0000
0000
,
1000
1000
1000
0000
,
0100
0100
0100
0000
,
0010
0001
0010
0001
,
1000
0010
1000
0010
,
0100
0100
0100
0000
,
0001
0001
0001
0000
,
1000
1000
1000
0001
,
2002
0000
0000
0000
,
0000
0000
0000
0000
,
0000
0000
0000
0000
,
3003
0000
0000
0000
;

//--------------- dance-single - Extraordiberry ----------------
#NOTEDATA:;
#STEPSTYPE:dance-single;
#DESCRIPTION:Extraordiberry;
#DIFFICULTY:Medium;
#METER:11;
#RADARVALUES:0,0,0,0,0;
#CREDIT:Extraordiberry;
#NOTES:
0000
0000
0000
0000
,
0000
0000
0000
0000
,
0000
0000
0000
0000
,
1000
0100
0010
0001
0000
0010
0100
1000
,
0000
0001
0100
0010
0000
1000
0100
1000
,
0001
0100
0010
1000
0000
0010
0100
0001
,
0000
0000
1000
0000
0100
0000
0010
0000
0000
0010
0001
0000
1000
0000
1000
0000
,
0001
0001
0100
0100
,
0001
0001
0010
0010
,
0001
0001
1000
1000
,
0010
0010
0100
0100
,
0001
0000
1000
0000
0100
0000
0010
0001
,
0000
1000
0000
0001
0000
0001
1000
0000
,
1001
0000
0001
0100
0000
0010
0100
0001
,
0000
0000
1000
0000
0100
0000
0010
0000
0000
0010
0100
0000
1000
0000
1000
0000
,
0001
0100
0010
1000
,
0010
0100
0001
0001
,
1000
0100
0010
0001
,
0010
0100
1000
0001
,
1001
0000
1000
0000
0010
0000
0100
0010
,
0000
0100
0000
0001
0000
1000
0001
0000
,
1001
0000
1000
0100
0000
0010
0100
1000
,
0000
0001
0100
0010
1000
1000
0001
0001
,
1000
0100
0010
0001
0000
0010
0100
2000
,
0000
3010
0100
0002
0000
1003
0000
0000
,
1001
1100
0110
0011
,
0001
0002
0000
1003
0000
0000
0001
1000
,
0001
0100
0010
2000
0000
3100
0010
0002
,
0000
1000
0000
0103
0000
0000
0001
0000
,
1001
0000
1000
0000
0100
0010
0001
2000
,
0000
3020
0000
0230
0000
0300
0001
1000
,
0100
0010
0001
1000
0000
0001
0000
2002
,
0000
0000
3003
0001
,
0101
0000
0110
0000
,
1010
0000
1001
1001
,
1000
0100
0010
0001
0000
0010
0100
1000
,
0000
0001
0100
0010
1000
1000
0001
0001
,
1000
0100
0010
0000
0100
1000
0001
0100
,
0010
0000
0000
0100
0000
0000
0002
0000
0000
0000
0000
0000
1003
0000
0000
0000
,
0001
0010
0100
1000
0100
0010
0001
1000
,
0000
0010
0100
0002
0000
0000
1000
1000
,
1003
0000
0001
1000
0100
0010
0001
0200
,
0000
0310
1000
0200
0000
0310
0001
0000
,
1000
0000
0001
0000
0100
0000
1000
0000
0100
0000
0001
0000
1000
0000
0100
0020
,
0000
0000
0200
0330
,
1001
0001
0100
0010
,
0100
0100
0001
2000
0000
0100
3100
0000
,
1000
0100
0010
0002
0000
0103
0010
2000
,
0000
0001
0000
3100
0000
0000
0110
0000
,
1001
0000
0001
0100
0010
0100
0001
2000
,
0000
3200
0000
0320
0000
0001
0031
0000
,
1000
0001
0100
0010
0000
0110
0000
2002
,
0000
0000
0000
3003
0000
1000
0100
0001
,
0000
0100
1000
0001
0000
1000
0010
0001
,
0000
0010
1000
0001
0000
1000
0000
0100
,
0000
0010
0001
1000
0000
0010
1000
0001
,
0000
1000
0100
0000
1000
0001
0100
1000
,
0000
0100
0001
1000
0000
0001
0010
1000
,
0000
0010
0001
1000
0000
0001
0000
0100
,
0000
0010
1000
0001
0000
0010
0001
1000
,
0010
0010
0100
0100
0001
0001
1000
1000
,
0001
0010
0100
0020
0000
0031
1000
0010
,
0100
0010
1000
0200
0000
1300
0001
0100
,
0000
0010
1000
0100
0000
0010
0001
0100
,
0000
0010
1000
0000
0010
0010
1000
0001
,
1000
0100
0001
0200
0000
1300
0001
0100
,
1000
0100
0001
0020
0000
0130
1000
0001
,
0000
1000
0001
1000
0000
1001
0000
0000
,
0001
0100
0010
1000
0000
0010
0100
0001
,
0000
0000
1000
0000
0100
0000
0010
0000
0000
0010
0001
0000
1000
0000
1000
0000
,
0001
0100
0001
0100
0010
1000
0010
1000
,
0100
0010
0100
0010
0001
1000
0001
1000
,
0010
0000
0000
0100
0000
0000
0010
0000
0120
0000
0000
0000
1030
0000
0000
0000
,
0100
0000
0000
0010
0000
0000
0100
0000
0120
0000
0000
0000
0031
0000
0000
0000
,
1000
0000
0000
0001
0000
0000
1000
0000
1001
0000
0000
0000
0110
0000
0000
0000
,
2002
0000
0000
0000
,
0000
0000
0000
0000
,
0000
0000
0000
0000
,
3003
0000
0000
0000
;

//--------------- dance-single - Extraordiberry ----------------
#NOTEDATA:;
#STEPSTYPE:dance-single;
#DESCRIPTION:Extraordiberry;
#DIFFICULTY:Hard;
#METER:15;
#RADARVALUES:0,0,0,0,0;
#CREDIT:Extraordiberry;
#NOTES:
0000
0000
0000
0000
,
0000
0000
0000
0000
,
0000
0000
0000
0000
,
1001
0000
1000
0000
0100
0010
0100
0010
0000
0000
0001
0000
0100
0010
0100
0010
,
0000
0000
1000
0000
0100
0010
0001
1000
0000
1000
0001
0000
1000
0001
1000
0000
,
1001
0000
0001
0000
0100
0010
0100
0010
0000
0000
1000
0000
0100
0010
0100
0010
,
0000
0000
0001
0000
0100
0010
1000
0001
0000
0001
0010
0100
1000
0001
1000
0010
,
0100
0100
0100
0100
,
0100
0000
0000
0000
0100
0000
0000
0000
0100
0000
0001
1000
0001
0000
1000
0000
,
0100
0100
0100
0100
,
0100
0000
0000
0000
0100
0000
0000
0000
0100
0000
0010
0001
1000
0001
1000
0000
,
0010
0100
1000
0001
,
0010
0000
1000
0001
0000
0010
0110
0000
,
1001
0000
0001
0000
0100
0010
0100
0010
0000
0000
1000
0000
0100
0010
0100
0010
,
0000
0000
0001
0000
0100
0010
1000
0001
0000
0001
0010
0100
1000
0001
0100
0000
,
0010
1000
0010
0100
0001
0100
0010
1000
,
0001
0010
0100
1000
0010
1000
0100
0010
,
0001
0100
0010
1000
0010
0100
0001
1000
,
0100
0010
0100
0001
1000
0010
0001
1000
,
1001
0001
0200
0001
0320
1000
0130
0002
,
0000
2003
0000
3200
0000
0310
0001
1000
,
1001
0000
0001
0000
0100
0010
0100
0010
0000
0000
1000
0000
0100
0010
0100
0010
,
0000
0000
0001
0000
0100
0010
1000
0001
0010
0000
0010
0000
0100
0000
0100
0000
,
1000
0000
0001
0000
0100
0010
0100
0010
1000
0000
0001
0000
0010
0100
2000
0000
,
0000
0000
3002
0000
0103
0000
2000
0000
3001
0000
0020
0000
1030
0100
0010
0001
,
1000
1100
0110
0011
,
1001
0001
0100
0010
0000
0010
0100
0100
,
0001
1000
0100
0020
0000
0130
1000
0020
,
0000
0000
0230
0000
0000
0000
0302
0000
0000
0000
0013
0100
1000
0001
0100
0010
,
1000
0000
1010
0000
1100
0100
0010
0011
,
0000
0101
0000
2020
0000
3030
0000
1000
,
0100
0010
0001
0100
0000
0110
0000
1001
,
1000
0001
1000
0001
0000
1000
0000
1000
0001
0000
0000
0000
1001
0000
0000
0000
,
0001
0000
1000
0000
1000
0100
0010
0000
0001
0000
1000
0000
1000
0010
0100
0000
,
0001
0000
0010
0000
0010
0100
1000
0000
0001
0000
1000
0000
1001
0000
0000
0000
,
0001
0000
0001
0100
0010
0100
0010
0000
1000
0000
1000
0100
0010
0100
0010
0000
,
0001
0000
0100
0000
0010
1000
0000
0100
0000
0010
0001
0000
1001
0000
1001
0000
,
1000
0000
0001
0000
0100
0000
0010
0000
1000
0100
1000
0100
0010
0001
0010
0001
,
1000
0000
0001
0100
0000
0100
0020
0000
0000
0000
0130
0000
0001
0000
1000
0000
,
0001
0010
0100
0000
0100
0000
1000
0100
0000
0100
0010
0000
0001
0000
0001
0000
,
0000
0000
0100
0010
0100
0001
2000
0000
0000
0000
3001
1000
0100
0010
0001
1000
,
0010
0000
0000
0000
0100
0001
0100
0001
1000
0100
1000
0100
0010
0001
2000
0000
,
0000
0000
3010
0100
0001
0010
0200
0000
0000
0000
0310
0000
0001
0000
1000
0000
,
0010
0100
0010
0100
0001
1000
0001
1000
0100
0010
0100
0010
0001
1000
0010
0200
,
0000
0000
0000
0300
0000
0000
MMMM
0000
MMMM
0000
MMMM
0000
MMMM
0000
0000
0000
,
1001
1100
0011
0101
,
1010
0000
1000
0000
0100
0000
0020
0000
0000
0000
0130
1000
0001
0100
0010
0000
,
1000
0001
0010
0200
0000
0310
0001
0200
,
1300
0000
0002
0000
0013
0000
0100
0000
0000
0000
0110
0000
0110
0000
0001
1000
,
0000
0000
0001
0010
1000
0001
1000
0020
,
0000
0000
0032
0000
0000
0000
0203
0000
0000
0000
0310
0100
0001
1000
0100
0000
,
0010
0001
0100
0101
0000
1010
0000
1001
,
0001
1000
0001
1000
0000
0001
0000
0001
1000
0000
0001
0000
0010
0000
2000
0000
,
0000
3001
0100
2000
0000
3001
0100
2000
,
0000
3001
0010
2000
0000
3001
0000
1100
,
0000
0100
0010
0011
0000
0001
0100
0120
,
0000
1000
1030
0000
0001
0010
1000
0002
,
0000
0103
1000
0002
0000
0103
1000
0002
,
0000
0013
1000
0002
0000
0013
0100
2000
,
0001
3020
0100
2030
0001
3200
0010
1300
,
0001
0000
0001
0000
1000
0000
1000
0000
0001
0100
0001
0100
0010
1000
0010
1000
,
0001
0000
0100
0000
0010
1000
0010
1000
0001
0000
1000
0000
0100
0010
0100
0010
,
0001
0000
1000
0000
0100
0010
0100
0010
0001
0000
1000
0000
0010
0000
0200
0000
,
1300
0002
0013
2000
3100
0002
1003
0020
,
0031
1000
1001
0001
0100
0010
1000
0100
,
MMMM
0010
1000
0100
MMMM
0001
0100
0010
,
MMMM
0001
0100
0010
MMMM
0001
1000
1100
,
0000
0100
0010
0011
0000
2002
0000
3003
,
1000
0000
0001
0000
0100
0010
0100
0001
0000
0001
1000
0000
0100
0010
0100
1000
,
0000
1000
0001
0000
0100
0010
1000
0100
0000
0100
0010
0001
1000
0010
0100
0000
,
0001
1000
0100
0000
0100
0010
0001
0000
0001
1000
0010
0000
0010
0100
0001
0000
,
1000
0100
1000
0100
0010
0001
0010
0001
1000
0010
0100
0001
1000
0100
0010
0000
,
0001
1000
0001
1000
0000
0001
0000
0001
1000
0000
0000
0000
1001
0000
0000
0000
,
0100
0010
0100
0010
0000
0100
0000
0100
0010
0000
MMMM
0000
MMMM
0000
MMMM
0000
,
1000
0001
1000
0001
0000
1000
0000
1000
0001
0100
0010
0000
0110
0000
0000
0000
,
2002
0000
0000
0000
,
0000
0000
0000
0000
,
0000
0000
0000
0000
,
3003
0000
0000
0000
;

//--------------- dance-double - Extraordiberry ----------------
#NOTEDATA:;
#STEPSTYPE:dance-double;
#DESCRIPTION:Extraordiberry;
#DIFFICULTY:Easy;
#METER:7;
#RADARVALUES:0,0,0,0,0;
#CREDIT:Extraordiberry;
#NOTES:
00000000
00000000
00000000
00000000
,
00000000
00000000
00000000
00000000
,
00000000
00000000
00000000
00000000
,
10000000
10000000
10000000
00000000
,
01000000
01000000
01000000
00000000
,
00100000
00100000
00100000
00000000
,
00001000
00001000
00001000
00000000
,
00010000
00000000
00000100
00000000
,
00001000
00000000
00000000
00000000
,
00000001
00000000
00000100
00000000
,
00000010
00000000
00000000
00000000
,
00000100
00000000
00001000
00000000
,
00010000
00000000
00001000
00000000
,
00010000
00010000
00010000
00000000
,
00001000
00001000
00001000
00000000
,
00010000
00000000
00100000
00000000
,
10000000
00000000
00010000
00000000
,
10000000
00000000
01000000
00000000
,
00010000
00000000
00001000
00000000
,
00011000
00000000
00001000
00000000
,
00000010
00000000
00000001
00000000
,
00001000
00001000
00001000
00000000
,
00000010
00000010
00000010
00000000
,
00010000
00010000
00010000
00000000
,
00001000
00010000
00001000
00000000
,
00011000
00000000
00010000
00010000
,
00001000
01000000
00010000
00000000
,
10000000
01000000
00100000
00010000
,
00100000
00001000
00010000
00000000
,
00011000
00000000
00001000
00010000
,
00000010
00001000
00000010
00000000
,
00001000
00000001
00000100
00000010
,
00010000
00010000
00010000
00000000
,
00001000
00000000
00010000
00000000
,
01000000
00000000
10000000
00000000
,
00010000
00010000
00010000
00000000
,
01000000
01000000
01000000
01000000
,
00010000
00000000
10000000
00000000
,
01000000
00100000
00010000
00000000
,
10000000
00000000
00010000
00000000
,
10000000
10000000
00100000
00000000
,
01000000
00000000
00010000
00000000
,
00100000
00001000
00010000
00000000
,
00001000
00000010
00000001
00001000
,
00000020
00000000
00000130
00000000
,
00011000
00000000
00010000
00001000
,
01000000
00010000
10000000
00000000
,
00010000
00010000
00100000
00100000
,
01000000
10000000
00010000
00000000
,
10010000
00000000
10000000
00100000
,
01000000
00010000
01000000
00000000
,
00001000
00001000
00010000
00010000
,
00001000
00001000
00001000
00000000
,
00011000
00000000
00100000
00000000
,
00011000
00000000
00000010
00000000
,
00010000
00000000
00001000
00000000
,
00000010
00000001
00001000
00000000
,
00000110
00000000
00000001
00000000
,
00000110
00000000
00001000
00000000
,
00000001
00000000
00000100
00000000
,
00001000
00010000
00001000
00001000
,
00010000
00100000
10000000
00000000
,
00010000
10000000
01000000
00000000
,
10000000
00000000
01000000
00000000
,
00100000
00000000
00001000
00000000
,
00010000
00001000
00000010
00000001
,
00001000
00000001
00001000
00000000
,
00000010
00000000
00000000
00000000
00000000
00011000
00000000
00000000
,
00010000
00010000
00010000
00000000
,
00001000
00001000
00001000
00000000
,
01000000
00010000
01000000
00010000
,
10000000
01000000
10000000
01000000
,
00010000
00010000
00010000
00000000
,
00001000
00001000
00001000
00000000
,
00010000
00010000
00010000
00001000
,
00022000
00000000
00000000
00000000
,
00000000
00000000
00000000
00000000
,
00000000
00000000
00000000
00000000
,
00033000
00000000
00000000
00000000
;

//--------------- dance-double - Extraordiberry ----------------
#NOTEDATA:;
#STEPSTYPE:dance-double;
#DESCRIPTION:Extraordiberry;
#DIFFICULTY:Medium;
#METER:11;
#RADARVALUES:0,0,0,0,0;
#CREDIT:Extraordiberry;
#NOTES:
00000000
00000000
00000000
00000000
,
00000000
00000000
00000000
00000000
,
00000000
00000000
00000000
00000000
,
00010000
00001000
01000000
00010000
00000000
01000000
00001000
00010000
,
00000000
00001000
00010000
00000100
00000000
00001000
00000010
00010000
,
00001000
00010000
00000100
00001000
00000000
00000100
00010000
00001000
,
00000000
00010000
00001000
01000000
00000000
00010000
01000000
00100000
,
10000000
10000000
01000000
01000000
,
00010000
00010000
00001000
00001000
,
00000100
00000100
00000001
00000001
,
00001000
00001000
00000100
00000100
,
00010000
00000000
00001000
00000000
00010000
00000000
00100000
10000000
,
00000000
00010000
00000000
00100000
00000000
00100000
00001000
00000000
,
00011000
00000000
00100000
00010000
00000000
00100000
00001000
00010000
,
00000000
00001000
00010000
00000010
00000000
00001000
00000001
00000001
,
00000100
00001000
00010000
00100000
,
10000000
00010000
00100000
00100000
,
01000000
00010000
00001000
00000010
,
00000001
00001000
00000010
00000010
,
00000110
00000000
00001000
00000000
00000001
00000000
00000100
00001000
,
00000000
00010000
00000000
00001000
00000000
00001000
00010000
00000000
,
00011000
00000000
00000010
00001000
00000000
00000010
00010000
00001000
,
00000000
00010000
00001000
00100000
00010000
00010000
00100000
00100000
,
00001000
00010000
00000100
00001000
00000000
00000100
00010000
00002000
,
00000000
00013000
00100000
20000000
00000000
30010000
00000000
00000000
,
10010000
11000000
01100000
00110000
,
00001000
00002000
00000000
00013000
00000000
00000000
00001000
00010000
,
00001000
00000010
00000001
00002000
00000000
00003001
00000100
00000020
,
00000000
00000100
00000000
00001030
00000000
00000000
00000001
00000000
,
00001001
00000000
00001000
00000000
00000001
00000100
00000010
00000200
,
00000000
00002300
00000000
00023000
00000000
00001000
00031000
00010000
,
00001000
01000000
00010000
10000000
00000000
00010000
00000000
20020000
,
00000000
00000000
30030000
10000000
,
11000000
00000000
01100000
00000000
,
00110000
00000000
00011000
00011000
,
00010000
00001000
01000000
00010000
00000000
01000000
00001000
00010000
,
00000000
00001000
00010000
00010000
00001000
00000010
00000001
00001000
,
00000010
00000100
00000001
00000000
00001000
00000100
00000010
00000001
,
00000100
00000000
00000000
00001000
00000000
00000000
00020000
00000000
00000000
00000000
00000000
00000000
00031000
00000000
00000000
00000000
,
00010000
00001000
01000000
00010000
01000000
00001000
00010000
00100000
,
00000000
10000000
00010000
20000000
00000000
00000000
00010000
00010000
,
30010000
00000000
10000000
01000000
00100000
01000000
00010000
00002000
,
00000000
00003010
00000100
00002000
00000000
00003001
00001000
00000000
,
00000001
00000100
00000010
00000100
00001000
00010000
00100000
20000000
,
00000000
00000000
00020000
30030000
,
10010000
00010000
10000000
01000000
,
00100000
00100000
00001000
00020000
00000000
00001000
00031000
00000000
,
00010000
00100000
10000000
00020000
00000000
10030000
01000000
00020000
,
00000000
01000000
00000000
00031000
00000000
00000000
00011000
00000000
,
00011000
00000000
00010000
00001000
00000010
00000001
00001000
00000020
,
00000000
00000230
00000000
00002300
00000000
00010000
00013000
00000000
,
00001000
01000000
00010000
01000000
00000000
01100000
00000000
20020000
,
00000000
00000000
00000000
30030000
00000000
10000000
01000000
00010000
,
00000000
01000000
00010000
00001000
00000000
00010000
00001000
00000010
,
00000000
00001000
00000010
00000001
00000000
00001000
00000000
00000001
,
00000000
00000100
00000010
00001000
00000000
00000100
00000010
00000001
,
00000000
00001000
00000001
00000000
00001000
00000001
00000100
00001000
,
00000000
00000100
00001000
00010000
00000000
00001000
00010000
00100000
,
00000000
00010000
00100000
10000000
00000000
00010000
00000000
00100000
,
00000000
01000000
10000000
00010000
00000000
01000000
00010000
10000000
,
01000000
01000000
00100000
00100000
00010000
00010000
10000000
10000000
,
00100000
00010000
00001000
00020000
00000000
00031000
00010000
00001000
,
00000010
00001000
00010000
00002000
00000000
00013000
00000010
00001000
,
00000000
00000010
00010000
00001000
00000000
00010000
00001000
00100000
,
00000000
00001000
00010000
00000000
00001000
00010000
00100000
10000000
,
00010000
00100000
01000000
00200000
00000000
00310000
10000000
00010000
,
10000000
00100000
00010000
00002000
00000000
00013000
00001000
00000000
,
00000000
00010000
00001000
00010000
00000000
00011000
00000000
00000000
,
00001000
00010000
00000100
00001000
00000000
00000100
00010000
00001000
,
00000000
00010000
00001000
01000000
00000000
00010000
10000000
10000000
,
01000000
00100000
01000000
00100000
00001000
00010000
00001000
00010000
,
00000010
00001000
00000010
00001000
00000001
00000100
00000001
00000100
,
00000010
00000000
00000000
00010000
00000000
00000000
00001000
00000000
00012000
00000000
00000000
00000000
00103000
00000000
00000000
00000000
,
00100000
00000000
00000000
00001000
00000000
00000000
00010000
00000000
00021000
00000000
00000000
00000000
00030010
00000000
00000000
00000000
,
00010000
00000000
00000000
00001000
00000000
00000000
00010000
00000000
00001000
00000000
00001000
00000000
00011000
00000000
00000000
00000000
,
00022000
00000000
00000000
00000000
,
00000000
00000000
00000000
00000000
,
00000000
00000000
00000000
00000000
,
00033000
00000000
00000000
00000000
;

//--------------- dance-double - Extraordiberry ----------------
#NOTEDATA:;
#STEPSTYPE:dance-double;
#DESCRIPTION:Extraordiberry;
#DIFFICULTY:Hard;
#METER:15;
#RADARVALUES:0,0,0,0,0;
#CREDIT:Extraordiberry;
#NOTES:
00000000
00000000
00000000
00000000
,
00000000
00000000
00000000
00000000
,
00000000
00000000
00000000
00000000
,
10010000
00000000
00010000
00000000
01000000
00100000
01000000
00100000
00000000
00000000
00010000
00000000
00001000
00010000
00001000
00010000
,
00000000
00000000
00001000
00000000
00000010
00000100
00000010
00000001
00000000
00000001
00001000
00000000
00000010
00000000
00000100
00000000
,
00000001
00000000
00001000
00000000
00000100
00000010
00000100
00000010
00000000
00000000
00001000
00000000
00010000
00001000
00010000
00001000
,
00000000
00000000
00010000
00000000
00100000
01000000
00100000
10000000
00000000
10000000
00010000
00100000
01000000
10000000
00010000
00000000
,
01000000
01000000
01000000
01000000
,
01000000
00000000
00000000
00000000
01000000
00000000
00000000
00000000
01000000
00000000
00001000
00010000
00001000
00000000
00000010
00000000
,
00000100
00000100
00000100
00000100
,
00000100
00000000
00000000
00000000
00000100
00000000
00000000
00000000
00000100
00000000
00010000
00001000
00010000
00001000
00010000
00000000
,
00100000
10000000
01000000
00010000
,
00001000
00000000
00000010
00000001
00000000
00000100
00000110
00000000
,
00001001
00000000
00001000
00000000
00000100
00000010
00000100
00000010
00000000
00000000
00001000
00000000
00010000
00001000
00010000
00001000
,
00000000
00000000
00010000
00000000
00100000
01000000
00100000
10000000
00000000
10000000
00010000
00100000
01000000
10000000
00010000
00000000
,
01000000
00100000
10000000
00100000
01000000
00010000
01000000
00100000
,
10000000
00100000
00010000
00001000
00000100
00000001
00001000
00000100
,
00000010
00000001
00001000
00000010
00000100
00000001
00000100
00000010
,
00001000
00010000
01000000
00010000
00001000
00000010
00000100
00000001
,
00001001
00001000
00000100
00000100
00010000
00010000
01000000
20000000
,
00000000
00000000
30020000
00000000
00000000
00000000
00230000
00000000
00000000
00000000
01300000
00000000
10000000
00010000
10000000
00000000
,
10010000
00000000
00010000
00000000
01000000
00100000
01000000
00100000
00000000
00000000
00010000
00000000
00001000
00010000
00001000
00010000
,
00000000
00000000
00001000
00000000
00000010
00000100
00000010
00000100
00001000
00000000
00001000
00000000
00000001
00000000
00000001
00000000
,
00001001
00000000
00001000
00000000
00000010
00000100
00000010
00000100
00001000
00000000
00010000
00000000
00100000
01000000
00020000
00000000
,
00000000
00230000
00310000
00002000
00003100
00020000
00031000
00000010
,
00000110
00000011
00000101
00001010
,
00011000
00010000
00100000
10000000
00000000
10000000
00100000
01000000
,
00010000
10000000
01000000
00020000
00000000
00031000
00010000
02000000
,
00000000
00000000
23000000
00000000
00000000
00000000
30020000
00000000
00000000
00000000
00130000
00000000
00001000
00010000
00001000
00010000
,
00100000
00000000
10100000
00000000
11000000
01000000
00100000
00110000
,
00000000
00011000
00000000
00002200
00000000
00003300
00000000
00001000
,
00000001
00000100
00001000
00020000
00000000
00230000
00000000
10300000
,
00010000
10000000
00010000
10000000
00000000
00010000
00000000
00010000
10000000
00000000
00000000
00000000
10010000
00000000
00000000
00000000
,
10000000
01000000
00010000
00010000
00000100
00000001
00001000
00001000
,
00000010
00000001
00001000
00001000
00000010
00000100
00000110
00000000
,
00000001
00000000
00000100
00000000
00001000
00010000
00001000
00000000
00010000
00000000
00100000
00000000
10000000
00010000
10000000
00000000
,
01000000
00000000
00010000
00000000
00001000
00000010
00000000
00000001
00000000
00000100
00001000
00000000
00011000
00000000
00011000
00000000
,
00010000
00000000
00001000
00000000
00100000
00000000
00010000
00000000
10000000
00100000
01000000
00000000
01000000
00010000
10000000
00000000
,
00010000
00000000
00000000
00000000
00000000
00000000
10000000
00000000
00000000
01000000
00000000
00000000
00000000
00000000
00000000
01000000
00000000
00000000
00020000
00000000
00000000
00000000
00000000
00000000
00000000
00000000
00000000
00000000
00000000
00000000
00031000
00000000
00010000
00000000
00001000
00000000
00010000
00000000
00000000
00000000
00000000
00000000
00000100
00000000
00000000
00000000
00000000
00000000
,
00001000
00000001
00000100
00000000
00000100
00000000
00000010
00001000
00000000
00001000
00000001
00000000
00000100
00000000
00000100
00000000
,
00000000
00000000
00000001
00001000
00000100
00000010
00000002
00000000
00000000
00000000
00001003
00000001
00000100
00000010
00001000
00000010
,
00010000
00000000
00000000
00000000
00001000
01000000
00010000
00000000
00010000
10000000
01000000
00100000
00010000
00100000
00002000
00000000
,
00000000
00000000
00000000
00000000
00000000
00000000
00013000
00000000
00001000
00000000
00010000
00000000
00001000
00000000
00000000
00000010
00000000
00000000
00000002
00000000
00000000
00000000
00000000
00000000
00000000
00000000
00000000
00000000
00000000
00000000
00001003
00000000
00000000
00000000
00000000
00000000
00000010
00000000
00000000
00000000
00000000
00000000
00000100
00000000
00000000
00000000
00000000
00000000
,
00000001
00001000
00000100
00000000
00000100
00000010
00000001
00000000
00001000
00000010
00001000
00000010
00010000
00001000
00010000
00200000
,
00000000
00000000
00000000
00300000
00000000
00000000
MMMM0000
00000000
MMMM0000
00000000
MMMM0000
00000000
MMMM0000
00000000
00000000
00000000
,
00001001
00000101
00001010
01010000
,
10100000
00000000
10000000
00000000
01000000
00000000
00020000
00000000
00000000
00000000
00031000
00010000
00001000
00100000
00010000
00000000
,
10000000
00100000
00010000
00002000
00000000
00003100
00010000
00002000
,
00000000
00000000
00003020
00000000
00000000
00000000
00020030
00000000
00000000
00000000
00130000
00000000
01100000
00000000
10000000
00010000
,
00000000
00000000
10000000
01000000
00001000
00000100
00000010
00000002
,
00000000
00000000
00000203
00000000
00000000
00000000
00002300
00000000
00000000
00000000
00013000
00001000
00010000
00001000
01000000
00000000
,
00010000
10000000
01000000
01100000
00000000
00110000
00000000
00011000
,
00010000
00001000
00010000
00001000
00000000
00010000
00000000
00010000
00001000
00000000
00000010
00000000
00000001
00000000
00002000
00000000
,
00000000
00003010
00000001
00002000
00000000
00003100
00000001
00002000
,
00000000
00003100
00000001
00002000
00000000
00013000
00000000
01100000
,
00000000
00010000
01000000
01100000
00000000
10000000
01000000
01200000
,
00000000
00010000
00310000
00000000
10000000
00100000
00010000
00002000
,
00000000
00103000
00010000
00002000
00000000
01003000
00010000
00002000
,
00000000
01003000
00010000
00002000
00000000
00003100
00001000
00000001
,
00001000
00000010
00001000
00010000
01000000
00010000
10000000
00010000
,
00100000
00000000
00100000
00000000
00010000
00000000
00010000
00000000
00001000
00000100
00001000
00000100
00000010
00000001
00000010
00000001
,
00001000
00000000
00000100
00000000
00000010
00000001
00000010
00000001
00001000
00000000
00000001
00000000
00000100
00000010
00000100
00000010
,
00001000
00000000
00000001
00000000
00000100
00000010
00000100
00000010
00001000
00000000
00000001
00000000
00000010
00000000
00002000
00000000
,
00013000
00000020
00001030
00020000
01030000
00002000
00013000
02000000
,
13000000
00010000
10010000
00000000
10000000
01000000
00010000
MMMM1000
,
MMMM0010
00000001
MMMM0010
00000000
00001000
00000000
0001MMMM
00000000
0100MMMM
10000000
0100MMMM
00000000
00010000
00000000
MMMM1000
00000000
,
MMMM0100
00000001
MMMM0100
00000000
00001000
00000000
0001MMMM
00000000
0010MMMM
10000000
0010MMMM
00000000
10000000
00000000
11000000
00000000
,
00000000
01000000
00010000
00011000
00000000
00000220
00000000
00000330
,
00001000
00000000
00000001
00000000
00000010
00000100
00000010
00001000
00000000
00001000
00010000
00000000
00001000
00010000
00001000
01000000
,
00000000
01000000
00100000
00000000
10000000
00100000
10000000
00010000
00000000
00010000
10000000
01000000
00100000
00010000
10000000
00000000
,
00010000
01000000
00100000
00000000
00100000
10000000
00010000
00000000
00010000
00100000
00001000
00000000
00001000
00010000
00000100
00000000
,
00001000
00000100
00001000
00000100
00000010
00000001
00000010
00000001
00001000
00000010
00000100
00000010
00001000
00000001
00001000
00000000
,
00000100
00000010
00000100
00000010
00000000
00000100
00000000
00000100
00000010
00000000
00000000
00000000
00000110
00000000
00000000
00000000
,
00001000
00010000
00001000
00010000
00000000
00001000
00000000
00001000
00010000
00000000
MMMMMMMM
00000000
MMMMMMMM
00000000
MMMMMMMM
00000000
,
01000000
00100000
01000000
00100000
00000000
01000000
00000000
01000000
00100000
00000000
01000000
00000000
01100000
00000000
00000000
00000000
,
20020000
00000000
00000000
00000000
,
00000000
00000000
00000000
00000000
,
00000000
00000000
00000000
00000000
,
30030000
00000000
00000000
00000000
;
