#VERSION:0.83;
#TITLE:Oracle;
#SUBTITLE:;
#ARTIST:DJ Noriken;
#TITLETRANSLIT:;
#SUBTITLETRANSLIT:;
#ARTISTTRANSLIT:;
#GENRE:Hardcore;
#CREDIT:;
#MUSIC:Oracle.ogg;
#BANNER:Oracle.png;
#BACKGROUND:Oracle-bg.png;
#CDTITLE:;
#SAMPLESTART:105.366;
#SAMPLELENGTH:18.732;
#SELECTABLE:YES;
#OFFSET:-2.341;
#BPMS:0.000=102.500
,14.000=205.000
,77.000=102.500
,109.000=205.000
,223.000=102.500
,237.000=205.000
;
#STOPS:14.000=0.293
,125.000=0.585
,237.000=0.293
,284.000=0.585
,362.000=0.585
;
#SPEEDS:0.000=1.000=0.000=0;
#SCROLLS:0.000=1.000;
#TICKCOUNTS:0.000=4;
#TIMESIGNATURES:0.000=4=4;
#LABELS:0.000=Song Start;
#COMBOS:0.000=1;
#DISPLAYBPM:103.000:205.000;
#ORIGIN:;
#PREVIEWVID:;
#JACKET:Oracle-jacket.png;
#CDIMAGE:;
#DISCIMAGE:;
#BGCHANGES:;
#FGCHANGES:;

//--------------- dance-single - ----------------
#NOTEDATA:;
#STEPSTYPE:dance-single;
#DESCRIPTION:;
#DIFFICULTY:Beginner;
#METER:4;
#RADARVALUES:0.181948,0.2471,0.129651,0.305062,0,167,150,17,40,0,0,0,0,0,0.181948,0.2471,0.129651,0.305062,0,167,150,17,40,0,0,0,0,0;
#OFFSET:-2.341;
#BPMS:0.000=205.000;
#SPEEDS:0.000=1.000=0.000=0;
#SCROLLS:0.000=1.000;
#TICKCOUNTS:0.000=4;
#TIMESIGNATURES:0.000=4=4;
#LABELS:0.000=Song Start;
#COMBOS:0.000=1;
#DISPLAYBPM:103.000:205.000;
#CHARTNAME:;
#CHARTSTYLE:;
#CREDIT:;
#NOTES:
0000
0000
0000
0000
,
0000
0000
0000
0000
,
0000
0000
0000
0000
,
0000
0000
0000
0000
,
2000
0000
3000
0000
,
0020
0000
0030
0000
,
0200
0000
0300
0000
,
0002
0000
0003
0000
,
2002
0000
3003
0000
,
0001
0000
0010
0000
,
2002
0000
3003
0000
,
1000
0000
0010
0000
,
1001
0000
0000
0000
,
1001
0000
0000
0000
,
0100
0000
0010
0000
,
0200
0000
0300
0000
,
2000
0000
0000
3000
0000
0000
0000
0000
,
0200
0000
0000
0300
0000
0000
0000
0000
,
0020
0000
0000
0030
0000
0000
0000
0000
,
0002
0000
0000
0003
0000
0000
0000
0000
,
1000
0000
1000
0000
,
0001
0000
0001
0000
,
1000
0000
0010
0000
,
0200
0000
0300
0000
,
0001
0000
0000
0000
,
0001
0000
0000
0000
,
0010
0000
0100
0000
,
0010
0000
0100
0000
,
1000
0000
0000
0000
,
1000
0000
0000
0000
,
0010
0000
0100
0000
,
0001
0000
1000
0000
,
1001
0000
0000
0000
,
0110
0000
0000
0000
,
0001
0000
1000
0000
,
0001
0000
0010
0000
,
0000
0000
0110
0000
,
0000
0000
1000
0000
,
0010
0000
0100
0000
,
0002
0000
0003
0000
,
2000
0000
0000
3000
0000
0000
0000
0000
,
0002
0000
0000
0003
0000
0000
0000
0000
,
1000
0000
0001
0000
,
1001
0000
0000
0000
,
0001
0000
0010
0000
,
0001
0000
0010
0000
,
0100
0000
1000
0000
,
0001
0000
0100
0000
,
0010
0000
0010
0000
,
0100
0000
0100
0000
,
0001
0000
1000
0000
,
0100
0000
0000
0000
,
1000
0000
0010
0000
,
1000
0000
0010
0000
,
0100
0000
0001
0000
,
1000
0000
0100
0000
,
0010
0000
0010
0000
,
0100
0000
0100
0000
,
1000
0000
0001
0000
,
0200
0000
0300
0000
,
0220
0000
0000
0000
,
0000
0000
0330
0000
,
2002
0000
0000
0000
,
3003
0000
1001
0000
,
0001
0000
1000
0000
,
0001
0000
1000
0000
,
0100
0000
0100
0000
,
1001
0000
0000
0000
,
2000
0000
3000
0000
,
0020
0000
0030
0000
,
0200
0000
0300
0000
,
0002
0000
0003
0000
,
0002
0000
0003
0000
,
0020
0000
0030
0000
,
0200
0000
0300
0000
,
2000
0000
3000
0000
,
0001
0000
0000
0000
,
0100
0000
0000
0000
,
0010
0000
0000
0000
,
1000
0000
0000
0000
,
0001
0000
0001
0000
,
0010
0000
0010
0000
,
0100
0000
1000
0000
,
0002
0000
0003
0000
,
2000
0000
3000
0000
,
0020
0000
0030
0000
,
0200
0000
0300
0000
,
0110
0000
0000
0000
,
0001
0000
0010
0000
,
0100
0000
0100
0000
,
0010
0000
0001
0000
,
1000
0000
1000
0000
,
0010
0000
0010
0000
,
0100
0000
0100
0000
,
0010
0000
0100
0000
,
0001
0000
0000
0000
,
1000
0000
0010
0000
,
0100
0000
0100
0000
,
0010
0000
1000
0000
,
0001
0000
0001
0000
,
0020
0000
0000
0030
0000
0000
0000
0000
,
0200
0000
0000
0300
0000
0000
0000
0000
,
0010
0000
0001
0000
,
2002
0000
3003
0000
,
0220
0000
0000
0000
,
0000
0000
0330
0000
,
0100
0000
0100
0000
,
1001
0000
0000
0000
,
1001
0000
0000
0000
;

//--------------- dance-single - ----------------
#NOTEDATA:;
#STEPSTYPE:dance-single;
#DESCRIPTION:;
#DIFFICULTY:Easy;
#METER:8;
#RADARVALUES:0.305062,0.485811,0.183037,0.411833,0.007627,280,256,24,54,0,0,0,0,0,0.305062,0.485811,0.183037,0.411833,0.007627,280,256,24,54,0,0,0,0,0;
#OFFSET:-2.341;
#BPMS:0.000=102.500
,14.000=205.000
,77.000=102.500
,109.000=205.000
,223.000=102.500
,237.000=205.000
;
#STOPS:14.000=0.293
,125.000=0.585
,237.000=0.293
,284.000=0.585
,362.000=0.585
;
#SPEEDS:0.000=1.000=0.000=0;
#SCROLLS:0.000=1.000;
#TICKCOUNTS:0.000=4;
#TIMESIGNATURES:0.000=4=4;
#LABELS:0.000=Song Start;
#COMBOS:0.000=1;
#DISPLAYBPM:103.000:205.000;
#CHARTNAME:;
#CHARTSTYLE:;
#CREDIT:;
#NOTES:
0000
0000
0000
0000
,
0000
0000
0000
0000
,
2000
3000
0020
2030
,
3200
0320
0032
0003
,
0000
2002
0000
3003
,
1000
1010
0000
0100
,
0010
2002
0000
3003
,
0001
0011
0000
0100
,
0010
0000
1001
0000
0000
0001
0000
0000
,
0000
0000
1001
0000
0000
1000
0000
0000
,
0000
1001
0000
0100
,
0010
0220
0000
0000
,
0330
0000
1000
0000
0000
1000
0000
0000
,
0000
0000
0100
0000
0000
0100
0000
0000
,
0000
0000
0010
0000
0000
0010
0000
0000
,
0000
0000
0001
0000
0000
0001
0000
0000
,
0000
1000
0001
0100
,
0000
0001
1000
0100
,
0000
0010
0100
0010
,
0100
0000
0020
0000
0000
0030
1001
0000
,
0001
0000
0100
0000
0010
0000
1000
1000
,
1000
0000
0001
0001
0001
0000
1001
0000
,
0001
0000
0000
0000
0010
0000
0000
0000
0100
0000
0010
0000
0001
0000
0000
0001
,
0000
0001
0200
0000
0310
1000
1001
0000
,
1000
0000
0100
0000
0020
0000
0031
0001
,
1000
0000
1000
1000
0001
0000
0100
0000
,
0110
0000
0000
0000
0010
0000
1000
0000
0100
0000
0000
0000
0010
0000
0000
0010
,
0000
0010
0002
0000
0000
0000
0000
0000
,
0003
0000
1000
0000
0000
0010
0000
0000
,
0000
0000
0001
0000
0000
0010
0000
0000
,
0000
0000
1000
0000
0000
0001
0000
0000
,
1000
1001
0000
0001
,
0010
0100
0000
0010
,
0100
1000
0000
0100
,
1000
0010
0000
1000
,
0010
0001
0010
1000
,
0000
0010
1000
0100
,
0000
1000
0100
0001
,
0100
1000
0000
0110
,
0000
1001
0000
1000
,
0010
0100
0000
0010
,
0100
0001
0000
0100
,
0001
0010
0000
0001
,
0010
1000
0010
0001
,
0000
0010
0001
0100
,
0000
0001
0100
1000
,
0000
1000
0100
0002
,
0000
0000
0003
2000
,
3000
0002
0000
0003
2000
0000
3000
0002
,
0000
0003
0020
0000
0030
0000
0002
0000
,
0003
2000
0000
3000
0002
0000
1003
0000
,
0000
0020
0030
1000
,
0000
2000
3001
0000
0000
0002
1003
0000
,
0000
2000
3001
0000
0000
0000
1000
0000
,
0001
0000
0100
0000
0000
0020
1030
0000
,
0000
0000
0001
0002
,
0003
0020
0030
0200
,
0300
2000
3000
0002
,
0003
0020
0032
0203
,
0320
2030
3001
1000
,
0001
0000
0001
0000
,
0010
0000
0010
0000
,
0100
0000
0100
0000
,
1000
0001
1000
0000
,
0010
0010
0100
0000
,
0100
0100
0010
0000
,
1000
0010
0100
0001
,
2000
0000
0000
3000
,
0002
0000
0003
0000
,
0020
0000
0032
0000
,
0203
0000
0320
0000
,
1030
0000
0001
0010
,
1000
0010
0001
0000
,
0011
0000
0001
0100
,
1000
0100
0001
0000
,
0101
0000
1000
0010
,
0100
0000
0001
0010
,
0100
0000
1000
0001
,
0001
1000
1001
0000
,
0001
0001
1000
0010
,
0001
0010
1000
0000
,
1010
0000
1000
0100
,
0001
0100
1000
0000
,
1100
0000
0000
0000
0001
0000
0000
0100
,
0000
0000
0010
0000
1000
0000
0000
0100
,
0000
0010
0011
0000
,
1100
0000
2002
0000
,
0000
0000
3003
0000
0002
0000
0003
0200
,
0000
0300
0020
0000
0030
2000
0000
3000
,
0002
0003
0001
1000
,
0100
0000
0000
0020
0031
0000
0000
0000
,
1001
0000
0000
0000
;

//--------------- dance-single - ----------------
#NOTEDATA:;
#STEPSTYPE:dance-single;
#DESCRIPTION:;
#DIFFICULTY:Medium;
#METER:10;
#RADARVALUES:0.435802,0.624614,0.39658,0.465219,0.038133,400,348,52,61,0,0,0,0,0,0.435802,0.624614,0.39658,0.465219,0.038133,400,348,52,61,0,0,0,0,0;
#OFFSET:-2.341;
#BPMS:0.000=102.500
,14.000=205.000
,77.000=102.500
,109.000=205.000
,223.000=102.500
,237.000=205.000
;
#STOPS:14.000=0.293
,125.000=0.585
,237.000=0.293
,284.000=0.585
,362.000=0.585
;
#SPEEDS:0.000=1.000=0.000=0;
#SCROLLS:0.000=1.000;
#TICKCOUNTS:0.000=4;
#TIMESIGNATURES:0.000=4=4;
#LABELS:0.000=Song Start;
#COMBOS:0.000=1;
#DISPLAYBPM:103.000:205.000;
#CHARTNAME:;
#CHARTSTYLE:;
#CREDIT:;
#NOTES:
0000
0000
0000
0000
,
0000
0000
0000
0000
0000
0000
0000
1000
,
0200
0000
0000
0310
0002
0000
2003
0000
,
3020
0000
0130
0002
2000
0000
0003
0000
,
3000
0000
1001
0000
0000
0001
0000
0000
,
0010
0022
0033
0010
,
0001
0000
1001
0000
0000
1000
0000
0000
,
0010
2020
3030
0010
,
1000
0000
1001
0000
0000
0010
0000
0000
,
0001
0000
1001
0000
0000
0010
0000
0000
,
1000
0000
1001
0000
0000
1001
0000
0000
,
0001
1000
0200
0000
0000
0000
0000
0000
,
0300
0000
1100
0000
0000
1100
0000
0000
,
0001
0000
0101
0000
0000
0101
0000
0000
,
1000
0000
1010
0000
0000
1010
0000
0000
,
0001
0000
0011
0000
0000
0011
0000
0000
,
1000
0001
0100
0010
,
1000
0001
0010
0100
,
1000
0001
0001
1000
,
1000
0000
0020
0000
0000
0030
1001
1000
,
0100
0000
0000
0010
0000
0000
0100
0000
0000
1000
0000
0000
0001
0000
0001
0000
,
0100
0100
0001
0100
0010
1000
1001
0001
,
0010
0000
0000
0100
0000
0000
1000
0000
0000
0001
0100
0000
0020
0000
0030
2000
,
0000
3000
0020
0000
2030
0000
0000
0000
3100
0010
0001
0000
1001
0000
0001
0000
,
0100
0000
0000
0010
0000
0000
0100
0000
0200
0000
0302
0000
1003
0000
1000
0000
,
0100
0100
1000
0100
0020
0032
0103
0000
,
0110
0000
0000
1000
0000
0000
0010
0000
0000
1000
0100
0000
0020
0000
0030
0002
,
0000
0003
0020
0000
0032
0000
0000
0000
0000
0000
0000
0000
1000
0000
0000
0000
,
1003
0000
1001
0000
0000
0101
0000
0000
,
1000
0000
1001
0000
0000
1100
0000
0000
,
0001
0000
1000
0000
0001
0100
0010
0000
,
0100
2002
3003
0001
,
0010
0000
0100
0000
1000
0001
1000
0000
,
0010
0000
0100
0000
0001
1000
0100
0000
,
0010
0000
0100
0000
1000
0010
0100
0000
,
0001
0000
1000
0001
1000
0001
1000
0000
,
0001
0010
0100
0000
0010
0000
0010
0000
,
0100
1000
0010
0000
1000
0000
1010
0000
,
0101
0000
1000
0100
1000
0100
0020
0000
,
0030
0001
0001
1000
,
0010
0000
0100
0000
0001
1000
0001
0000
,
0010
0000
0100
0000
1000
0001
0100
0000
,
0010
0000
0100
0000
0001
0010
0100
0000
,
1000
0000
0001
1000
0001
1000
0001
0000
,
1000
0010
0100
0000
0010
0000
0100
0001
,
0010
0100
1000
1001
,
0000
1010
0110
0202
,
0000
0000
0303
2000
,
3000
0200
0000
0300
2000
0000
3000
0200
,
0000
0300
0010
0001
1000
0000
0002
0000
,
0003
0200
0000
0300
0002
0000
0103
0000
,
0100
0000
0010
1000
0001
0000
1001
0000
,
0000
0001
0001
0000
0000
1000
1000
0000
,
0000
0001
0001
0000
1000
0000
1010
0000
,
0001
0011
1000
2002
,
0000
0000
3003
0000
1000
0001
2000
0000
,
0000
3010
0200
0000
0000
0301
2000
0000
,
0000
3100
0020
0000
0000
0031
0200
0000
,
0000
0310
2000
0000
3002
0000
0023
0000
,
0130
1000
0002
0000
1000
0000
1000
0000
,
1003
0000
1000
0010
,
0100
0000
0010
0100
,
0001
0000
0100
0001
,
0010
0100
1000
0000
,
0001
0001
0001
0100
,
0010
0010
0010
1000
,
0100
1000
0010
1000
,
0200
0000
0000
0300
,
2000
0000
0000
3001
,
0200
0000
0320
0000
,
2030
0000
3100
0010
,
0001
0000
0000
0000
1000
0000
0000
1000
,
0000
0010
2000
0010
,
3100
0000
0010
0000
0001
0000
0000
0001
,
0000
0010
0002
0010
,
0103
0000
0010
0000
1000
0000
0000
1010
,
0000
0000
0001
0000
0001
0000
0000
0011
,
0000
0000
1000
0000
1000
0000
0010
0100
,
0001
0000
1000
0000
1001
0000
1000
0100
,
0010
0000
0001
0000
0011
0000
0000
0010
,
0000
0001
0200
0001
,
0310
0000
1000
0000
1010
0000
0000
0010
,
0000
1000
0200
1000
,
0310
0000
0001
0000
0011
0000
0000
1100
,
0000
0000
1001
0000
1010
0000
0000
0101
,
0000
1001
1001
0000
,
1001
0000
1000
0100
0020
0000
0000
0000
,
0000
0000
0030
0000
0002
0000
0003
0200
,
0000
0300
0020
0000
0030
2000
0000
3000
,
0100
0010
0001
0000
0011
0000
1000
0000
,
1010
0001
0011
0000
,
1001
0000
0000
0000
;

//--------------- dance-single - ----------------
#NOTEDATA:;
#STEPSTYPE:dance-single;
#DESCRIPTION:;
#DIFFICULTY:Hard;
#METER:14;
#RADARVALUES:0.663509,0.832819,0.404207,0.549111,0.18685,609,556,53,72,0,0,0,0,0,0.663509,0.832819,0.404207,0.549111,0.18685,609,556,53,72,0,0,0,0,0;
#OFFSET:-2.341;
#BPMS:0.000=102.500
,14.000=205.000
,77.000=102.500
,109.000=205.000
,223.000=102.500
,237.000=205.000
;
#STOPS:14.000=0.293
,125.000=0.585
,237.000=0.293
,284.000=0.585
,362.000=0.585
;
#SPEEDS:0.000=1.000=0.000=0;
#SCROLLS:0.000=1.000;
#TICKCOUNTS:0.000=4;
#TIMESIGNATURES:0.000=4=4;
#LABELS:0.000=Song Start;
#COMBOS:0.000=1;
#DISPLAYBPM:103.000:205.000;
#CHARTNAME:;
#CHARTSTYLE:;
#CREDIT:;
#NOTES:
0000
0000
0000
0000
,
0000
0000
0000
0000
0000
0000
0000
1000
,
0200
0000
0000
0000
0300
1000
0001
1000
0020
0000
0000
0000
2030
0000
0000
0000
,
3200
0000
0000
0310
0100
1000
0001
0000
1001
0000
0000
0000
0001
0000
0100
0000
,
0010
0000
1010
0000
0000
1000
0000
1000
,
0010
1000
0200
0000
0000
0000
0310
0000
,
0100
0010
0011
0000
0000
0001
0000
0001
,
0010
0001
0200
0000
0000
0000
0310
0000
,
0100
0010
2010
0000
0000
0001
0000
0000
,
3100
0000
0012
0000
0000
1000
0000
0000
,
0103
0010
1010
0000
0001
0011
0000
1000
,
0010
1000
0200
0000
0000
0000
0000
0000
,
0300
0000
0110
0000
0001
0010
0000
1000
,
0010
0000
0011
0000
0001
0100
0010
0100
,
0001
0000
0110
0000
1000
0010
0000
0001
,
0010
0000
1010
0000
1000
0100
0010
0000
,
0010
0000
0011
0000
1000
0001
0010
0001
,
0100
0000
1010
0000
0001
1000
0010
1000
,
0100
0000
0010
0100
0010
0100
1000
0001
,
0100
0010
2000
0000
0000
3001
1001
0001
,
0200
0000
0000
1000
0000
0000
0301
0000
1000
0001
1000
0000
0001
0010
0100
0000
,
0010
0100
1000
0000
0100
1000
0010
0100
0001
0000
0110
0000
1001
0000
0001
0000
,
0020
0000
0000
1000
0000
0000
0031
0000
1000
0001
0100
0010
2000
0000
3010
0002
,
0000
0013
0100
0010
2000
0000
0000
0000
3010
0100
0001
0000
1001
0000
1000
0000
,
0200
0000
0000
0001
0000
0000
1300
0000
1001
0000
1001
0000
1000
0010
0100
0000
,
0010
0000
0000
0100
0000
0000
0001
0000
0000
0000
0000
0000
0100
0000
0000
0001
0000
0000
0010
0000
0000
0100
0000
0000
2000
0000
0000
0000
0000
0000
3002
0000
0000
0000
0000
0000
1003
0000
0000
0000
0010
0000
0000
0000
1000
0000
0000
0000
,
0020
0000
0000
0001
0000
0000
1030
0000
0001
1000
0100
0010
0002
0000
0013
2000
,
0000
3010
0100
0010
0002
0000
0000
0000
0000
0000
0000
0000
1000
0000
0000
0000
,
1003
0000
1010
0000
0001
0100
0001
0010
,
0100
0000
0011
0000
1000
0100
1000
0010
,
0100
0000
1001
0000
0001
0010
0100
1000
,
0010
0100
0002
0000
1003
0100
0010
0100
,
1000
0000
1000
0010
1000
0010
0100
0001
,
0010
0000
0010
0100
0010
0100
1000
0001
,
0100
0000
0100
0010
1000
0001
0010
0100
,
1000
0000
0001
0100
0010
0100
1000
0000
,
0100
0001
0010
0000
0001
0010
0100
0010
,
1000
0010
0100
0010
0001
1000
0010
0100
,
0001
0000
2000
0100
3002
0010
1003
0000
,
1001
0000
0001
0100
0001
0100
0010
0100
,
0001
0000
0001
0010
0001
0010
0100
1000
,
0010
0000
0010
0100
0010
0100
0001
1000
,
0100
0000
0100
0010
0001
1000
0010
0100
,
0001
0000
1000
0100
0010
0100
0001
0000
,
0100
1000
0010
0000
1000
0010
0001
0010
,
1000
0100
0001
0100
0010
0100
1000
1001
,
0000
0001
0002
0100
2003
0010
0002
0000
,
0000
0000
0000
0000
3003
0000
0002
0010
,
0013
0002
0100
0103
0002
0010
0013
0002
,
0100
0103
0001
1000
1001
0000
2000
0010
,
3010
0000
0000
2000
0000
0000
0100
0000
0000
3100
0000
0000
2000
0000
0000
0010
0000
0000
3010
0000
0000
0000
1000
0000
,
0000
0000
0100
0000
0000
0000
1000
0000
0000
0001
0000
0000
1001
0000
0000
0000
0000
0000
1000
0000
0000
0000
1010
0000
,
0000
0000
0000
0001
0000
0000
0001
0000
0000
0000
0011
0000
0000
0000
0000
1000
0000
0000
1000
0000
0000
0000
1010
0000
,
0000
0000
0000
0001
0000
0000
0010
0000
0000
0100
0000
0000
1000
0000
0000
0000
0000
0000
1100
0000
0000
0000
0010
0000
,
0000
0000
0000
0000
0001
0000
0000
0000
0000
0000
0000
0000
0101
0000
0000
0000
0000
0000
0000
0000
0000
0010
0000
0000
0000
0000
0000
0000
0000
0000
1000
0000
0000
0000
0000
0000
2002
0000
0000
0000
0000
0000
0000
0000
0000
0000
0000
0000
,
0000
0000
3003
1000
0010
1000
0200
0000
,
0300
1000
0100
0010
0002
0000
0000
0000
0003
0000
0001
0000
0200
0000
0000
0000
,
0300
0001
0100
0010
2000
0000
0000
0000
3000
0000
0001
0000
0200
0000
0000
0000
,
0300
0001
1000
0001
0020
0000
0000
0000
0032
0000
0000
0000
0203
0000
0000
0310
,
0100
0001
1000
0000
0002
0000
0000
0000
1000
0000
0000
0000
1003
0000
0000
0000
,
1001
0000
0001
0000
0010
0000
0100
0010
,
0001
0000
1000
0000
0010
0000
0100
0010
,
1000
0000
0001
0000
0010
0000
0100
1000
,
0001
0000
1000
0010
0100
0001
1000
0000
,
1001
0000
0001
0010
1000
0010
0100
0000
,
0011
0000
1000
0010
0001
0010
0100
0000
,
1010
0000
1000
0010
1000
0100
0001
0000
,
0220
0000
0000
0330
,
2000
0100
0100
3001
,
0002
0010
2003
0010
,
3002
0000
0100
0000
1003
0001
1000
0001
,
1000
0000
1001
0000
1000
0010
0010
1000
,
0010
1000
0100
1000
0020
0230
0302
0003
,
0101
0000
0001
1000
0001
0010
0010
0001
,
0010
0001
0100
0001
0020
0230
2300
3000
,
1100
0000
1000
0001
1000
0010
0100
1000
,
0100
0010
1000
1000
0001
0010
0100
0001
,
0100
0010
0001
0010
0011
0000
1000
0010
,
1010
0000
0001
0000
0011
0000
1000
0010
,
0100
0001
1000
0100
0010
0001
0001
0010
,
0001
0010
1000
0010
0002
0203
2300
3000
,
0100
0100
0010
0100
0010
1000
1000
0010
,
1000
0010
0001
0010
2000
3200
0302
0003
,
0100
0100
0010
0100
2000
0000
3010
1010
,
0000
1000
0010
0100
0002
0000
0013
0011
,
0000
0100
0010
0100
1001
0000
0010
0000
,
1001
0000
0100
0010
2002
0000
0000
0000
,
0000
0000
3003
0000
2000
0010
3010
2000
,
0100
0100
3002
0010
0013
0002
0100
0100
,
1003
0000
0000
0001
0000
0000
1001
0000
0000
0000
0000
0000
0011
0000
0000
0000
0100
0000
0000
0000
1000
0000
0000
0000
,
1010
0000
0000
0100
0000
0000
0001
0000
1001
0000
0000
0000
0010
0000
0000
0000
,
1001
0000
0000
0000
;

//--------------- dance-single - ----------------
#NOTEDATA:;
#STEPSTYPE:dance-single;
#DESCRIPTION:;
#DIFFICULTY:Challenge;
#METER:16;
#RADARVALUES:0.825846,1.179826,0.427086,0.44234,0.621563,758,702,56,58,0,0,0,0,0,0.825846,1.179826,0.427086,0.44234,0.621563,758,702,56,58,0,0,0,0,0;
#OFFSET:-2.341;
#BPMS:0.000=102.500
,14.000=205.000
,77.000=102.500
,109.000=205.000
,223.000=102.500
,237.000=205.000
;
#STOPS:14.000=0.293
,125.000=0.585
,237.000=0.293
,284.000=0.585
,362.000=0.585
;
#SPEEDS:0.000=1.000=0.000=0;
#SCROLLS:0.000=1.000;
#TICKCOUNTS:0.000=4;
#TIMESIGNATURES:0.000=4=4;
#LABELS:0.000=Song Start;
#COMBOS:0.000=1;
#DISPLAYBPM:103.000:205.000;
#CHARTNAME:;
#CHARTSTYLE:;
#CREDIT:;
#NOTES:
0000
0000
0000
0000
,
0000
0000
0000
0000
0000
0000
0000
1000
,
0200
0000
0000
0000
0300
0100
1000
0001
0200
0000
0000
0000
0320
0000
0000
0000
,
2030
0000
0000
3100
0010
0001
0010
0001
2000
0000
0000
0000
3001
0000
0100
0000
,
0010
0000
1010
0000
0000
1000
0000
1000
,
0010
0000
1000
0000
0200
0000
0000
0000
0000
0000
0310
0100
0010
0000
0000
0000
,
0100
0010
0011
0000
0000
0001
0000
0001
,
0010
0001
0200
0000
0000
0310
0110
0000
,
0001
0000
1000
0001
1000
0000
0000
0000
0000
0000
1100
0000
0000
0000
0000
0000
,
0011
0000
0101
0000
0000
1010
0000
0000
,
0001
1000
0001
1000
0001
0000
0000
0000
1000
0000
1001
0000
0000
0000
0100
0000
,
0010
0100
2002
0000
0000
0000
0000
0000
,
3003
0000
2001
0000
3100
0002
0000
0103
,
0010
0000
0100
0000
2000
0000
0000
0000
3010
0000
0100
0000
0001
0100
0001
0000
,
1000
0100
1000
0000
0002
0000
0000
0000
0103
0000
2000
0000
0000
0000
3100
0000
,
0010
0100
0002
0000
0013
0100
0010
0000
,
0010
0100
0010
0100
0010
0000
0001
0000
1000
0000
0001
0000
0100
0000
0010
0000
,
1000
0010
1000
0000
0010
0000
1000
0000
0001
0000
1000
0000
0100
0000
0010
0000
,
0001
0010
0001
0000
1000
0000
0010
0000
0100
0000
0001
0000
0010
0000
0100
0000
,
1000
0001
1000
0001
2000
0000
0000
0000
0000
0000
3001
0000
1001
0000
0001
0100
,
0001
0000
1000
0100
0000
2000
0010
0000
3002
0010
0010
0000
1003
0010
0001
0000
,
1000
0100
0001
0000
1000
0010
0100
0001
1000
0000
0110
0000
1001
0000
1000
0100
,
1000
0000
0001
0100
0000
0002
0010
0000
2003
0010
3010
0100
0002
0000
1003
0200
,
0000
0310
0100
0010
0002
0000
0000
0000
0103
0010
0100
0010
1001
0000
1000
0100
,
0010
0000
0000
0001
0000
0000
0100
0000
0000
0010
0000
0000
1000
0000
0000
0010
0000
0000
1000
0000
0000
0000
0000
0000
0001
0000
0010
0000
0100
0000
1000
0000
0010
0000
0100
0000
0001
0000
0000
0010
0000
0000
1000
0000
0000
0000
0000
0000
,
0001
0000
0000
0100
0000
0000
1000
0000
0000
0000
0000
0000
0001
0000
0000
0010
0000
0000
0100
0000
0000
1000
0000
0000
0001
0000
0100
0000
0001
0000
0100
0000
0010
0000
1000
0000
0001
0000
0000
0000
1000
0000
0000
0000
1000
0000
0000
0000
,
1001
0000
1000
0100
0000
2000
0010
0000
3002
0010
0013
0100
2000
0000
3001
0200
,
0000
0310
0100
0010
2000
0000
0000
0000
0000
0000
0000
0000
0001
0000
0000
0000
,
3001
0000
2001
0000
3100
0001
0100
0010
,
0100
1000
1002
0000
0103
1000
0100
0010
,
0100
0000
0001
1000
0100
0000
0010
0000
0100
0000
0010
0000
0001
0000
0100
0000
,
0010
1000
0010
1000
0001
0000
0000
0000
0001
0100
0010
1000
0001
0000
0010
0000
,
0100
0000
0010
0000
0001
0000
1000
0001
1000
0000
0001
0000
0100
0000
0010
0000
,
0100
0000
0001
0000
1000
0000
0001
1000
0001
0000
0010
0000
0100
0000
1000
0000
,
0001
0000
0100
0000
0010
0000
1000
0010
1000
0000
0100
0000
0010
0000
0001
0000
,
0100
0000
0000
0000
0010
0000
0000
0000
1000
0000
0000
0000
0020
0030
0000
0000
0020
0030
0000
0000
0001
0000
0000
0000
1001
0000
0000
0000
0000
0000
0000
0000
,
1000
0000
0010
0000
0100
0000
0001
1000
0001
0000
1000
0000
0100
0000
0010
0000
,
1000
0000
0010
0000
0100
0000
1000
0001
1000
0000
0010
0000
1010
0000
0000
0000
,
0010
0000
0000
0000
1000
0000
0001
0000
1000
0000
0000
0000
0200
0300
0000
0000
0200
0300
0000
0000
0001
0000
0000
0000
0011
0000
0000
0000
0000
0000
0000
0000
,
1100
0000
0000
0000
0001
0000
1000
0010
0100
0001
0100
0001
1000
0000
0010
0000
,
0100
0000
0010
0000
1000
0000
0001
1000
0001
0000
1000
0000
0100
0000
0010
0000
,
0100
0000
1000
0000
0001
0000
1000
0001
1000
0000
0010
0000
0100
0000
0001
0000
,
1000
0000
0100
0000
0010
0000
0001
0010
0001
0000
0100
0000
0010
0000
1000
0000
,
0100
0000
0000
0000
0010
0000
0000
0000
0001
0000
0000
0000
0020
0030
0000
0000
0020
0030
0000
0000
1000
0000
0000
0000
1001
0000
0000
0000
0000
0000
0000
0000
,
0001
0000
0010
0000
0100
0000
1000
0001
1000
0000
0010
0000
0001
0000
0010
0000
,
1000
0000
0001
0000
1000
0001
1000
0001
1000
0000
0100
0000
0010
0000
0110
0000
,
0000
0000
0001
1000
0001
0000
0100
0000
0010
0000
0100
0000
0220
0000
0000
0000
,
0000
0000
0000
0000
0000
0000
0000
0000
0330
0000
0000
0000
1000
0001
1000
0001
,
1000
0000
0001
1000
0001
1000
0001
0000
1000
0001
1000
0001
1000
0000
0001
1000
,
0001
1000
0001
0000
1000
0100
0010
0001
1000
0000
0000
0000
0001
0100
0001
0100
,
0001
0000
0000
0000
0000
0000
1000
0000
0000
0100
0000
0000
1000
0000
0000
0100
0000
0000
1000
0000
0000
0000
0000
0000
0001
0000
0000
0100
0000
0000
0001
0000
0000
0100
0000
0000
0001
0000
0000
0000
0000
0000
0000
0000
1100
0000
0000
0000
,
0000
0000
0000
0000
0101
0000
0000
0000
0000
0000
0000
0000
0001
0000
0000
0100
0000
0000
0010
0000
0000
1000
0000
0000
0001
0000
0000
0000
0000
0000
0000
0000
0000
0000
0000
0000
0011
0000
0000
0000
0000
0000
0000
0000
0011
0000
0000
0000
,
0000
0000
0000
0000
0000
0000
0001
0000
0000
1000
0000
0000
0010
0000
0000
0000
0000
0000
0000
0000
1010
0000
0000
0000
0000
0000
0000
0000
0000
0000
1000
0000
0000
0001
0000
0000
0010
0000
0000
0000
0000
0000
0000
0000
0011
0000
0000
0000
,
0000
0000
0000
0000
0000
0000
0010
0000
0000
0001
0000
0000
1000
0000
0000
0001
0000
0000
1000
0000
0000
0001
0000
0000
0100
0000
0000
0000
0000
0000
0000
0000
0000
0000
0000
0000
0101
0000
0000
0000
0000
0000
0000
0000
0110
0000
0000
0000
,
0000
0000
0000
0000
1010
0000
0000
0000
0000
0000
0000
0000
1001
0000
0000
0000
0000
0000
0000
0000
0000
1100
0000
0000
0000
0000
0000
0000
0000
0000
0100
0000
0000
0010
0000
0000
0002
0000
0000
0000
0000
0000
0000
0000
0000
0000
0000
0000
,
0000
0000
0000
0000
0000
0000
1003
0000
0001
0100
0010
1000
0002
0000
0000
0000
,
0003
0001
0010
0100
2000
0000
0000
0000
3000
0000
1000
0000
0020
0000
0000
0000
,
0030
0010
1000
0001
0020
0000
0000
0000
0030
0000
0001
0000
0200
0000
0000
0000
,
0300
0100
0001
1000
0200
0000
0000
0000
0320
0000
0000
0000
0032
0000
0000
0103
,
0010
1000
0010
1000
0002
0000
0000
0000
1000
0000
0000
0000
1003
0000
0000
0000
,
1001
0000
0001
0000
0100
0000
1000
0100
,
0001
0000
1000
0000
0100
0000
0001
0100
,
1000
0000
0001
0000
0100
0000
0010
1000
,
0100
0000
0010
0001
0100
0010
0100
0001
,
1001
0000
0001
0010
0001
0010
0001
0100
,
1010
0000
0000
0000
1000
0000
0010
0000
1000
0000
0100
0000
0010
0001
0010
0001
,
1000
0000
0000
0000
0001
0000
0100
0000
0010
1000
0010
1000
0001
0000
0000
0000
,
2002
0000
0000
3003
,
2000
0100
0100
3001
,
0002
0010
2003
0010
,
3002
0000
0100
0000
1003
0001
1000
0001
,
1001
0000
0000
0000
1000
0001
1000
0001
1000
0000
0010
0000
0010
0000
1000
0000
,
0010
0000
1000
0000
0100
0000
1000
0000
0010
1000
0001
1000
0100
0000
0000
0000
,
0110
0000
0100
0010
0001
0010
0010
0001
,
0010
0000
0001
0000
0100
0000
0001
0000
0010
0001
1000
0001
0100
0000
0000
0000
,
0110
0000
0010
0000
1000
0000
0001
0000
0010
0000
0100
0000
0100
0000
0010
0001
,
0010
0001
1000
0000
0001
0000
0100
0000
0010
0000
0100
0000
0100
0000
0010
1000
,
0010
1000
0001
0000
1000
0100
0010
0001
1000
0000
0000
0000
0001
0000
1000
0000
,
1001
0000
0000
0000
0110
0000
0000
0000
1001
0000
0000
0000
1000
0000
0001
0100
,
0010
1000
0100
0010
0001
0010
0010
0001
,
0010
0000
1000
0000
0010
0000
0100
0000
0010
0001
1000
0010
0100
0000
0000
0000
,
0010
0000
0100
0010
0100
0000
0010
0000
1000
0000
0010
0000
0010
0000
1000
0000
,
0010
0000
0001
0000
0010
0000
0100
0000
0010
1000
0001
0010
0100
0000
0000
0000
,
0010
0000
0100
0010
0100
0000
0010
0000
0001
0000
0000
0000
0010
0000
1002
0000
,
0000
0000
0103
0000
0010
0000
0100
0010
1000
0000
0000
0000
0010
0000
2001
0000
,
0000
0000
3100
0010
0001
0000
0010
0000
0011
0000
0000
0000
1000
0000
0000
0000
,
1010
0001
2002
0000
,
0000
0000
0000
0000
3003
0000
0000
0000
1000
0100
1000
0100
1000
0000
0001
0100
,
0001
0100
0001
0000
1000
0010
1000
0010
1000
0000
0001
0010
0001
0010
0001
0000
,
1000
0000
0000
0010
0000
0000
0100
0000
0000
0001
0000
0000
1000
0000
0000
0000
0000
0000
0000
0000
0000
0000
0000
0000
1100
0000
0000
0000
0000
0000
0000
0000
0110
0000
0000
0000
0000
0000
0000
0000
0011
0000
0000
0000
0000
0000
0000
0000
,
1001
0000
0000
0101
0000
0000
0100
0010
1000
0000
0000
0000
0010
0000
0000
0000
,
1001
0000
0000
0000
;
