#VERSION:0.83;
#TITLE:大桟橋(伊呂波調);
#SUBTITLE:;
#ARTIST:内田兄弟;
#TITLETRANSLIT:;
#SUBTITLETRANSLIT:;
#ARTISTTRANSLIT:;
#GENRE:;
#CREDIT:;
#MUSIC:Oosanbashi (Iroha chou).ogg;
#BANNER:;
#BACKGROUND:;
#CDTITLE:;
#SAMPLESTART:62.376;
#SAMPLELENGTH:24.423;
#SELECTABLE:YES;
#OFFSET:-0.068;
#BPMS:0.000=78.000
,9.000=156.000
;
#STOPS:21.000=0.769
,51.000=0.769
;
#SPEEDS:23.000=1.000=0.000=0;
#SCROLLS:10.000=1.000;
#TIMESIGNATURES:0.000=1=4,
1.000=2=4,
9.000=4=4,
21.000=2=4,
23.000=4=4,
51.000=2=4,
53.000=4=4
;
#COMBOS:23.000=0;
#BGCHANGES:;
#FGCHANGES:;

//--------------- dance-single - ----------------
#NOTEDATA:;
#STEPSTYPE:dance-single;
#DESCRIPTION:;
#DIFFICULTY:Beginner;
#METER:4;
#RADARVALUES:0,0,0,0,0;
#NOTES:
0000
0000
0000
0000
,
0000
0000
0000
0000
,
0000
0000
0000
0000
,
0000
0000
0000
0000
,
0000
0000
0000
0000
,
0000
0000
0000
1000
,
0000
0000
0000
0000
,
0000
0000
0000
0001
,
0000
0000
0100
0000
,
0000
0000
0100
0010
,
0000
0010
0000
1000
,
0000
1000
0000
0100
,
0000
0100
0000
0000
,
0000
0000
0010
0000
,
0010
0000
0001
0000
,
0001
0000
1000
0000
,
1000
0000
0010
0000
,
0010
0000
0100
0000
,
0100
0000
0001
0000
,
0001
0100
0100
0100
,
0100
0200
0000
0300
,
0000
0010
0000
0000
,
0000
0100
0000
0000
,
0000
0001
0000
0000
,
0000
1000
0000
0000
,
0000
0100
0000
0000
,
0000
0010
0000
0000
,
0000
0001
0000
0000
,
0000
1000
0000
0000
,
0000
0010
0000
0000
,
0000
1000
0000
0000
,
0000
0100
0000
0000
,
0000
0010
0000
0000
,
0000
0001
0000
0000
,
0000
1000
0000
0000
,
0000
0010
0010
0020
,
0030
0100
0100
0100
,
0100
0010
0000
0010
,
0000
1000
1000
1000
,
0000
0100
0000
0100
,
0000
0010
0010
0010
,
0000
0001
0000
0001
,
0000
0100
0000
0100
,
0000
0010
0000
0010
,
0000
1000
1000
1000
,
1000
0100
0100
0000
,
0010
0000
0001
0000
,
1000
0000
0001
0000
,
0100
0000
0010
0010
,
0010
0001
0000
0001
,
0001
0100
0000
0100
,
0100
0010
0000
0020
,
0000
0030
0000
0000
,
0100
0000
0010
0000
,
0010
0000
1000
0000
,
1000
0000
0100
0000
,
0100
0000
0010
0000
,
0010
0000
0100
0000
,
0100
0000
1000
0000
,
1000
0001
0001
0001
,
0001
0002
2003
3002
,
2003
3001
0000
0000
;

//--------------- dance-single - ----------------
#NOTEDATA:;
#STEPSTYPE:dance-single;
#DESCRIPTION:;
#DIFFICULTY:Easy;
#METER:7;
#RADARVALUES:0,0,0,0,0;
#NOTES:
0000
0000
0000
0000
,
0000
0000
0000
0000
,
0000
1000
0000
0010
,
0000
0100
0000
0001
,
0000
0010
0001
1000
,
0001
1001
0000
1010
,
0010
0000
0100
0000
0000
0101
0000
0000
,
0001
0010
0100
1100
,
1000
0000
0001
0000
0000
0101
0000
0000
,
0100
0000
0010
0000
2002
3003
0001
0000
,
0010
0000
0100
0000
1000
0100
0000
0000
,
1000
0001
0100
0010
,
0100
0000
0001
0000
0010
0100
0000
0000
,
0000
1000
0100
1000
,
0001
0100
0010
1000
,
0010
1000
0001
0000
0010
0000
1000
0000
,
0010
0100
1000
0001
,
0100
0010
1000
0000
0010
0000
0100
0000
,
0001
1000
0100
0010
,
0001
0100
0010
0000
0100
0001
0100
0000
,
0010
1000
0001
0000
0000
0000
0100
0000
,
0010
2000
0000
3000
,
0000
0000
0010
0100
,
0001
0020
0000
0000
,
0030
0000
0000
0100
0000
0100
0000
0100
,
0000
1001
0000
0020
,
0230
0302
0000
2003
,
0000
0000
3200
0310
0200
0000
0000
0000
,
0300
0000
1000
1000
0000
0000
0002
0000
,
0000
0203
0000
0000
,
0300
0000
0002
0023
,
0230
2300
0000
0000
0000
0000
0000
0000
,
3000
0000
0001
0001
0000
0100
0000
0010
,
0000
0100
0000
0000
,
0020
2030
0000
3200
,
0000
0000
0310
0000
0001
1000
0001
0000
,
1000
0010
0110
1001
,
1100
1000
1000
1000
,
1000
0000
0010
0100
0000
0010
0100
0000
,
0001
0010
0010
0010
,
0010
0000
0100
1000
0000
0100
1000
0000
,
0001
0100
0100
0100
,
0100
0010
0010
0010
,
0010
1000
1000
1000
,
1000
0000
0000
0001
0000
0100
0000
0001
,
0000
1000
0100
0000
1000
0000
0001
0000
,
0100
0010
1000
0000
0010
0000
0100
0000
,
0001
1000
0001
0000
0010
0000
0100
0000
,
1000
0010
1000
0000
0100
0000
0010
0000
,
0001
0100
0010
0000
0100
0000
0001
0000
,
1000
0100
1000
0000
0001
0000
0100
0000
,
0010
1000
0010
0000
0100
0000
0002
0000
,
2000
3003
0000
0220
0000
0000
0000
0000
,
0330
2000
0010
3002
,
0100
0023
0100
0032
,
1000
0203
0010
0302
,
1000
0023
0100
0032
,
0100
2003
3200
0302
,
0203
2300
3002
0203
,
0320
1030
0010
0100
,
0001
0000
1000
0100
1000
0000
0001
0100
,
0001
0000
2002
3003
0000
0000
0000
0000
;

//--------------- dance-single - ----------------
#NOTEDATA:;
#STEPSTYPE:dance-single;
#DESCRIPTION:;
#DIFFICULTY:Medium;
#METER:12;
#RADARVALUES:0,0,0,0,0;
#NOTES:
0000
0000
0000
0000
,
0000
0000
0000
0000
,
0000
0000
1000
1000
0000
0000
0010
0010
,
0000
0000
0100
0100
0000
0000
0001
0001
,
0000
0000
1000
0100
0010
0100
1000
0100
,
0010
0001
2000
3000
1001
0000
0001
0100
,
0010
0000
0100
0000
0001
1000
0000
0100
,
1000
0000
0001
0100
0010
0000
0100
0001
,
0010
0000
0001
0000
1000
0010
0000
1000
,
0010
0000
0100
0001
2000
0000
3100
1000
,
1000
0001
0100
0100
0010
1000
0000
0001
,
0010
0010
0100
1000
0001
0000
0100
0010
,
0010
1000
0001
0001
0010
0200
0300
0000
,
0000
0000
0000
0000
1000
0000
0100
0000
0000
1000
0000
0000
0001
0000
0000
0100
,
0000
0000
0010
0000
1000
0000
0010
0000
0000
0100
0000
0000
1000
0000
0000
0100
,
0000
0000
0001
0000
1000
0000
0100
0000
0000
0001
0000
0000
0100
0000
0000
1000
,
0000
0001
0100
0010
1000
0001
0010
0100
,
0010
0000
0001
0000
1000
0000
0001
0000
0000
0010
0000
0000
1000
0000
0000
0010
,
0000
0000
0001
0000
1000
0000
0001
0000
0000
0100
0000
0000
1000
0000
0000
0100
,
0000
0001
1000
0100
1000
0001
0200
0320
,
2030
3002
2000
0000
0000
0000
0000
0000
,
3003
0000
1200
0000
0000
0000
0000
1300
,
0100
0010
0000
0001
0002
0000
0000
0013
,
0000
0000
2100
0000
0000
0000
0000
3001
,
1000
0100
0000
0010
0020
0100
0000
0100
,
0030
0000
2100
0000
0000
0000
0000
3010
,
1000
0010
0000
0100
0200
0000
0000
0001
,
0300
0000
1002
0000
0000
0000
0000
0103
,
0001
0010
0000
0100
0200
0000
0000
1000
,
0000
1300
0002
0000
0000
0000
0000
0013
,
0001
0100
0000
0010
0020
0000
0000
1000
,
0030
0000
0102
0000
0000
0000
0000
0013
,
0001
0100
0000
0010
0020
1000
0000
1030
,
0000
0000
0201
0000
0000
0000
0000
0310
,
1000
0010
0000
0100
0200
0000
0000
0010
,
0300
0000
0001
0010
0010
0100
1000
0100
,
0010
0001
1000
0102
0003
2100
3000
0002
,
0103
0000
0001
0010
0010
0010
0010
0100
,
1000
0001
0100
0100
0010
0100
0100
0001
,
0010
0100
1000
0001
0001
0001
0001
0100
,
0010
1000
0100
0100
0010
0100
0100
1000
,
0001
0100
0010
1000
1000
1000
1000
0100
,
0110
0000
0001
0100
0100
0100
0100
0010
,
1010
0000
1000
0001
0001
0001
0001
0010
,
0100
1000
0001
2000
3200
0320
0032
2003
,
3200
0000
0320
0000
0031
0000
0100
0000
0000
0010
0000
0000
0001
0000
0000
0010
,
0000
0000
1000
0000
0001
0000
1000
0000
0000
0100
0000
0000
0001
0000
0000
0100
,
0000
0000
1000
0000
0001
0000
0100
0000
0000
1000
0000
0000
0100
0000
0000
0010
,
0000
1000
0001
0010
0010
0100
0100
1000
,
0001
0000
0000
0000
0100
0000
0000
0001
0100
0000
0001
0000
1000
0000
1000
0000
,
0010
0000
0000
0000
0100
0000
0000
0001
1000
0000
0100
0000
0010
0000
0010
0000
,
0001
0000
1000
0010
0100
0001
2000
3200
,
0320
0031
0000
1000
1000
0001
0001
0100
,
0110
0000
0000
0000
0010
0000
1000
0000
0000
0001
0000
0000
0010
0000
0000
0001
,
0000
0000
1000
0000
0010
0000
0100
0000
0000
1000
0000
0000
0100
0000
0000
0010
,
0000
0000
1000
0000
0001
0000
0010
0000
0000
1000
0000
0000
0010
0000
0000
0100
,
0000
1000
0001
0100
0100
0001
0002
0023
,
0230
0000
2300
0000
3001
0000
0100
0000
0000
0010
0000
0000
0001
0000
0000
0010
,
0000
0000
1000
0000
0001
0000
1000
0000
0000
0100
0000
0000
0001
0000
0000
0100
,
0000
1000
0010
0010
0100
0100
0001
0001
,
1000
1000
0100
0010
0001
0100
0010
1000
,
0100
0000
0010
0000
0001
1000
0001
0000
0000
0000
0000
0000
0000
0000
0000
0000
;

//--------------- dance-single - ----------------
#NOTEDATA:;
#STEPSTYPE:dance-single;
#DESCRIPTION:;
#DIFFICULTY:Hard;
#METER:15;
#RADARVALUES:0,0,0,0,0;
#NOTES:
0000
0000
0000
0000
,
0000
0000
0000
0000
,
0000
0000
1000
1000
0000
0000
0010
0010
,
0000
0000
0100
0100
0000
0000
0001
0001
,
0000
0000
1000
0100
0100
0010
0010
0001
,
0001
1000
2002
3003
0110
0000
1010
0010
,
1000
0001
0010
0100
1000
1001
0000
0001
,
0100
0010
0100
0001
0010
0000
1100
1000
,
0001
0100
0010
1000
1010
0101
0000
0001
,
0010
0000
0100
0000
1000
0000
0100
1000
0002
0000
0003
0000
0101
0000
0001
0000
,
0010
0100
1100
1000
0001
0101
0000
0100
,
0010
1000
1100
0100
0010
0010
0001
0100
,
0010
0000
1000
0000
0010
1000
0010
0100
0001
1000
0001
0000
0000
0000
0000
0000
,
0000
0000
0000
0000
0100
0000
0001
0000
1000
0100
0000
0010
0001
0000
1000
0100
,
0000
0010
0001
0000
1000
0000
0010
0000
1000
0010
0000
0100
0001
0000
1000
0010
,
0000
0100
0001
0000
0010
0000
0001
0000
0010
0100
0000
1000
0001
0000
0010
0100
,
0000
1000
0001
0000
0100
0000
0010
1000
0010
0000
0010
0100
0001
0000
0001
1000
,
0001
0000
0010
0000
0100
0000
1000
0000
0010
0100
0000
0001
1000
0000
0010
0100
,
0000
0001
1000
0000
0001
0000
0010
0000
0100
1000
0000
0100
0010
0000
0001
0010
,
0000
0001
1000
0000
0001
0000
0100
0000
0010
0000
1000
0100
1000
0000
0001
0000
,
1000
0010
0100
0001
1000
0000
1000
0000
0010
0000
0010
0000
0100
0001
0100
0000
,
0001
1000
1200
0000
0000
0000
0000
0010
,
0010
0000
0310
0000
0100
0000
1000
0100
1000
0000
0001
0000
0001
0000
0001
0000
,
0001
0000
0010
0100
2000
0000
0000
0000
0000
0000
0000
0000
0000
0000
0100
0000
,
0100
0000
3100
0000
1000
0000
0001
0100
0001
0000
0010
0000
0010
0000
0010
0000
,
0010
0000
0100
1000
0002
0000
0000
0000
0000
0000
0000
0000
0000
0000
0010
0000
,
0010
0000
0013
0000
0001
0000
1000
0010
1000
0000
0001
0100
0001
0000
1000
0100
,
1000
0000
0001
0010
0200
0000
0000
0000
0000
0000
0000
0000
0000
0000
0001
0000
,
0001
0000
0301
0000
0100
0000
1000
0100
1000
0000
0001
0100
0001
0000
1000
0010
,
1000
0000
0001
0010
0200
0000
0000
0000
0000
0000
0000
0000
0000
0000
0010
0000
,
0010
0000
0310
0000
0100
0000
1000
0010
1000
0000
0010
0000
0010
0000
0010
0000
,
0010
0000
0100
0001
2000
0000
0000
0000
0000
0000
0000
0000
0000
0000
0100
0000
,
0100
0000
3100
0000
1000
0000
0001
0010
0001
0000
0010
0000
0100
0000
0010
0000
,
0100
0000
1000
0001
0200
0000
0000
0000
0000
0000
0000
0000
0000
0000
1000
0000
,
1000
0000
1300
0000
0100
0000
0010
1000
0010
0000
0010
1000
0001
0000
0001
1000
,
0100
0000
0010
0001
1000
0000
0020
0030
0020
0030
0001
0010
0100
0000
0100
1000
,
0001
0000
0000
0000
0000
0000
0001
0000
0000
0100
0000
0000
0010
0000
0000
0000
0000
0000
1000
0000
0000
0000
0100
0000
1000
0000
0000
0000
0000
0000
0001
0000
0000
0000
0100
0000
0001
0000
0000
0000
0000
0000
1000
0000
0000
0000
0100
0000
,
2000
0000
0000
0000
3001
0000
0100
0010
0100
0000
0100
0000
0101
0000
0100
0000
,
0110
0000
0100
0000
0001
0000
0001
0000
0010
0100
1000
0000
1000
0000
0001
0100
,
0010
0000
0100
0000
0001
0000
0010
0100
1000
0000
1000
0000
1010
0000
1000
0000
,
1100
0000
1000
0000
0100
0000
0010
0000
0001
0100
0010
0000
1000
0000
0010
0100
,
0001
0000
0010
0000
0100
0000
1000
0001
0010
0000
0010
0000
0110
0000
0010
0000
,
0011
0000
0010
0000
0100
0000
1000
0001
0100
0000
0100
0000
0101
0000
0100
0000
,
0110
0000
0100
0000
0010
0000
1000
0001
0100
0000
0100
0000
1100
0000
0100
0000
,
0101
0000
0100
0000
0010
0000
1000
0100
0020
0000
0032
0000
0203
0000
2300
0000
,
3200
0000
0320
0000
1030
0000
0001
0000
0010
0001
0000
0001
0100
0000
0100
0001
,
0000
0001
0010
0000
0100
0000
1000
0000
0001
0100
0000
0100
1000
0000
1000
0100
,
0000
0100
0001
0000
0010
0000
0100
0000
1000
0010
0000
0010
0001
0000
0001
0010
,
0000
0010
1000
0000
0001
0000
0100
0010
1000
0000
1000
0100
1000
0000
1000
0100
,
0020
0000
0000
0000
0130
0000
1000
0001
0100
0000
0100
0000
1100
0000
0100
0000
,
0120
0000
0000
0000
1030
0000
0001
0010
0100
0000
0100
0000
0101
0000
0100
0000
,
2100
0000
0000
0000
3010
0000
0100
0000
0001
0000
1000
0000
0100
0010
0100
1000
,
0001
0100
0020
0000
0000
0000
0130
0000
0001
0000
1000
0000
0100
1000
0100
1000
,
0020
0000
0000
0000
0130
0000
0001
0000
1000
0100
0000
0010
0001
0000
1000
0100
,
0010
0001
1000
0000
0001
0000
0100
0000
0010
1000
0000
0001
0100
0000
0010
1000
,
0001
0100
0010
0000
1000
0000
0001
0000
0010
0100
0000
1000
0001
0000
1000
0010
,
0100
0001
1000
0000
0100
0000
0010
0001
1000
0000
1000
0001
0010
0000
0010
0100
,
1000
0000
0001
0000
0100
0000
0010
0000
1000
0100
0000
0010
0001
0000
1000
0010
,
0100
0001
1000
0000
0001
0000
0010
0000
0100
1000
0000
0001
0100
0000
0010
1000
,
0010
0100
0001
0000
0010
0000
0010
0000
0100
0000
0100
0000
1000
0000
1000
0000
,
0001
0000
0001
0000
1000
0010
0100
0010
1000
0010
0100
0010
1000
0010
0100
0010
,
1000
0010
0100
0010
1000
0001
1000
0000
0000
0000
0000
0000
0000
0000
0000
0000
;

//--------------- dance-double - ----------------
#NOTEDATA:;
#STEPSTYPE:dance-double;
#DESCRIPTION:;
#DIFFICULTY:Easy;
#METER:9;
#RADARVALUES:0,0,0,0,0;
#NOTES:
00000000
00000000
00000000
00000000
,
00000000
00000000
00000000
00000000
,
00000000
00010000
00000000
00001000
,
00000000
01000000
00000000
00100000
,
00000000
10000000
00100000
01000000
,
00001000
00000000
00022000
00033000
00000000
00000000
00010000
00000000
,
00100000
00000000
01000000
00000000
00000000
01010000
00000000
00000000
,
01000000
00001000
00010000
00010100
,
00000100
00000000
00001000
00000000
00000010
00000100
00000000
00000001
,
00000100
00000020
00002030
00003100
,
00010100
00011000
00110000
11000000
,
10010000
00000000
01010000
00000000
01000000
00001000
00010000
00000000
,
00000100
00000000
00010000
00001000
00010000
00002000
00003000
00000000
,
00000000
00200000
00320000
00230000
,
02300000
23000000
30200000
02300000
,
03002000
00023000
00030200
00000320
,
00000230
00002300
00003002
00000203
,
00000320
00020030
00032000
00003020
,
00000032
00000203
00000320
00020030
,
00032000
00000000
02003000
00000000
03200000
00000000
10300000
00100000
,
10000000
00200000
01300000
00000000
01010000
00000000
00011000
00000000
,
00001100
00000000
00000220
00000000
00000330
00000000
00000000
00000010
,
00000100
00001000
00000000
00000000
01000000
00000000
00100000
00000000
,
00010000
00000000
01010000
00000000
00000000
00000000
00000000
00100000
,
01000000
00001000
00000000
00010000
00010000
00000000
00000100
00000000
,
00001000
00000000
00000011
00000000
00000000
00000000
00000000
00000010
,
00000100
00001000
00000000
00000100
00010000
00000000
00001000
00000000
,
00100000
00000000
00110000
00000000
00000000
00000000
00000000
10000000
,
01000000
00100000
00000000
00001000
00010000
00000000
00001000
00000000
,
01000000
00000000
01010000
00000000
00000000
00000000
00000000
00010000
,
00100000
00001000
00000000
00010000
00001000
00000000
00000100
00000000
,
00000010
00000000
00000011
00000000
00000000
00000000
00000000
00000001
,
00000010
00000100
00000000
00000010
00000100
00000000
00010000
00000000
,
00001000
00000000
01001000
00000000
00000000
00000000
00000000
00010000
,
01000000
00100000
00000000
10000000
00100000
00000000
01000000
00000000
,
00001000
00000000
00010000
00001000
00010000
00001000
00010000
00001000
,
00010000
00000000
00001000
00200000
00000000
00320000
00000000
20030000
,
00000000
30000000
01000000
10000000
00010000
00000000
00100000
00000000
,
00001000
00000000
00010000
00010000
00000000
00001000
00001000
00000000
,
01000000
00000000
00010000
00100000
00001000
00000000
00010000
00000000
,
00000100
00000000
00000010
00000010
00000000
00000001
00000001
00000000
,
00001000
00000000
00000100
00010000
00001000
00000000
01000000
00000000
,
00100000
00000000
10000000
00010000
01000000
00000000
00001000
00000000
,
00010000
00000000
00000100
00001000
00000010
00000000
00010000
00000000
,
00001000
00000000
10000000
00200000
00000000
02300000
00000000
03020000
,
00000000
00230000
00302000
00000000
00010000
00000000
00100000
00000000
,
00010000
00023000
00000100
00001000
,
00000100
00030200
00001000
00000010
,
00001000
00000320
00000001
00000100
,
00000001
00000000
00000031
00000000
00000010
00000000
00000100
00000100
,
00000100
00000000
00010000
00000000
00001000
00000000
01000000
01000000
,
01000000
00000000
00100000
00000000
10000000
00000000
00010000
00100000
,
00001000
00100000
00000000
00001000
00010000
00001000
00010000
00001000
,
00010000
00002000
02003000
03200000
,
20300000
32000000
03020000
00032000
,
00003200
00000302
00000023
00002030
,
00023000
00032000
00203000
02300000
,
03020000
02030000
23000000
30020000
,
02030000
03002000
00023000
00030200
,
00000320
00000230
00020300
00032000
,
00103000
00000000
00001000
00010000
00001000
00010000
00001000
00010000
,
00001000
00010000
00001000
00010000
00000000
00000000
00000000
00000000
;

//--------------- dance-double - ----------------
#NOTEDATA:;
#STEPSTYPE:dance-double;
#DESCRIPTION:;
#DIFFICULTY:Medium;
#METER:13;
#RADARVALUES:0,0,0,0,0;
#NOTES:
00000000
00000000
00000000
00000000
,
00000000
00000000
00000000
00000000
,
00000000
00000000
00100000
00100000
00000000
00000000
01000000
01000000
,
00000000
00000000
00000100
00000100
00000000
00000000
00000010
00000010
,
00000000
00000000
00000001
00000010
00000100
00001000
00000001
00001000
,
00000100
00010000
00002000
00003000
00011000
00000000
00010000
00000100
,
00001000
00000000
00000100
00000000
00010000
00001000
00000000
01000000
,
00100000
00000000
01000000
00001000
00010000
00000000
00001000
01000000
,
00010000
00000000
01000000
00000000
00001000
00020000
00030000
01000000
,
00100000
00001000
00010000
00001000
00021000
00030000
00001000
01000000
,
00001000
00000000
00010000
00000100
00010000
00000000
00001000
00100000
,
00001000
00000000
00010000
00100000
10000000
00000000
01000000
00100000
,
00010000
01000000
00001000
00010000
00000010
00002000
00000000
00003000
,
00000000
00000000
00000010
00010000
00002000
00000000
00013000
00100000
,
02000000
00000000
03010000
10000000
02000000
00000000
03100000
00010000
,
02000000
00000000
03001000
00010000
00000020
00000000
00000130
00001000
,
00020000
00000000
00130000
10000000
02000000
00000000
03010000
01000000
,
20000000
00000000
30010000
01000000
00002000
00000000
00013000
00000100
,
00000020
00000000
00001030
00000010
00000002
00000000
00001003
00000100
,
00020000
00000000
00031000
01000000
00100000
10000000
00010000
01000000
,
00001000
00010000
00000100
00000100
00010000
00010000
00000010
00001000
,
00000001
00000010
00000200
00000000
00000000
00000000
00000000
00001000
,
00001000
00001000
00000000
00000310
00010000
00100000
01000000
10000000
,
00010000
00000000
02000000
00000000
00000000
00000000
00000000
00100000
,
00100000
00100000
03000000
01000000
00010000
00100000
00001000
00010000
,
00000100
00000000
00000021
00000000
00000000
00000000
00000000
00000100
,
00000100
00000100
00000000
00000031
00000010
00000100
00001000
00000100
,
00010000
00001000
02001000
00000000
00000000
00000000
00000000
00100000
,
00100000
03100000
00000000
01000000
00010000
01000000
00001000
00010000
,
00000100
00000000
00000120
00000000
00000000
00000000
00000000
00001000
,
00001000
00001000
00000030
00000010
00000100
00001000
00000100
00010000
,
00001000
00000000
02010000
00000000
00000000
00000000
00000000
10000000
,
10000000
10000000
03000000
01000000
00100000
10000000
00001000
00010000
,
00100000
00000000
00012000
00000000
00000000
00000000
00000000
00000100
,
00000100
00000100
00003000
00001000
00010000
01000000
10000000
00010000
,
01000000
00000000
00010000
00010000
00010000
01000000
00001000
00010000
,
00001000
00000100
00000010
00000010
00000100
00000100
00010000
00010000
,
00001000
00001000
01000000
01000000
01000000
01000000
01010000
00000000
,
00012000
00000000
00003100
00000010
00000100
00001000
00001000
00010000
,
00000100
00000000
00010000
00010000
00010000
00010000
01010000
00000000
,
10200000
00000000
01300000
10000000
01000000
00010000
01000000
00001000
,
00010000
00000000
00001000
00001000
00001000
00001000
00011000
00000000
,
00110000
00000000
01000000
01000000
01000000
01000000
01100000
00000000
,
00011000
00000000
00000100
00000100
00000100
00000100
00010100
00000000
,
00000101
00000000
00000002
00000203
00002300
00023000
02030000
23000000
,
30200000
00000000
02300000
00000000
03010000
00000000
01010000
00000000
00000000
00110000
00000000
00000000
00011000
00000000
00000000
00001100
,
00000000
00000000
00000010
00000000
00000001
00000000
00000101
00000000
00000000
00001100
00000000
00000000
00011000
00000000
00000000
00110000
,
00000000
00000000
01000000
00000000
10000000
00000000
10010000
00000000
00000000
01010000
00000000
00000000
00011000
00000000
00000000
00001010
,
00000000
00000010
00001000
00000100
00000100
00010000
00010000
00001000
,
00011000
00000000
00000000
00000000
00010000
00000000
00000000
01000000
10000000
00000000
00010000
00000000
01000000
00000000
00001000
00000000
,
00010000
00000000
00000000
00000000
00000010
00000000
00000000
00010000
00001000
00000000
00100000
00000000
01000000
00000000
00010000
00000000
,
01000000
00000000
10000000
00100000
01000000
00001000
00020000
02030000
,
23000000
30010000
00000000
01000000
01000000
00001000
00010000
00001000
,
00000100
00000000
00000001
00000000
00000010
00000000
00000000
00000010
00000100
00000000
00000000
00000100
00001000
00000000
00000000
00001000
,
00010000
00000000
00000000
00010000
00100000
00000000
00000000
00100000
01000000
00000000
00000000
01000000
10000000
00000000
00000000
10000000
,
00010000
00000000
00000000
00010000
01000000
00000000
00000000
01000000
00001000
00000000
00000000
00001000
00010000
00000000
00000000
00010000
,
00000100
00000000
00000000
00000100
00001000
00000000
00000000
00001000
00000010
00000000
00000000
00000010
00010000
00000000
00000000
00010000
,
00000100
00000000
00000000
00000100
00000010
00000000
00000000
00000010
00000100
00000000
00000000
00000100
00001000
00000000
00000000
00001000
,
00000001
00000000
00000000
00000001
00000100
00000000
00000000
00000100
00001000
00000000
00000000
00001000
00010000
00000000
00000000
00010000
,
01000000
00000000
00000000
01000000
10000000
00000000
00100000
00000000
01000000
00000000
10000000
00000000
01000000
00000000
00010000
00000000
,
00100000
00001000
00010000
00010000
00001000
00001000
01000000
01000000
,
00010000
00000000
00010000
00000000
10000000
00100000
10000000
00000000
00000000
00000000
00000000
00000000
00000000
00000000
00000000
00000000
;

//--------------- dance-double - ----------------
#NOTEDATA:;
#STEPSTYPE:dance-double;
#DESCRIPTION:;
#DIFFICULTY:Hard;
#METER:16;
#RADARVALUES:0,0,0,0,0;
#NOTES:
00000000
00000000
00000000
00000000
,
00000000
00000000
00000000
00000000
,
00000000
00000000
00100000
00100000
00000000
00000000
00000100
00000100
,
00000000
00000000
01000000
01000000
00000000
00000000
00000010
00000010
,
00000000
00000000
00000010
00010000
00010000
01000000
01000000
10000000
,
10000000
00010000
01010000
00000000
00000000
00000000
10000000
00000000
,
01000000
00000000
00100000
00010000
10000000
00010000
01000000
00000000
00010000
00000000
00101000
00000000
00000000
00000000
00010000
00000000
,
00000100
00000000
00000010
00000001
00001000
00000001
00000010
00000000
00000100
00000000
00000000
00000000
00000011
00000000
00000000
00000000
,
00000100
00000000
00010000
00001000
01000000
00001000
00010000
00000000
01000000
00000000
01100000
00000000
00000000
00000000
01000000
00000000
,
00010000
00000000
00100000
00001000
00010000
00001000
00100000
00000000
00020000
00000000
00000000
00000000
01030000
00000000
00010000
00000000
,
00100000
00001000
01000000
10000000
00010000
00100000
01000000
00010000
,
00100000
00001000
00000010
00000001
00000100
00000010
00010000
00001000
,
01000000
00000000
00010000
00000000
00100000
00001000
00010000
00000100
00000010
00000001
00002000
00000000
00000000
00000000
00000000
00000000
,
00000000
00000000
00000000
00000000
00013000
00000000
01000000
00000000
00100000
10000000
00000000
00100000
01000000
00000000
00010000
00100000
,
00000000
00001000
00010000
00000000
00001000
00000000
00010000
00000000
00000100
00001000
00000000
00000001
00000100
00000000
00000010
00001000
,
00000000
00000100
00010000
00000000
00001000
00000000
01000000
00000000
00100000
10000000
00000000
00010000
01000000
00000000
00001000
00010000
,
00000000
00100000
01000000
00000000
00010000
00000000
00100000
00010000
00100000
00000000
00001000
00010000
00001000
00000000
00010000
00000100
,
00010000
00000000
00001000
00000000
00010000
00000000
00000100
00000000
00001000
00000001
00000000
00010000
00000010
00000000
01000000
00001000
,
00000000
00010000
00000100
00000000
00001000
00000000
00000010
00000000
00010000
00001000
00000000
01000000
00100000
00000000
01000000
00010000
,
00000000
00100000
00001000
00000000
00010000
00000000
00000100
00000000
00001000
00000000
00000010
00000000
00000100
00000010
00001000
00000100
,
00010000
00001000
01000000
00010000
10000000
00000000
10000000
00000000
00100000
00000000
00100000
00000000
01000000
00010000
01000000
00000000
,
00010000
00000000
00210000
00000000
00000000
00000000
00000000
01000000
,
01000000
01000000
00300000
00000000
00020000
00000000
02030000
00000000
,
03002000
00000000
00023000
00000000
00000000
00000000
00000000
00100000
,
00100000
00100000
00030000
00000000
00000000
00001000
00000000
00001000
,
00000000
00000000
00020000
00000000
00000000
00000000
00000000
00000010
,
00000010
00000010
00030000
00000000
00000010
00001000
00000100
00010000
,
01000000
10000000
00020000
00000000
00000000
00000000
00000000
00100000
,
00100000
00100000
00000000
00031000
00000100
00000001
00000010
00001000
,
00010000
00000000
00002000
00000000
00000000
00000000
00000000
00000010
,
00000010
00000010
00003000
00001000
00010000
00000100
00000001
00000100
,
00001000
00000000
00200000
00000000
00000000
00000000
00000000
10000000
,
10000000
10000000
00300000
00100000
00010000
01000000
00010000
00100000
,
00001000
00000000
00020000
00000000
00000000
00000000
00000000
01000000
,
01000000
01000000
00030000
00010000
01000000
00100000
00010000
01000000
,
00001000
00000000
00010000
00100000
00100000
00100000
01000000
10000000
,
00100000
01000000
00001000
00010000
00011000
00001000
00101000
00100000
,
01100000
00000000
00000000
00000000
01000000
00000000
10000000
00010000
00100000
00000000
00010000
00000000
00010000
00000000
00010000
00000000
,
00010000
00000000
00010000
00000000
10000000
00100000
00010000
00000000
00100000
00000000
01000000
00001000
00010000
00000000
00000100
00000000
,
00001000
00000000
00000100
00000000
00010000
00000000
00001000
01000000
00100000
00000000
00100000
00000000
00100000
00000000
00100000
00000000
,
00100000
00000000
00100000
00000000
01000000
00010000
00100000
00000000
00001000
00000000
00010000
00000100
00001000
00000000
00000010
00000000
,
00000100
00000000
00001000
00000000
00000100
00000000
00000010
00001000
00000100
00000000
00001000
00000000
00001100
00000000
00000100
00000000
,
00010100
00000000
00000000
00000000
00001000
00000000
00100000
01000000
10000000
00000000
00100000
00000000
01010000
00000000
00010000
00000000
,
00110000
00000000
00000000
00000000
01000000
00000000
10000000
00010000
01000000
00000000
00001000
00000000
00011000
00000000
00010000
00000000
,
00010100
00000000
00000100
00000020
00002030
02003000
03200000
00320000
,
00030200
00000000
00000310
00000000
00000100
00000000
00001000
00000000
00010000
00100000
00000000
00001000
00010000
00000000
00000100
00010000
,
00000000
00000010
00000100
00000000
00001000
00000000
00010000
00000000
01000000
10000000
00000000
00010000
01000000
00000000
00001000
00010000
,
00000000
00000100
00000010
00000000
00000001
00000000
00001000
00000000
00000010
00010000
00000000
00001000
00100000
00000000
01000000
10000000
,
00000000
00010000
01000000
00000000
00010000
00000000
00100000
00001000
00100000
00000000
00001000
00010000
00001000
00000000
00010000
00000100
,
00010000
00000000
00000100
00000000
00001000
00000000
00000001
00000010
00001000
00000000
00010000
00000000
00011000
00000000
00001000
00000000
,
00101000
00000000
00000000
00000000
10000000
00000000
00100000
00010000
00001000
00000000
01000000
00000000
01100000
00000000
00100000
00000000
,
10100000
00000000
10000000
00000000
01000000
00000000
00010000
00000000
00001000
00000000
00000100
00001000
00000010
00010000
00001000
01000000
,
00100000
10000000
00010000
00000000
00000000
00000000
00100000
00000000
01000000
00000000
10000000
01000000
00010000
01000000
10000000
00010000
,
00200000
00000000
00000000
00000000
01300000
00000000
00100000
00000000
00010000
01000000
00000000
00001000
00010000
00000000
00000010
00000100
,
00000000
00000010
00010000
00000000
00001000
00000000
00100000
00000000
00010000
10000000
00000000
00001000
01000000
00000000
00010000
01000000
,
00000000
00001000
00010000
00000000
00000100
00000000
00001000
00000000
00010000
00100000
00000000
10000000
00010000
00000000
01000000
00001000
,
00000000
00010000
00000100
00000000
00001000
00000000
00000001
00000100
00000001
00000000
00001000
00000010
00001000
00000000
00000100
00010000
,
00000100
00000000
00001000
00000000
00000100
00000000
00000010
00000000
00000001
00000100
00000000
00001000
00010000
00000000
01000000
10000000
,
00000000
00100000
10000000
00000000
00010000
00000000
00100000
00000000
01000000
10000000
00000000
00100000
00010000
00000000
00001000
00000010
,
00000000
00000001
00001000
00000000
00000100
00000000
00000100
00000000
00010000
00000000
00010000
00000000
00001000
00000000
00001000
00000000
,
01000000
00000000
01000000
00000000
00100000
10000000
00010000
00000000
01000000
00001000
00010000
00000000
00000100
00000010
00001000
00000000
,
00100000
00001000
00010000
00000000
00001000
01000000
00100000
00000000
00000000
00000000
00000000
00000000
00000000
00000000
00000000
00000000
;
