#VERSION:0.83;
#TITLE:One Heart;
#SUBTITLE:;
#ARTIST:ATARASHII GAKKO!;
#TITLETRANSLIT:;
#SUBTITLETRANSLIT:;
#ARTISTTRANSLIT:;
#GENRE:;
#CREDIT:;
#MUSIC:One Heart.ogg;
#BANNER:One Heart.png;
#BACKGROUND:One Heart-bg.png;
#CDTITLE:;
#SAMPLESTART:47.045;
#SAMPLELENGTH:12.075;
#SELECTABLE:YES;
#OFFSET:-0.253;
#BPMS:0.000=159.000;
#STOPS:;
#SPEEDS:0.000=1.000=0.000=0,
220.000=0.500=0.000=0,
248.000=1.000=6.000=0
;
#SCROLLS:0.000=1.000;
#BGCHANGES:-0.670=One Heart.avi=1.000=1=0=0=StretchNoLoop==CrossFade==;
#FGCHANGES:;

//--------------- dance-single - ----------------
#NOTEDATA:;
#STEPSTYPE:dance-single;
#DESCRIPTION:;
#DIFFICULTY:Beginner;
#METER:2;
#RADARVALUES:0,0,0,0,0;
#CREDIT:Kikoia;
#NOTES:
0000
0000
0000
0000
,
0000
0000
0000
0000
,
0000
0000
0000
0000
,
0002
0000
0000
2000
,
0000
0000
0000
0000
,
0000
0000
0000
3003
,
1000
0000
1000
0000
,
0100
0000
0100
0000
,
0001
0000
0001
0000
,
0200
0000
0300
0000
,
0001
0000
0001
0000
,
0010
0000
0010
0000
,
1000
0000
1000
0000
,
0020
0000
0030
0000
,
1000
0000
1000
0000
,
0100
0000
0100
0000
,
0010
0000
0010
0000
,
0002
0000
0003
0000
,
0001
0000
0001
0000
,
0100
0000
0100
0000
,
0010
0000
0010
0000
,
2000
0000
3000
0000
,
1001
0000
0000
0000
,
0000
0000
0000
0000
,
0000
0000
0000
0000
,
0000
0000
0000
0000
,
0001
0000
0000
0000
,
0100
0000
0000
0000
,
1000
0000
0000
0020
,
0000
0000
0000
0000
,
0030
0000
0000
0000
,
1000
0000
0100
0000
,
1000
0000
1001
0000
,
0001
0000
0100
0000
,
0001
0000
1001
0000
,
0001
0000
0010
0000
,
0100
0000
1000
0000
,
0010
0000
0010
0000
,
0100
0100
0200
0300
,
0001
0000
0001
0000
,
1000
0000
1000
1000
,
0100
0000
0100
0000
,
0010
0000
0010
0010
,
0001
0000
0001
0000
,
0100
0000
0100
0100
,
0010
0000
0000
0000
,
1000
0000
0000
0000
,
1001
0000
0000
0000
,
0000
0000
0000
0000
,
0000
0000
0000
0000
,
0000
0000
0000
0000
,
0001
0001
0001
0000
,
0100
0100
0100
0000
,
1000
1000
1000
0000
,
0010
0010
0010
0000
,
1001
0000
0000
0000
,
0000
0000
0000
0000
,
0100
0000
0000
0000
,
0000
0000
0000
0000
,
0010
0000
0000
0000
,
0000
0000
0000
0000
,
0000
0000
0000
0000
,
1000
0000
1000
0000
,
1000
0000
1000
0000
,
0001
0000
0001
0000
,
0001
0000
0001
0000
,
1000
0000
1000
0000
,
0001
0000
0001
0001
,
0010
0000
0010
0000
,
0100
0000
0100
0100
,
1000
0000
1000
0000
,
0010
0000
0010
0010
,
0100
0000
0000
0000
,
0001
0000
0000
0000
,
1000
0000
0000
0000
,
0100
0000
0000
0000
,
1001
0000
0000
0000
,
0110
0000
0000
0000
,
2002
0000
0000
0000
,
0000
0000
0000
0000
,
3003
0000
0000
0000
;

//--------------- dance-single - ----------------
#NOTEDATA:;
#STEPSTYPE:dance-single;
#DESCRIPTION:;
#DIFFICULTY:Easy;
#METER:6;
#RADARVALUES:0,0,0,0,0;
#CREDIT:Kikoia;
#NOTES:
0000
0000
0000
0000
,
0000
0000
0000
0000
,
0000
0000
0000
0000
,
0001
0002
1000
2000
,
0000
0000
0000
0000
,
0000
0000
0000
3003
,
0001
0100
0010
0010
,
1000
0100
0020
0030
,
0001
1000
0010
0010
,
0200
0000
0302
0000
,
1003
1000
0010
0010
,
1000
1000
0200
0300
,
1000
0010
0100
0001
,
2000
0000
3002
0000
,
1003
1000
0100
0100
,
0001
0001
0200
0300
,
1000
1000
0001
0001
,
0200
0000
0320
0000
,
1030
0000
1000
0000
0001
0100
0002
0000
,
0003
0000
0010
0000
0100
1000
0200
0000
,
0000
0310
0001
1000
,
0002
0000
2003
0000
,
3000
0000
0000
0000
,
0001
0000
0000
0000
,
0100
0000
0000
0000
,
0010
0000
0000
0000
,
0100
0000
0000
0000
,
0001
0000
0000
0000
,
0010
0000
0000
0010
0000
0000
0200
0000
,
0000
0000
0000
0000
,
0000
0000
0300
0000
,
1000
0000
0001
0000
0100
0001
0100
0000
,
0001
1000
0200
0300
,
1000
0000
0010
0000
0100
0001
0100
0000
,
0001
0010
0200
0300
,
0010
0000
0001
0000
1000
0001
1000
0000
,
0002
0000
0000
0010
0010
0000
0000
0000
,
1003
0100
0010
0001
,
0100
1000
0100
0001
,
1000
1000
0010
0010
,
0100
0100
0002
0003
,
0001
0001
0010
0010
,
0100
0100
2000
3000
,
0001
0001
0010
0010
,
1000
1000
0020
0030
,
0001
0001
0100
0100
,
0001
1000
0100
0010
,
1001
0000
0000
0000
,
0000
0000
0000
0000
,
0110
0000
0000
0000
,
0000
0000
0000
0000
,
0001
0100
0001
0000
,
1000
0100
1000
0000
,
1000
0010
1000
0000
,
0001
0010
0001
0000
,
0200
0000
0000
0000
,
0000
0000
0300
0000
,
0020
0000
0000
0000
,
0000
0000
0030
0000
,
2000
0000
0000
0000
,
0000
0000
0002
0000
,
0000
0000
0000
0000
,
3003
0000
0000
0000
,
0000
0000
0000
0000
,
1000
0000
0100
0000
,
0001
0000
0010
0000
,
0001
0001
0100
0100
,
0010
0010
2000
3000
,
1000
1000
0100
0100
,
0010
0010
0002
0003
,
1000
1000
0100
0100
,
0001
0001
0200
0300
,
1000
1000
0010
0010
,
1000
0001
0010
0100
,
1000
1000
0100
0100
,
1000
0001
0100
0010
,
2000
3000
0002
0003
,
0001
1000
0001
1000
,
2002
0000
0000
0000
,
0000
0000
0000
0000
,
3003
0000
0000
0000
;

//--------------- dance-single - ----------------
#NOTEDATA:;
#STEPSTYPE:dance-single;
#DESCRIPTION:;
#DIFFICULTY:Medium;
#METER:12;
#RADARVALUES:0,0,0,0,0;
#CREDIT:Kikoia;
#NOTES:
0000
0000
0000
0000
,
0000
0000
0000
0000
,
0000
0000
0000
0000
,
2000
3200
0302
0023
,
0000
0000
0000
0000
,
0000
0000
0000
0030
,
0001
1000
0100
0000
0010
0001
1000
0000
,
0010
0100
0001
0000
0010
0100
2000
0000
,
3001
0100
0001
0100
0010
1000
0010
1000
,
0200
0000
0020
0330
,
1000
0001
0100
0000
0010
1000
0001
0000
,
0010
0100
1000
1000
0001
0001
2000
0000
,
3100
1000
0100
1000
0001
0010
0001
0010
,
0002
0000
2000
3003
,
0002
0000
0203
0000
1300
0100
0001
0000
,
2000
0000
3200
0000
0301
0100
1000
0000
,
0010
1000
0100
0000
0010
0001
0100
0000
,
0002
0000
2000
3003
,
1000
0000
0100
0000
0010
0001
0002
0000
,
0103
0000
0010
0000
1000
1000
2000
0000
,
3001
0010
1000
0000
1000
0010
0001
0000
,
0200
0000
0020
0330
,
1001
0000
0000
0000
,
0001
0000
0000
0000
,
0100
0000
0000
0000
,
0010
0000
0010
1000
,
0100
0000
0000
0000
,
0010
0000
0000
0000
,
0001
0000
0000
1000
0000
0000
2002
0000
,
0000
0000
0000
0000
,
0000
0000
0000
3003
,
1000
0000
0000
0001
0100
0000
0010
0000
1000
0000
0000
0001
0010
0000
0100
0000
,
1000
0000
0000
0001
0010
0000
0001
0000
0100
0000
0000
0000
0101
0000
0000
0000
,
1000
0000
0000
0010
0100
0000
0001
0000
1000
0000
0000
0100
0010
0000
0001
0000
,
0100
0000
0000
0001
0010
0000
0001
0000
1000
0000
0000
0000
1001
0000
0000
0000
,
0001
0000
0000
0100
0010
0000
0100
0000
0001
0000
0000
1000
0100
0000
0010
0000
,
0100
1000
0001
0100
2000
0000
3100
0001
,
2000
0000
3000
1000
0002
0000
0003
0001
,
2000
3200
0320
0032
,
0103
0101
0000
0110
0000
1010
0000
1100
,
0000
1000
0002
0000
0010
0010
0010
0000
,
0003
1100
0000
0110
0000
0011
0000
0101
,
0000
0001
2000
0000
0010
0010
0010
0000
,
3000
1001
0000
1010
0000
1001
0000
0011
,
0000
1000
0200
0000
0010
0010
0010
0000
,
2300
3200
0320
0032
,
0203
2300
3020
0031
,
1001
0000
0000
0000
,
0000
0000
0000
0000
,
1000
0000
0001
0100
0001
0000
0000
0000
0001
0000
1000
0100
1000
0000
0000
0000
,
0020
0000
0200
0330
,
0001
1000
0010
0010
1000
0001
0010
0010
,
0001
1000
0100
0100
1000
0001
0100
0100
,
0001
0010
0200
0000
1300
0010
0200
0000
,
0302
0000
2000
3003
,
1001
0000
0000
0000
,
2000
0000
0000
0010
0020
0000
3030
0000
,
0001
0000
0100
0000
,
0010
0000
0000
0010
0000
0000
1000
0000
0001
0000
0000
0000
0000
0000
0000
0000
,
1000
0000
0100
0000
,
0020
0000
0000
0001
0002
0000
0000
0000
,
0000
0000
0000
0033
,
1000
0001
0100
1000
,
0100
0010
1000
0001
,
2000
3200
0302
0203
,
0320
0032
2003
3020
,
0130
0001
0000
0101
0000
1100
0000
1010
,
0000
0001
0020
0000
0100
0100
0100
0000
,
0030
0011
0000
1010
0000
1100
0000
0101
,
0000
1000
0020
0000
0100
0100
0100
0000
,
0030
0110
0000
1001
0000
0110
0000
1001
,
0000
1000
0002
0000
0010
0010
0013
0000
,
0002
0203
0320
2030
,
3002
0023
2030
3200
,
0302
2003
3200
0320
,
0032
2003
3020
0032
,
0103
0100
0010
0010
,
1000
0001
1001
0110
,
2002
0000
0000
0000
,
0000
0000
0000
0000
,
3003
0000
0000
0000
;

//--------------- dance-single - ----------------
#NOTEDATA:;
#STEPSTYPE:dance-single;
#DESCRIPTION:;
#DIFFICULTY:Hard;
#METER:15;
#RADARVALUES:0,0,0,0,0;
#CREDIT:Kikoia;
#NOTES:
0000
0000
0000
0000
,
0000
0000
0000
0000
,
0000
0000
0000
0000
,
0002
2003
3200
0020
,
0000
0000
0000
0000
,
0000
0000
0000
0330
,
1001
0000
0001
0100
0001
0000
1000
0000
0100
0010
0001
0000
0100
0000
0010
0000
,
1000
0100
0001
0100
1000
0010
0100
0000
,
0001
0000
0010
0100
0010
0000
0001
0000
1000
0000
0010
0000
0100
0000
0001
0000
,
0040
0000
0000
0000
0430
0000
0000
0300
,
2001
0000
0010
0000
3010
0000
1000
0000
0100
0000
0010
0001
0000
0001
1000
0000
,
0010
0001
0010
1000
0001
0010
0200
0000
,
1300
0000
0010
0100
0010
0000
1000
0000
0100
0000
0010
0000
0001
0000
0100
0000
,
0040
0000
0000
0000
0430
0000
0000
0300
,
1001
0001
0010
0001
1000
1000
0010
0010
,
1000
0001
0010
0100
0002
0000
0203
0000
,
1300
0000
0010
0100
0010
0000
0001
0000
0010
0000
1000
0000
0100
0000
1000
0000
,
0040
0000
0430
0300
,
1001
0000
1000
0000
0100
0000
0010
0000
0001
1000
0010
0000
0010
0000
0000
0000
,
1000
0000
0001
1000
0100
0000
1000
0000
0002
0000
0010
0000
0013
0000
0000
0000
,
0001
1000
0010
0001
1000
0100
0001
0010
,
0400
0000
0000
0000
0000
0000
0000
0000
0340
0000
0030
0000
0001
1000
0001
1000
,
0010
0000
0000
0000
,
1000
0000
0000
0000
,
0001
0000
0010
0010
,
0200
0000
1300
0001
,
0100
0000
0000
0000
,
0010
0000
0000
0000
,
1000
0000
0000
1000
0000
0000
0002
0000
,
0000
0000
0000
0000
,
0010
0000
0000
0000
0013
0000
0000
0000
0001
0100
0000
0000
0001
1000
0100
0010
,
0001
0000
0100
0010
0000
0010
1000
0000
0001
0000
0010
0100
0000
0100
1000
0000
,
0010
0000
1000
0001
0000
0001
0010
0000
0100
0000
0000
0000
0110
0000
0000
0000
,
1001
0000
1000
0100
0000
0100
0010
0000
0001
0000
1000
0010
0000
0010
0100
0000
,
0001
0000
0010
0001
0000
0001
0100
0000
0010
0000
0000
0000
0110
0000
0000
0000
,
1001
0000
1000
0100
0000
0100
0001
0000
0100
0000
1000
0001
0000
0001
0100
0000
,
0010
0001
0010
1000
0001
0010
0100
1000
,
0020
0000
0000
0000
0030
0000
0010
0000
0200
0000
0000
0000
0300
0000
0001
0100
,
0000
0000
1000
0100
0000
0000
0001
0010
0000
0000
1000
0010
0000
0000
1000
0001
,
1000
0100
0001
0100
1000
0100
0001
0100
,
1000
0000
0010
0000
0010
0000
1000
0100
0010
0000
0010
0000
0020
0000
0000
0000
,
0031
0100
1000
0100
0001
0100
1000
0100
,
0001
0000
0010
0000
0010
0000
0001
0100
0010
0000
0010
0000
0020
0000
0000
0000
,
1030
0100
0001
1000
0001
0100
1000
0001
,
0100
0000
1000
0000
1000
0000
0100
0001
0010
0000
0010
0000
0020
0000
0000
0000
,
0032
0100
2003
0100
3002
0100
2003
0100
,
3002
0010
2003
0010
3002
0010
2003
3010
,
0110
0000
0000
0000
,
0000
0000
0000
0000
,
1001
0000
1000
0100
0010
0000
0001
0000
0100
0000
0010
1000
0100
0000
1000
0000
,
0040
0000
0000
0000
0430
0000
0000
0300
,
1001
0000
0001
0100
0001
0000
0100
0010
0100
0000
0010
1000
0010
0000
1000
0001
,
1000
0000
0100
0010
0100
0000
0010
0001
0010
0000
0001
1000
0001
0000
0100
0000
,
1001
0000
0001
0010
0001
0000
1000
0010
1000
0000
0100
0000
0100
0000
0100
0000
,
0040
0000
0000
0000
0430
0000
0000
0300
,
1001
0000
0000
0000
,
0001
0000
0000
0001
0000
0000
1000
0000
0020
0000
0000
0000
0030
0000
0000
0000
,
1000
0000
0000
0100
0000
0000
0001
0000
0100
0000
1000
0001
0000
0000
0100
0000
,
0010
0000
0000
0010
0000
0000
1000
0000
0002
0000
0000
0000
0003
0000
0000
0000
,
0001
0000
0000
0100
0000
0000
0010
0000
0100
0000
0000
0001
0000
0000
0010
0000
,
0200
0000
0000
0010
0020
0000
0000
0000
,
0000
0000
0000
0330
,
0002
0203
0320
2030
,
3200
0320
0032
2003
,
3020
0032
0023
2030
,
3100
1100
0101
1001
,
0001
0010
1000
0010
0001
0010
1000
0010
,
0001
0000
0100
0000
0100
0000
0001
1000
0010
0000
0010
0000
0020
0000
0000
0000
,
1030
0010
0001
0010
1000
0010
0001
0010
,
1000
0000
0100
0000
0100
0000
1000
0001
0010
0000
0010
0000
0020
0000
0000
0000
,
0031
0100
1000
0001
1000
0100
0001
1000
,
0100
0000
0001
0000
0001
0000
0100
1000
0010
0000
0010
0000
0020
0000
0000
0000
,
2030
0100
3002
0100
2003
0100
3002
0100
,
2003
0010
3002
0010
2003
0010
3002
0010
,
2003
0100
3200
0010
0320
0001
0032
0100
,
0203
0010
0320
1000
2030
0001
3002
0013
,
0022
0033
0220
0330
2200
3300
2020
3030
,
0202
0303
0022
0033
2200
3300
0110
0100
,
2002
0000
0000
0000
,
0000
0000
0000
0000
,
3003
0000
0000
0000
;
