#TITLE:OVER VOLTAGE;
#SUBTITLE:;
#ARTIST:Yuta Imai;
#TITLETRANSLIT:;
#SUBTITLETRANSLIT:;
#ARTISTTRANSLIT:;
#GENRE:;
#CREDIT:;
#BANNER:;
#BACKGROUND:;
#LYRICSPATH:;
#CDTITLE:;
#MUSIC:OVER VOLTAGE.ogg;
#OFFSET:-0.696000;
#SAMPLESTART:64.779999;
#SAMPLELENGTH:12.000000;
#SELECTABLE:YES;
#BPMS:0.000000=160.000000
;
#STOPS:
;
#BGCHANGES:;
#KEYSOUNDS:;
#ATTACKS:;

//---------------dance-single - ----------------
#NOTES:
     dance-single:
     :
     Hard:
     16:
     0.888957,0.990698,0.310339,0.867358,1.018549,782.000000,743.000000,39.000000,109.000000,0.000000,0.000000,0.888957,0.990698,0.310339,0.867358,1.018549,782.000000,743.000000,39.000000,109.000000,0.000000,0.000000:
// measure 0
0000
0000
0000
0000
,  // measure 1
0000
0000
0000
0000
,  // measure 2
0000
0000
0000
0000
,  // measure 3
0000
0000
0000
0000
,  // measure 4
0000
0000
0000
0000
,  // measure 5
2001
0100
0000
0100
0000
0100
0000
0100
,  // measure 6
3002
0100
0000
0103
1010
0010
0101
0001
,  // measure 7
1002
0000
0010
0000
0000
0000
0010
0000
0000
0000
0010
0000
0003
0000
0010
0001
,  // measure 8
2000
0100
0000
3100
1000
1000
0001
0001
,  // measure 9
1000
0000
0010
0000
0100
0000
0001
1000
0100
0000
0010
0000
0001
0000
1000
0001
,  // measure 10
0100
0010
1000
0001
0010
0100
0002
0203
,  // measure 11
2300
0000
0000
0000
0000
0000
3001
0000
0100
0001
0000
0100
0010
0000
1000
0000
0000
0001
0000
0000
0001
1000
0000
0000
,  // measure 12
0001
0000
0010
0100
0000
0000
1000
0000
0000
1000
0000
0000
0001
0000
0000
0100
0000
0010
0000
0000
0100
0010
0000
0000
,  // measure 13
2000
0000
0000
3001
0000
0000
1000
0000
0100
1000
0000
0100
0010
0000
0001
0000
0000
1000
0000
0000
1000
0001
0000
0000
,  // measure 14
1000
0000
0001
0010
0000
0000
0100
0000
0000
0100
0000
0000
1000
0000
0000
0001
0000
1000
0000
0000
0001
1000
0000
0000
,  // measure 15
0020
0000
0000
0230
0000
0000
0301
0000
0100
0001
0000
1000
0001
0000
0010
0000
0000
0100
0000
0000
0100
1000
0000
0000
,  // measure 16
0001
0000
1000
0010
0000
0000
0100
0000
0000
0002
0000
0000
1000
0000
0000
1000
0000
0000
1000
0000
0000
1003
0000
0000
,  // measure 17
0001
0000
0010
0100
0000
0000
1000
0000
0001
0100
0000
0000
0010
0000
1000
0010
0000
1000
0001
0000
1000
0001
0000
1000
,  // measure 18
0200
0320
0032
2003
3020
0230
2300
3200
,  // measure 19
0301
1000
0020
0000
1030
0001
1000
0001
0020
0000
0031
1000
0001
1000
0020
0000
,  // measure 20
0130
0001
0020
0000
0031
0100
0001
1000
0001
1000
0100
1000
0020
0000
1030
0001
,  // measure 21
0100
0001
0020
0000
0130
0020
0000
1030
0020
0000
0130
0020
0000
0031
0100
0001
,  // measure 22
1000
0100
1000
0000
0100
0000
0100
0000
1000
0020
0000
0031
0020
0030
0020
0030
,  // measure 23
1000
0001
0100
0000
0001
1000
0100
0000
1000
0001
1000
0001
0100
0020
0000
1030
,  // measure 24
0100
0000
0000
1000
0000
0000
0001
0000
0000
0000
0000
0000
0100
0000
0000
0001
0000
0000
1000
0000
0000
0000
0000
0000
0001
0000
0000
0000
1000
0000
0000
0000
0100
0000
0000
0000
0001
0000
0000
0000
0100
0000
0000
0000
1000
0000
0000
0000
,  // measure 25
0020
0000
0130
0020
0000
0031
0020
0000
1030
0001
0100
0001
1000
0100
1000
0001
,  // measure 26
0200
0000
1000
0000
0301
1000
2002
3003
,  // measure 27
1200
0300
0210
1300
0201
0300
0210
0301
,  // measure 28
1200
0000
0300
0000
0210
0000
1300
0001
0100
0001
1000
0100
0020
0000
0031
0010
,  // measure 29
0210
0000
0300
0000
2100
0000
3001
0000
1020
0000
0030
0000
0102
0000
1003
0100
,  // measure 30
0210
0300
0021
0030
1002
0000
1003
0001
0200
0000
0010
0000
0302
0000
0000
0000
,  // measure 31
1003
0001
0010
0100
0010
0001
0100
0010
1000
0100
0010
0001
,  // measure 32
0001
1000
0010
0100
0010
1000
0001
0010
0100
1000
1000
0001
,  // measure 33
1000
0010
0001
1000
0100
0001
1000
0100
0001
1000
0010
0001
,  // measure 34
2000
3020
0130
1002
,  // measure 35
0023
0000
0000
0000
,  // measure 36
0230
0000
0000
0000
,  // measure 37
2300
0000
0000
0000
,  // measure 38
3002
0000
0000
0000
0000
0000
0000
0000
1003
0100
1000
0100
0010
0001
0010
0001
,  // measure 39
1000
0000
0000
0000
1010
0000
0000
1000
0000
0000
0001
0000
1000
0000
0000
1000
,  // measure 40
0100
0000
0100
0000
0011
0000
0000
0001
0000
0001
1000
0000
0001
0000
0000
0001
,  // measure 41
0100
0000
0000
0000
1010
0000
0000
1000
0000
0000
0001
0000
0010
0000
0000
0010
,  // measure 42
0100
0000
0100
0000
0011
0000
0000
0001
0000
0001
0100
0000
2000
0000
3200
0000
,  // measure 43
0302
0000
0000
0000
0013
0100
0010
0002
0000
1003
0010
0000
0100
0000
0010
0000
,  // measure 44
2000
0000
0001
0000
3100
0010
0100
2000
0000
3001
0100
0010
0000
1000
0001
0000
,  // measure 45
0020
0000
0100
0000
0031
1000
0001
0200
0000
0310
1000
0000
0100
0000
1000
0000
,  // measure 46
0002
0000
0010
0000
1003
0001
1000
0010
0000
0000
0210
0000
0000
0001
0300
0001
,  // measure 47
1000
0000
1000
0000
1002
0000
0103
0020
0000
1030
0001
0000
0100
0000
0001
0000
,  // measure 48
2000
0000
0010
0000
3100
0010
0001
2000
0000
3001
0100
0020
0000
1030
0001
0010
,  // measure 49
0100
0000
0010
0000
0001
0000
1000
0010
0100
0000
0010
0000
1000
0000
0001
0010
,  // measure 50
0100
1000
0100
1000
0001
1000
0001
1000
0010
0100
0010
0100
2000
0000
3200
0000
,  // measure 51
0301
0000
0001
0000
1000
0000
1000
0000
0100
0000
0100
0000
0010
0000
0010
0001
,  // measure 52
1000
0000
1000
0000
0001
0000
0001
0000
0100
0010
0000
0010
1000
0000
1000
0001
,  // measure 53
1000
0000
1000
0000
0100
0000
0100
0000
0001
0000
0001
0000
0100
0000
0100
0010
,  // measure 54
0001
0000
0001
0000
0100
0000
0100
0000
1000
0100
0000
0100
0020
0000
0000
0000
,  // measure 55
0130
0001
0100
0001
1000
0100
1000
0100
0010
0001
1000
0020
0100
0000
0130
0000
,  // measure 56
0010
1000
0010
1000
0001
0010
0001
0010
0200
0000
2300
0000
3001
0100
0020
0000
,  // measure 57
1030
0100
1000
0001
0100
0010
1000
0001
1000
0100
0010
0001
1000
0001
0100
0010
,  // measure 58
2000
0000
0001
0000
3001
0000
2002
3003
,  // measure 59
0001
0000
0010
0000
0100
1000
0000
1000
0001
0000
0100
0000
0010
0100
0000
0100
,  // measure 60
0001
0000
0010
0000
0100
0010
0000
0010
0001
0000
1000
0000
0001
0000
0100
0010
,  // measure 61
1000
0000
0001
0010
0100
0000
0100
0010
1000
0000
1000
0000
0010
0000
0010
0001
,  // measure 62
1000
0010
0100
0000
0100
0010
0000
0010
0001
0000
0010
1000
0002
0000
0013
0100
,  // measure 63
1000
0000
0010
0000
0100
0001
0000
0001
1000
0000
0100
0000
0010
0100
0000
0100
,  // measure 64
1000
0000
0010
0000
0100
0010
0000
0010
1000
0001
0000
0001
1000
0000
0100
1000
,  // measure 65
0001
0100
0020
0000
0130
0001
1000
0001
0020
0000
0130
1000
0000
1000
0020
0000
,  // measure 66
0230
0000
0010
0000
0010
0000
2300
3200
,  // measure 67
0302
0000
1000
0000
0013
0100
0000
0100
1000
0000
0010
0000
1000
0100
0000
0100
,  // measure 68
0001
0000
0100
0000
0010
0001
0000
0001
1000
0000
0010
0000
0001
0000
0010
0100
,  // measure 69
0001
0000
1000
0100
0010
0000
0010
0100
0001
0000
0001
0000
0100
0000
1100
0000
,  // measure 70
0001
0100
1000
0000
1000
0100
0000
0001
0000
1000
0100
0000
0002
0000
0203
0000
,  // measure 71
0310
0000
0010
0000
0001
0100
0001
0100
0010
0000
0010
0000
1000
0100
1000
0100
,  // measure 72
0010
0000
0010
0000
0001
1000
0001
1000
0010
0000
0001
0000
0010
0000
0100
0001
,  // measure 73
1000
0001
0020
0000
0130
1000
0001
1000
0020
0000
1030
0001
0100
0001
0020
0000
,  // measure 74
0130
1000
0001
0100
0001
1000
0100
1000
0020
0000
0100
0000
0130
0000
0000
0000
,  // measure 75
0101
0000
0000
0110
0000
0000
0001
1000
0100
0000
0110
0000
0020
0000
0000
0000
,  // measure 76
0031
1000
0000
1000
0010
0001
0010
1000
0002
0000
0023
0000
0230
0000
0300
0000
,  // measure 77
1100
0000
0000
0110
0000
0000
1000
0001
0100
0000
0110
0000
0020
0000
0000
0000
,  // measure 78
2030
0000
0000
0000
3100
0010
0100
0010
0002
0000
0000
0000
0103
0010
0100
0010
,  // measure 79
1010
0000
0000
0000
0000
0000
0000
0000
0000
0110
0000
0000
0000
0000
0000
0000
0000
0000
1000
0000
0000
0001
0000
0000
0010
0000
0000
0000
0000
0000
0110
0000
0000
0000
0000
0000
0100
0000
0000
0000
1000
0000
0000
0000
0001
0000
0000
0000
,  // measure 80
0011
0000
0000
0110
0000
0000
0001
1000
0010
0000
0110
0000
0100
0001
1000
0000
,  // measure 81
0001
0000
0001
0000
1000
0000
1000
0000
0001
1000
0001
1000
0001
1000
0001
1000
,  // measure 82
0100
0010
0001
1000
0010
0100
0001
0010
0001
1000
0001
0100
2000
0000
3200
0000
,  // measure 83
0300
0000
0000
0000
;

//---------------dance-single - ----------------
#NOTES:
     dance-single:
     :
     Medium:
     14:
     0.654781,0.759535,0.238722,0.612721,0.318296,576.000000,546.000000,30.000000,77.000000,0.000000,0.000000,0.654781,0.759535,0.238722,0.612721,0.318296,576.000000,546.000000,30.000000,77.000000,0.000000,0.000000:
0000
0000
0000
0000
,
0000
0000
0000
0000
,
0000
0000
0000
0000
,
0000
0000
0000
0000
,
0000
0000
0000
0000
,
1000
0001
0000
0001
0000
0001
0000
0001
,
0010
0100
0000
0100
1000
0100
0001
0100
,
1000
0001
0000
0100
0000
0010
0000
1000
,
0001
1000
0000
0100
0010
0001
0010
0001
,
1000
0000
0001
0100
0010
0000
1000
0100
,
0010
0001
0100
0001
1000
0010
0200
0302
,
2003
0000
3001
0100
1000
0100
0001
0000
,
0010
0001
0100
0001
1000
0010
0200
0000
,
0302
0000
1003
0100
0001
0100
1000
0000
,
0001
0100
0010
1000
0001
0001
0001
0000
,
0010
0100
1001
0000
1000
0001
0100
0000
,
0001
0100
1000
0100
0001
0001
0001
0001
,
1000
0100
0010
0001
0100
0010
1000
0001
,
2000
0000
0000
0000
0000
0000
3001
0100
,
0110
0000
0000
0000
0110
0000
0000
0000
1010
0000
0000
0000
1010
0000
1000
0001
,
1000
0000
0000
0000
1100
0000
0000
0000
0110
0000
0000
0100
0000
0000
0010
0000
,
0001
0010
0001
0000
0011
0000
0000
0000
1001
0000
0000
0000
0101
0000
0100
0001
,
1000
0000
0000
0000
1100
0000
0100
0000
0010
0001
0000
0010
0001
0000
1000
0000
,
0001
0100
0001
0100
1000
0100
0001
0000
,
1000
0000
0000
0100
0000
0000
1000
0000
0000
0100
0000
0000
0010
0000
0001
0000
0010
0000
0001
0000
1000
0000
0001
0000
,
0100
0010
1000
0001
0010
0100
1000
0001
,
0200
0010
0310
1001
,
0202
0303
0202
0303
2200
3300
2200
3300
,
0220
0000
0330
0000
0220
0000
0330
0000
2002
0000
3003
0000
1001
0000
0001
0010
,
0200
0000
0300
0000
2200
0000
3300
0000
0022
0000
0033
0000
0011
0000
0010
0001
,
1000
1000
0020
0030
0220
0330
2000
0000
,
3001
0000
0001
0010
0000
0010
0100
0000
0100
1000
0000
0001
,
1000
0000
1000
0010
0000
0010
0100
0000
0100
0001
1000
0001
,
1000
0100
1000
0001
0100
0001
1000
0100
0010
0001
1000
0001
,
0200
0000
0010
0000
0310
0000
2001
3000
,
0200
0000
0000
0000
,
0320
0000
0000
0000
,
0032
0000
0000
0000
,
2003
0000
3002
0203
,
0310
0000
0000
0000
1000
0000
0000
1000
0000
0000
0001
0000
0010
0000
0000
0000
,
0100
0000
0000
0000
0010
0000
0000
0010
0000
0000
0001
0000
1000
0000
0000
0000
,
1010
0000
0000
0000
0001
0000
0000
0001
0000
0000
0100
0000
0010
0000
0000
0000
,
1000
0000
0001
0000
1001
0000
0000
0001
0000
0000
1000
0000
0200
0000
0000
0000
,
0320
0030
0010
0001
0100
0001
0010
0001
,
1000
0010
0100
0010
0001
0010
1000
0000
,
0010
1000
0010
1000
0100
1000
0100
1000
,
0001
0010
0100
0010
1000
0010
0100
0100
,
0010
0010
1001
0000
1000
0010
0001
0010
,
1000
0000
0001
0000
1000
0000
0001
0000
0010
0000
0100
0000
1000
0000
0001
1000
,
0001
0000
0000
0000
0010
0000
0100
1000
0001
0000
0000
0000
1000
0000
0001
0100
,
0010
0010
1000
1000
0100
0100
0020
0032
,
1003
0010
0100
0010
1000
0001
0010
0010
,
0100
0000
0010
0000
0001
0000
0010
0000
0100
1000
0000
1000
0001
0000
0001
0000
,
1000
0010
0001
0010
0100
0010
1000
1000
,
0001
0010
1000
0010
0100
0010
0002
0003
,
1000
0100
1000
0000
0010
0000
0100
0000
0001
0000
1000
0100
0020
0000
0000
0000
,
0031
0100
0001
0000
0010
0000
0100
0000
2000
0000
3002
0000
0103
0010
2000
0000
,
3020
0230
0302
2003
,
3200
0010
0310
1001
,
0001
0100
0010
1000
0100
0001
0100
1000
,
0001
0100
0010
1000
0001
0010
1000
0010
,
0001
0000
1000
0000
0010
0000
0100
0001
0100
0000
0010
0000
1000
0000
0001
0000
,
1000
0001
1000
0000
0100
0010
0000
0100
0010
0000
0001
0000
2000
0000
3010
0000
,
1000
0100
0010
0001
0100
1000
0100
0001
,
1000
0000
0100
0000
0010
0000
0001
0000
1000
0010
0000
1000
0010
0000
0100
0000
,
0001
0000
0010
0000
1000
0000
0010
0000
0001
0000
0000
1001
0000
0000
0001
0000
,
0200
0000
0010
0000
0310
0000
2000
3002
,
1003
0000
0100
0000
0010
0000
0001
0010
0001
0000
0100
0000
0010
0000
1000
0010
,
1000
0000
0100
0000
0010
0000
0001
0010
0001
0000
1000
0000
0010
0000
0100
0010
,
0100
0000
0002
0000
2003
0000
3100
0010
0200
0000
0320
0000
0032
0000
2003
0000
,
3001
0100
0001
0000
1000
0010
0000
0100
0000
0010
1000
0000
0002
0000
2003
0000
,
3001
0000
0010
0000
0100
0000
1000
0001
1000
0000
0010
0000
0100
0000
0001
1000
,
0001
0000
0010
0000
0100
0000
1000
0001
0100
0000
0010
0000
0100
0000
0001
1000
,
0100
1000
0100
0000
0010
0000
0001
0000
0100
0001
0100
0000
0010
0000
0100
0000
,
0001
1000
0001
1000
0001
0000
0010
0000
0200
0000
0000
0000
0310
0000
0000
0000
,
0001
0000
0000
0001
0000
0000
1000
0001
1000
0000
0010
0000
0200
0000
0000
0000
,
0320
0000
0000
0000
1030
0001
1000
0001
2000
0000
0000
0000
3200
0000
0300
0000
,
1000
0000
0000
1000
0000
0000
0001
1000
0001
0000
0100
0000
0020
0000
0000
0000
,
2030
0000
3001
0100
2000
0000
3100
0001
,
1000
0000
0000
1000
0000
0000
0100
0010
0001
0000
0001
0000
2000
0000
0000
0000
,
3001
0000
0000
0001
0000
0000
0100
0010
1000
0000
0001
0000
2000
0000
0000
0000
,
3001
0000
1000
0000
0001
0000
1000
0000
0001
1000
0001
1000
0001
1000
0001
1000
,
0200
0000
0010
0000
0310
0000
2000
3002
,
0003
0000
0000
0000
;

//---------------dance-single - ----------------
#NOTES:
     dance-single:
     :
     Easy:
     8:
     0.371725,0.527576,0.342169,0.421743,0.000000,327.000000,284.000000,43.000000,53.000000,0.000000,0.000000,0.371725,0.527576,0.342169,0.421743,0.000000,327.000000,284.000000,43.000000,53.000000,0.000000,0.000000:
0000
0000
0000
0000
,
0000
0000
0000
0000
,
0000
0000
0000
0000
,
0000
0000
0000
0000
,
0000
0000
0000
0000
,
1001
0000
0000
0000
,
0100
0000
0010
0010
,
1001
0000
0000
0000
,
0110
0000
0001
0001
,
1000
0100
0010
0100
,
1000
0100
0010
0002
,
1003
1000
0010
1000
,
0001
0100
0001
0000
,
0001
0001
0010
0001
,
1000
0100
1000
0000
,
0010
0010
1000
0010
,
0100
0001
2000
0000
,
3100
0010
0001
1000
,
0002
0000
0000
1003
,
1001
1001
1001
0000
,
1100
1100
1100
0000
,
0101
0101
0101
0000
,
1001
1001
1001
0000
,
1001
0101
1001
0000
,
1001
1100
1001
0000
,
0110
0110
1001
1001
,
0220
0000
0330
1001
,
0002
2003
3002
2003
,
3020
0000
0230
0000
0320
0000
0130
0010
,
0200
0302
2003
3002
,
1003
0001
2000
0000
3200
0000
0300
0000
,
1000
0100
0010
0100
,
1000
0100
0001
0100
,
1000
0001
0100
0010
,
2000
0000
3000
1001
,
0002
0000
0000
0003
,
2000
0000
0000
3000
,
0200
0000
0000
0300
,
0020
0000
0000
0030
,
0001
1000
0000
0001
,
1000
0100
0000
1000
,
0001
0010
0000
0001
,
1000
0010
0000
1000
,
0002
1003
0010
1000
,
0100
0100
0010
0001
,
2000
3001
0010
0001
,
0100
0100
0010
2000
,
3001
1000
0001
0000
1000
0000
0100
0000
,
0010
0100
0010
0000
0001
0000
1000
0000
,
1001
0100
1001
0010
,
0220
0000
0330
2000
,
3001
0100
1000
0100
,
0001
0100
0010
0010
,
1000
0100
0001
0100
,
1000
0100
0010
0020
,
0031
1000
0001
0000
0100
0000
0010
0000
,
1000
0001
1000
0000
0200
0000
0300
0000
,
0010
0100
0010
0000
0100
0010
0100
0000
,
2000
0000
3000
1001
,
0001
0100
1000
0100
,
0001
0100
0010
1010
,
2000
3200
0320
0032
,
2003
0000
3020
0000
0230
0000
0301
1000
,
0001
0010
1000
0010
,
0001
0000
0010
0000
0100
0010
0100
0000
,
0110
1000
1001
0001
,
0200
0000
0300
1001
,
1000
0100
0001
0100
,
1000
0000
0100
0000
0010
0100
0010
0000
,
0002
0203
0320
2030
,
3002
0000
0023
0000
0230
0000
0310
0100
,
1000
0010
0001
0010
,
1000
0000
0010
0000
0100
0010
0100
0000
,
0110
0001
1001
1000
,
0200
0000
0300
1001
,
1100
0000
0000
0000
0001
1000
0001
0000
,
0200
0000
0310
1000
0002
0000
0103
0000
,
0101
0000
0000
0000
1000
0001
1000
0000
,
0002
0000
0013
0100
2000
0000
3001
0010
,
0011
0000
0001
0000
0010
0100
1000
0000
,
1010
0000
1000
0000
0010
0100
0001
0000
,
1000
0001
1000
0001
1000
0001
1000
0001
,
0020
0000
0000
0000
0000
0000
0031
1000
;
