#VERSION:0.83;
#TITLE:OTENAMI Hurricane;
#SUBTITLE:;
#ARTIST:t+pazolite;
#TITLETRANSLIT:;
#SUBTITLETRANSLIT:;
#ARTISTTRANSLIT:;
#GENRE:POP BREAKCORE;
#CREDIT:;
#MUSIC:OTENAMI Hurricane.ogg;
#BANNER:OTENAMI Hurricane.png;
#BACKGROUND:OTENAMI Hurricane-bg.png;
#CDTITLE:./CDTitles/bm IIDX 24 SINOBUZ.png;
#SAMPLESTART:84.670;
#SAMPLELENGTH:15.000;
#SELECTABLE:YES;
#OFFSET:0.987;
#BPMS:0.000=215.000;
#STOPS:;
#TIMESIGNATURES:0.000=4=4;
#BGCHANGES:0.000=OTENAMI Hurricane.mp4=1.000=0=0=0=StretchNoLoop====,
99999.000=-nosongbg-=1.000=0=0=0=StretchNoLoop====
;
#FGCHANGES:;

//--------------- dance-single - forcednature ----------------
#NOTEDATA:;
#STEPSTYPE:dance-single;
#DESCRIPTION:forcednature;
#DIFFICULTY:Beginner;
#METER:5;
#RADARVALUES:0,0,0,0,0;
#CREDIT:forcednature;
#NOTES:
0000
0000
0000
0000
,
0000
0000
0000
0000
,
0000
0000
0000
0000
,
0000
0000
0000
0000
,
0000
0000
0000
0000
,
0002
0000
0000
0000
,
0003
0000
0000
0000
,
2000
0000
0000
0000
,
3000
0000
0000
0000
,
1001
0000
0000
0000
,
0110
0000
0000
0000
,
0001
0000
1000
0000
,
0020
0000
0030
0000
,
0100
0000
0100
0000
,
0001
0000
0000
0000
,
0010
0000
0010
0000
,
0001
0000
0000
0000
,
1001
0000
0000
0000
,
1000
0000
1000
0000
,
0001
0000
1000
0000
,
0001
0000
0000
0000
,
0100
0000
0100
0000
,
0010
0000
0000
0000
,
0010
0000
0010
0000
,
0100
0000
0000
0000
,
0001
0000
1000
0000
,
0001
0000
0000
0000
,
0010
0010
0010
0100
,
0000
0000
0000
0000
,
2000
0000
0000
0000
,
3000
0000
0000
0000
,
0002
0000
0000
0000
,
0003
0000
0000
0000
,
1001
0000
0000
0000
,
1000
0000
0010
0000
,
1001
0000
0000
0000
,
0001
0000
0010
0000
,
1001
0000
0000
0000
,
1000
0000
0100
0000
,
1001
0000
0000
0000
,
0001
0000
0100
0000
,
1001
0000
0000
0000
,
1000
0000
0010
0000
,
0110
0000
0000
0000
,
0002
0000
0003
0000
,
1001
0000
0000
0000
,
0110
0000
0000
0000
,
0001
0000
2000
0000
,
0000
0000
3000
0000
,
0001
0000
0000
0000
,
0001
0000
0000
0000
,
0010
0000
0000
0000
,
0010
0000
0100
0000
,
1000
0000
0000
0000
,
1000
0000
0000
0000
,
0010
0000
0000
0000
,
0200
0000
0300
0000
,
0001
0001
0001
0000
,
0001
0000
0001
0000
,
1000
1000
1000
0000
,
1000
0000
1000
0000
,
0010
0010
0010
0000
,
0010
0000
0010
0000
,
0100
0100
0100
0000
,
0020
0000
0030
0000
,
2002
0000
0000
0000
,
0000
0000
0000
0000
,
0000
0000
0000
0000
,
3003
0000
0000
0000
,
0010
0000
0010
0000
,
0100
0000
0000
0000
,
0001
0000
0001
0000
,
1000
0000
0000
0000
,
2002
0000
0000
0000
,
0000
0000
0000
0000
,
0000
0000
0000
0000
,
3003
0000
0000
0000
,
2000
0000
3000
0000
,
0002
0003
0000
0000
,
1000
0000
0001
0000
,
0200
0000
0300
0000
,
0010
0000
1000
0000
,
0001
0000
0010
0000
,
0100
0000
1000
0000
,
0002
0000
0003
0000
,
0100
0000
0001
0000
,
1000
0000
0100
0000
,
0010
0000
0001
0000
,
2000
0000
3000
0000
,
0010
0000
0100
0000
,
0001
0000
0100
0000
,
0010
0000
1000
0000
,
0002
0000
0003
0000
,
0010
0000
0100
0000
,
2000
0000
3000
0000
,
0010
0000
0010
0000
,
0200
0000
0300
0000
,
0001
1000
0001
0000
,
1000
0000
0100
0000
,
1000
0001
1000
0000
,
0001
0000
0100
0000
,
0010
0010
0010
0000
,
0100
0000
0010
0000
,
1000
0001
1000
0000
,
0001
0000
0010
0000
,
0200
0000
0000
0000
,
0300
0000
0000
0000
;

//--------------- dance-single - forcednature ----------------
#NOTEDATA:;
#STEPSTYPE:dance-single;
#DESCRIPTION:forcednature;
#DIFFICULTY:Easy;
#METER:9;
#RADARVALUES:0,0,0,0,0;
#CREDIT:forcednature;
#NOTES:
0000
0000
0000
0000
,
0000
0000
0000
0000
,
0000
0000
0000
0000
,
0000
0000
0000
0000
,
0000
0000
0000
0000
,
0002
0000
0103
0000
,
0001
0010
0001
0000
,
2000
0000
3100
0000
,
1000
0010
1000
0000
,
1001
0000
0000
1001
0000
0000
0000
0000
,
0110
0000
0000
0110
0000
0000
0000
0000
,
0001
0010
0100
1000
,
0020
0000
0030
0000
,
1000
0001
0010
0001
,
0100
0000
0001
1000
0001
0000
0000
0000
,
1000
0100
1000
0001
,
0100
0000
0001
1000
0001
0000
0000
0000
,
0010
0000
0010
0000
0100
0010
0100
0010
,
0000
0010
0100
0000
1000
0000
0001
0000
,
0100
0010
1000
0010
,
0100
0000
0001
1000
0002
0000
0003
0000
,
1001
0000
1000
0100
,
0010
0001
0200
0300
,
1001
0000
0001
0010
,
0100
1000
0020
0030
,
0100
0000
0001
0000
1000
0001
1000
0000
,
0001
0010
0100
0000
,
2000
3020
0230
0302
,
0000
0000
0000
0003
,
0000
1000
0001
0010
,
0100
0010
0001
1000
,
0000
0001
1000
0010
,
0200
0302
0203
0300
,
1001
0000
0000
0000
1000
0000
0010
1000
,
0010
0100
0001
0000
,
1001
0000
0000
0000
0001
0000
0010
0001
,
0010
0100
1000
0000
,
0110
0000
0000
0000
1000
0000
0001
0100
,
0001
1000
0100
0000
,
0110
0000
0000
0000
0001
0000
1000
0100
,
1000
0001
0100
0000
,
0110
0000
0000
0000
1000
0000
0010
0100
,
0010
1000
0001
0000
,
0110
0000
0000
0000
0001
0000
0010
0100
,
0010
0001
1000
0000
,
0001
0000
0100
0000
0010
0100
0010
0000
,
1000
0000
0100
0000
0010
0100
0010
0000
,
0001
0000
0100
0000
0001
1000
0001
0000
,
2000
0000
0000
3000
,
0001
0000
0001
0000
,
0001
0010
0100
1000
,
0010
0000
0010
0000
,
0010
1000
0100
0010
,
0001
0000
0001
0000
,
0001
0100
0010
1000
,
0100
0000
0010
0100
,
1000
0001
0100
0000
,
1001
1001
1001
1001
,
0010
0100
0010
0000
,
1001
1001
1001
1001
,
0100
0010
0100
0000
,
0110
0110
0110
0110
,
0001
0010
0100
0000
,
0110
0110
0110
0110
,
1000
0010
0100
0000
,
0001
1000
0002
0003
,
0020
0030
0200
0300
,
2000
3000
0002
0003
,
0200
0000
0300
0000
,
0010
1000
0020
0030
,
0200
0300
0002
0003
,
0020
0030
0200
0300
,
2000
0000
3000
0000
,
2002
0000
0000
0000
,
0000
0000
0000
0000
,
0000
0000
0000
0000
,
3003
0000
0000
0000
,
1000
0000
0000
1001
0000
0000
0000
0000
,
0010
0000
0000
1001
0000
0000
0000
0000
,
0001
0010
0100
1000
,
0020
0000
0000
0000
0000
0030
0000
0000
,
1000
0100
1000
0001
,
1000
0010
1000
0000
0001
0000
0010
0000
,
0100
1000
0010
0100
,
0002
1000
2000
3003
,
0001
0010
0001
1000
,
0100
1000
0100
0000
0010
0000
0110
0000
,
1000
0000
0001
1000
0000
1000
0001
0000
,
0200
0000
0300
0000
,
0010
0000
1000
0000
0010
0100
0010
0000
,
1000
0001
0100
0010
,
0100
0000
0001
0000
1000
0001
1000
0000
,
0200
0000
0300
0000
,
0010
0001
0100
0010
,
1000
0000
0100
0000
1000
0001
1000
0000
,
0001
0000
0000
1001
0000
0000
1000
0000
,
0020
0000
0030
0000
,
0100
0000
0001
0000
1000
0001
1000
0000
,
0001
0010
0200
0300
,
1000
0000
0100
0000
1000
0001
1000
0000
,
0010
0100
0002
0003
,
1000
0000
1000
0001
1000
0001
1000
0000
,
0010
0010
0200
0300
,
0001
0000
0000
0001
0000
0000
0010
0000
,
0100
0000
1000
0000
0010
0000
0000
2002
,
0000
0000
0000
0000
,
3003
0000
0000
0000
;

//--------------- dance-single - forcednature ----------------
#NOTEDATA:;
#STEPSTYPE:dance-single;
#DESCRIPTION:forcednature;
#DIFFICULTY:Medium;
#METER:12;
#RADARVALUES:0,0,0,0,0;
#CREDIT:forcednature;
#NOTES:
0000
0000
0000
0000
,
0000
0000
0000
0000
,
0000
0000
0000
0000
,
0000
0000
0000
0000
,
0000
0000
0000
0000
0000
0000
0001
1000
,
0002
0000
0000
0000
0000
0013
0100
1000
,
0200
0000
0000
0000
0300
0000
1000
0001
,
2000
0000
0000
0000
0000
3010
0100
0001
,
0200
0000
0300
0010
,
1001
0000
0000
1001
0000
0001
0010
0000
,
0110
0000
0000
0110
0000
1000
0010
0000
,
1000
1000
0002
0000
0013
0100
1000
0100
,
0020
0000
0000
0000
0030
0001
1000
0000
,
0010
0100
0010
0100
0000
0001
0100
0001
,
0000
1000
0100
0010
0001
0000
1000
0000
,
0001
0010
0001
0010
0000
0100
1000
0100
,
0000
1000
0001
0100
0010
0000
0000
0000
,
1000
0001
1000
1000
1000
0001
0001
0001
,
0100
0010
1000
0001
0200
0000
0320
0000
,
1030
0001
0010
0001
0001
1000
1000
0010
,
0000
0100
0001
1000
0200
0000
0300
0000
,
0010
0001
0010
0001
0100
0010
0100
0001
,
0000
0001
1000
0001
2000
0000
3000
0000
,
0010
1000
0010
1000
0100
0010
0100
1000
,
0000
0001
0100
0010
2000
0000
3002
0000
,
0013
0010
0001
0010
0001
1000
0001
0100
,
0000
0010
1000
0001
0200
0000
0300
0000
,
0010
1000
0100
1000
0001
0010
0100
2000
,
0000
0000
0000
3000
,
0000
0001
0100
0000
0001
0000
0010
0000
,
0100
1000
0002
2003
,
3000
0010
0100
0000
0010
0000
1000
0000
,
0100
1000
0001
1000
0200
0000
0300
0000
,
0110
0000
0010
0001
0010
0000
0100
0000
,
1000
0001
1000
0001
2000
0000
3000
0000
,
0110
0000
0010
1000
0010
0000
0100
0000
,
0001
1000
0100
1000
0002
0000
0003
0000
,
0011
0000
1000
0010
1000
0000
0001
0000
,
0010
0100
1000
0100
0020
0000
0030
0000
,
0101
0000
0001
1000
0001
0000
0010
0000
,
0100
1000
0001
1000
0020
0000
0030
0000
,
0100
0010
0100
0010
1000
0001
1000
0000
,
0010
0100
0001
0100
0020
0000
0030
0000
,
1000
0001
1000
0001
0010
0100
1000
0000
,
0002
0100
2000
3003
,
0100
1000
0100
1000
0001
0100
0010
0000
,
0100
0001
0100
0001
1000
0100
0010
0000
,
0001
1000
0001
1000
0010
0100
0001
2000
,
0000
0000
0000
3000
,
0100
0000
0000
0010
0100
0000
0000
0010
,
0100
1000
0100
1000
0100
0000
0010
0000
,
0001
0000
0000
1000
0001
0000
0000
1000
,
0001
0100
0001
0100
0010
0000
1000
0000
,
0001
0000
0000
0010
0001
0000
0000
0010
,
0001
0100
0001
0100
0010
0000
1000
0000
,
0100
0000
0000
0010
0001
0000
1000
0000
,
0010
0100
0001
0100
0020
0000
0030
0000
,
1001
1001
0110
0110
,
0001
1000
0001
0000
0020
0000
0030
0000
,
0110
0110
1001
1001
,
1000
0001
1000
0000
0020
0000
0130
0000
,
0101
0101
1010
1010
,
0001
0010
0001
0000
1000
0000
0100
0000
,
1000
0001
1000
0000
0010
0010
0010
0000
,
1000
0001
0100
0001
2000
0000
0000
0000
,
3100
0010
0100
1000
,
0010
0000
0100
0010
0000
0100
0001
0100
,
0000
0010
0000
0010
1000
0000
0001
0000
,
2000
0000
3000
0001
,
0010
0010
0001
1000
,
0100
0010
0100
1000
0000
0001
0000
0001
,
0100
0000
0010
1000
0010
0000
0100
0001
,
0200
0000
0300
0000
,
2001
0000
3200
0000
,
0320
0000
0032
0000
,
0203
0000
0320
0000
,
2000
0000
3030
0000
,
1001
0000
0000
1001
0000
0001
0010
0000
,
0110
0000
0000
0110
0000
1000
0010
0000
,
0100
0001
0100
0000
0010
1000
0001
1000
,
0200
0000
0000
0000
0000
0300
0000
0000
,
1000
0001
1000
0000
0010
0100
0010
0000
,
1000
0001
0010
0001
0000
1000
0010
1000
,
0000
0001
0000
0010
0100
0000
1000
0001
,
2000
0010
0001
3100
,
0001
0100
0001
0000
1000
0100
1000
0000
,
0001
0010
0100
1000
0010
0000
0110
0000
,
0100
0001
0100
0010
0000
1000
0001
1000
,
0200
0010
2000
3300
,
0001
0010
0001
0010
0100
1000
0100
1000
,
0010
0100
0001
0100
0000
0010
1000
0001
,
1000
0100
1000
0100
0010
0001
0010
0001
,
0100
0010
1000
0010
0100
0000
1001
0000
,
0001
0010
0100
1000
0001
0100
0001
1000
,
0100
0010
0001
1000
0020
0000
0030
0000
,
0100
0001
0100
0001
0000
0010
0100
1000
,
0200
0000
0300
0000
,
1000
0001
0100
0010
1000
0100
1000
0001
,
0000
0010
0100
1000
0010
0000
0110
0000
,
0100
0001
0100
0001
0010
0001
0100
0010
,
0000
1000
0100
0010
0002
0000
0003
0000
,
1000
0001
1000
1000
1000
0001
0001
0001
,
0010
0100
1000
0010
0100
0000
0110
0000
,
0001
1000
0100
1000
0000
0001
0010
0100
,
2000
0000
3010
0100
0001
0100
0000
2002
,
0000
0000
0000
0000
,
3003
0000
0000
0000
;

//--------------- dance-single - forcednature ----------------
#NOTEDATA:;
#STEPSTYPE:dance-single;
#DESCRIPTION:forcednature;
#DIFFICULTY:Hard;
#METER:15;
#RADARVALUES:0,0,0,0,0;
#CREDIT:forcednature;
#NOTES:
0000
0000
0000
0000
,
0000
0000
0000
0000
,
0000
0000
0000
0000
,
0000
0000
0000
0000
,
0000
0000
0000
0000
,
0001
0100
0001
0100
0001
0000
0010
0000
,
0100
1000
0100
0000
0010
0000
0110
0000
,
0000
1000
0001
1000
0001
0000
0100
0000
,
0010
1000
0001
0100
0010
0000
0110
0000
,
1001
0000
0000
1100
0000
0001
0010
0100
,
1000
0000
0000
0101
0000
1000
0010
0100
,
0001
0011
1000
1010
,
0220
0000
0000
0330
,
1000
0010
1000
0001
0010
0100
0100
0010
,
0000
0001
0010
0100
1000
0000
0110
0000
,
0001
0100
0001
1000
0100
0100
1000
0001
,
0000
0100
0010
0100
0020
0000
0030
0000
,
1000
0000
0001
0000
1000
0001
1000
0000
0010
0000
1000
0001
1000
0000
0001
0000
,
0010
0100
1000
0010
0100
0000
0110
0000
,
0001
0100
0001
0001
1000
0001
0001
0100
,
0000
0001
0010
0100
2000
0000
3000
0000
,
1010
0000
0010
0100
0000
0001
0100
1000
,
0000
0100
0010
0100
0002
0000
0003
0000
,
0011
0000
0010
0100
0000
1000
0100
0001
,
0000
0100
0010
0001
2000
0000
3002
0000
,
0103
0000
0100
0000
0010
0000
1000
0000
0010
0000
0100
0010
0100
0000
0001
0000
,
1000
0001
0010
0100
2000
0000
3000
0000
,
1000
0000
0100
0000
0010
0000
0001
0000
1000
0000
0010
0100
0001
0000
0020
0000
,
0000
0000
0000
0030
,
0000
0001
1000
0001
0100
0010
0100
0001
,
1000
0100
0010
0100
1000
0000
0001
0000
,
0000
0100
0010
0100
0001
1000
0001
0010
,
0100
1000
0001
1000
0200
0000
0300
0000
,
0110
0000
0010
0001
0100
0010
0100
0001
,
0010
0100
1000
0001
0200
0000
0310
0000
,
0110
0000
0010
1000
0100
0010
0100
1000
,
0010
0100
0001
1000
0020
0000
0130
0000
,
1001
0000
0001
0010
0100
0010
0001
1000
,
0001
0100
0010
0100
0002
0000
0003
0000
,
1001
0000
0001
0001
1000
0010
0100
0001
,
2000
3200
0302
0203
2300
3000
0000
0000
,
1001
0000
0001
0001
0010
1000
0010
0001
,
0010
0100
1000
0001
0200
0000
0310
0000
,
1001
0000
0000
0000
1000
0000
1000
0000
0010
0000
0100
0010
0100
0000
0001
0000
,
1000
0100
0010
0001
0200
0000
0300
0000
,
0010
0000
1000
0000
1000
0000
0010
0000
1000
0000
0001
1000
0001
0000
0000
0000
,
0010
0000
0001
0000
0001
0000
0010
0000
0001
0000
1000
0001
1000
0000
0000
0000
,
0010
0000
0100
0000
0100
0000
0010
0000
1000
0000
0001
0100
0010
0000
2000
0000
,
0000
0000
0000
3000
,
0002
0000
0003
0010
0002
0000
0003
0010
,
0001
1000
0100
1000
0020
0030
0200
0300
,
0002
0000
0003
1000
0002
0000
0003
1000
,
0001
0100
0010
1000
0002
0003
0020
0030
,
0200
0000
0300
1000
0200
0000
0300
1000
,
0100
0010
0001
1000
0020
0030
0200
0300
,
0002
0000
0003
0010
0200
0000
2300
0000
,
3010
0100
0001
1000
0020
0000
0030
0000
,
0101
1100
0101
1100
,
0001
0000
1000
0001
1000
0000
0001
0000
0020
0000
0000
0000
0030
0000
0000
0000
,
1100
0101
1100
0101
,
1000
0000
0001
1000
0001
0000
1000
0000
0020
0000
0000
0000
0030
0000
0000
0000
,
1010
0011
1010
0011
,
0001
0000
1000
0001
1000
0000
0100
0000
0020
0000
0000
0000
0032
0000
0000
0000
,
0103
0000
0010
0000
0100
0000
0010
0000
1000
0001
1000
0000
0001
0000
0100
0000
,
0010
0000
1000
0010
1000
0000
0001
0000
0020
0000
0000
0000
0030
0000
0000
0000
,
0001
0000
0001
1000
0001
0010
0100
1000
,
0010
0100
0010
1000
0000
0100
0010
0100
,
0000
1000
0000
0100
0010
0000
0001
1000
,
0002
0000
0000
0000
0003
0000
0100
0010
,
0100
0000
0001
1000
0001
0010
0100
1000
,
0010
0100
0010
1000
0000
0001
0010
0001
,
1000
0010
0100
0001
1000
0100
1000
0001
,
0020
0000
0030
0100
,
2002
3000
0020
0003
,
0200
0030
2000
0300
,
0020
3000
0200
0330
,
2002
0000
3003
0000
,
0101
0000
0001
0010
0000
0100
0100
1000
,
1100
0000
1000
0010
0000
0100
0001
1000
,
0100
0000
0010
0100
0010
0000
0001
0000
1000
0000
0010
0000
0100
0000
0001
0000
,
2000
0000
0000
0000
0000
3000
0000
0000
,
0001
1000
0001
0010
0100
1000
0100
0001
,
0100
1000
0010
0200
0000
0301
0001
0100
,
0010
1000
0100
1000
0010
0100
0010
1000
,
0001
1000
0001
0000
0010
0000
0001
0000
0200
0000
0000
0000
0320
0000
0000
0000
,
1030
0001
0100
0100
0001
1000
0100
0100
,
0010
0000
0001
0000
0100
0000
0010
0000
1000
0000
0000
0100
1000
0000
0000
0000
,
1100
0000
0001
0011
0000
0001
0100
0010
,
2000
0000
3200
0000
0320
0000
0031
0001
,
1000
0001
1000
0010
0100
0001
0100
1000
,
0100
0001
0010
0200
0000
1300
1000
0100
,
0010
0001
0100
0001
0010
0100
0010
0001
,
1000
0001
1000
0000
0010
0000
1000
0000
0200
0000
0000
0000
0320
0000
0000
0000
,
0031
1000
0100
0100
1000
0001
0010
0010
,
0100
0000
1000
0000
0010
0000
0100
0000
0001
0000
0000
0010
0001
0000
0000
0000
,
0101
0000
1000
1010
0000
0001
0010
0100
,
2000
0100
0002
3003
,
1000
0000
0010
0100
0010
0000
1000
0000
0001
0000
0100
0010
0100
0000
0001
0000
,
1000
0000
0001
0010
0100
0000
1000
0000
0002
0000
0000
0000
2003
0000
0000
0000
,
3001
0000
0100
0010
0100
0000
0001
0000
1000
0000
0100
0010
0001
0000
1000
0000
,
0010
0000
0100
0001
0100
0000
0001
0000
2000
0000
0000
0000
3000
0000
0000
0000
,
0001
0000
1000
0000
0001
0010
0001
0010
0001
0000
1000
0010
1000
0000
0001
0000
,
0010
0000
0100
1000
0100
0000
0010
0000
0002
0000
0000
0000
0003
0000
0000
0000
,
0101
0000
1000
1010
0000
0001
1000
0100
,
0010
0000
0001
1000
0001
1000
0001
0000
0100
0000
0010
0000
1000
0000
0200
0000
,
0000
0000
0000
0000
,
0300
0000
0000
0000
;

//--------------- dance-double - forcednature ----------------
#NOTEDATA:;
#STEPSTYPE:dance-double;
#DESCRIPTION:forcednature;
#DIFFICULTY:Easy;
#METER:9;
#RADARVALUES:0,0,0,0,0;
#CREDIT:forcednature;
#NOTES:
00000000
00000000
00000000
00000000
,
00000000
00000000
00000000
00000000
,
00000000
00000000
00000000
00000000
,
00000000
00000000
00000000
00000000
,
00000000
00000000
00000000
00000000
,
00002000
00000000
00003000
00010000
,
00000200
00000000
00000300
00000000
,
00002000
00000000
00003000
00000001
,
00000200
00000000
00000300
00000000
,
00000110
00000000
00000000
00000110
00000000
00000000
00000000
00000000
,
00001001
00000000
00000000
00001001
00000000
00000000
00000000
00000000
,
00000001
00000010
00000100
00010000
,
00002000
00000000
00000000
00000000
00000000
00003000
00000000
00000000
,
00010000
00001000
00100000
00001000
,
00000000
00010000
00001000
00010000
,
00001000
01000000
00010000
01000000
,
00000000
00001000
00020000
00030000
,
00000100
00000000
00000100
00000000
00001000
00000001
00001000
00000000
,
00000010
00000100
00000002
00000003
,
00000010
00000000
00000000
00000010
00000000
00000000
00000100
00000000
,
00010000
00001000
00020000
00030000
,
00001000
01000000
00010000
01000000
,
00100000
10000000
00020000
00030000
,
10000000
01000000
00100000
00010000
,
01000000
00001000
00020000
00030000
,
00001000
00000000
00001000
00000000
00010000
00001000
00010000
00000000
,
00001000
00100000
00020000
00030000
,
10000000
00100000
01000000
00002000
,
00000000
00000000
00000000
00003000
,
00010000
00001000
00010000
00000100
,
00001000
00000100
00000010
00000000
,
00000001
00001000
00000001
00000100
,
00000010
00001000
00000010
00000000
,
00001001
00000000
00001000
00000010
,
00010000
00000100
00010000
00000000
,
00011000
00000000
00001000
00100000
,
00010000
01000000
00010000
00000000
,
10010000
00000000
10000000
00100000
,
10000000
00010000
00100000
00000000
,
01100000
00000000
01000000
10000000
,
01000000
00100000
00010000
00000000
,
10010000
00000000
10000000
00010000
,
01000000
00001000
00010000
00000000
,
00011000
00000000
00000100
00010000
,
00001000
00010000
00000010
00000000
,
00001001
00000000
00001000
00000000
,
00000110
00000000
00000001
00000000
,
00000010
00000100
00001000
00000010
,
00020000
00000000
00000000
00030000
,
00001000
00000000
00001000
00000000
,
00001000
00010000
00001000
01000000
,
00010000
00000000
00010000
00000000
,
00100000
01000000
10000000
00010000
,
01000000
00000000
01000000
00000000
,
00100000
10000000
00010000
10000000
,
01000000
00000000
00100000
00001000
,
00020000
00032000
00023000
00030000
,
00011000
00011000
00011000
00011000
,
00000100
00000100
00000100
00000000
,
00011000
00011000
00011000
00011000
,
01000000
01000000
01000000
00000000
,
00011000
00011000
00011000
00011000
,
00000010
00000010
00000010
00000000
,
00011000
00011000
00011000
00011000
,
00100000
00010000
00200000
00300000
,
01000000
00000000
10000000
00000000
,
00010000
00000000
10000000
00000000
,
00100000
00000000
01000000
00000000
,
00020000
00000000
00030000
00000000
,
00100000
00100000
00001000
00000000
,
00010000
00000000
00000100
00000000
,
00001000
00001000
00000010
00000000
,
00000200
00000000
00000300
00000000
,
00002002
00000000
00000000
00000000
,
00000000
00000000
00000000
00000000
,
00000000
00000000
00000000
00000000
,
00003003
00000000
00000000
00000000
,
00000001
00000000
00000000
00000001
00000000
00000000
00000100
00000000
,
00001000
00000000
00000000
00001000
00000000
00000000
00010000
00000000
,
00001000
00001000
00100000
00010000
,
00200000
00000000
00000000
00000000
00000000
00300000
00000000
00000000
,
01000000
10000000
00100000
10000000
,
01000000
00100000
00000000
00010000
,
00100000
00001000
00010000
00000010
,
00010000
00001000
00010000
00000000
00002000
00000000
00003000
00000000
,
00010000
00000100
00001000
00000100
,
00000010
00000001
00002000
00003000
,
00000010
00000000
00000100
00000010
00000000
00000010
00000100
00000000
,
00000002
00000000
00000003
00000000
,
00001000
00000000
00000100
00000000
00000010
00000100
00000010
00000000
,
00000100
00010000
00001000
00100000
,
00001000
00010000
00001000
01000000
,
00020000
00000000
00030000
00000000
,
10000000
00000000
01000000
00000000
00100000
01000000
00100000
00000000
,
00010000
01000000
00002000
00003000
,
00011000
00000000
00000000
00011000
00000000
00000000
00000100
00000000
,
00002000
00000000
00003000
00000000
,
00000010
00000000
00000100
00000000
00000001
00000100
00000001
00000000
,
00001000
00000100
00000020
00000030
,
00000100
00000000
00010000
00000000
00001000
00010000
00001000
00000000
,
00100000
00010000
20000000
30000000
,
00100000
00000000
01000000
00000000
00010000
01000000
00010000
00000000
,
10000000
01000000
10000000
00000000
00020000
00000000
00030000
00000000
,
00100000
00000000
00000000
00100000
00000000
00000000
00001000
00000000
,
00011000
00000000
00000010
00000000
00001000
00000000
00000000
00002002
,
00000000
00000000
00000000
00000000
,
00003003
00000000
00000000
00000000
;

//--------------- dance-double - forcednature ----------------
#NOTEDATA:;
#STEPSTYPE:dance-double;
#DESCRIPTION:forcednature;
#DIFFICULTY:Medium;
#METER:12;
#RADARVALUES:0,0,0,0,0;
#CREDIT:forcednature;
#NOTES:
00000000
00000000
00000000
00000000
,
00000000
00000000
00000000
00000000
,
00000000
00000000
00000000
00000000
,
00000000
00000000
00000000
00000000
,
00000000
00000000
00000000
00000000
00000000
00000000
00001000
00010000
,
00002000
00000000
00000000
00000000
00003000
00100000
00010000
00100000
,
02000000
00000000
00000000
00000000
03000000
00000000
10000000
00010000
,
20000000
00000000
00000000
00000000
30000000
00100000
01000000
00010000
,
02000000
00000000
00000000
00000000
03000000
00000000
00001000
00010000
,
00001000
00000000
00000000
00011000
00000000
00010000
00000010
00000000
,
00001010
00000000
00000000
00001010
00000000
00000001
00000010
00000000
,
00000100
00001000
00000100
00000000
00010000
00001000
00010000
00000000
,
00000020
00000000
00000000
00000000
00000030
00001000
00000001
00000000
,
00000100
00000010
00000100
00000010
00000000
00000100
00000001
00000100
,
00000000
00000010
00001000
00000010
00002000
00000000
00003002
00000000
,
00001003
00000100
00001000
00000100
00000000
00010000
00001000
00010000
,
00000000
00000010
00001000
00000010
00002000
00000000
00003000
00000000
,
00010100
00000000
00011000
00000000
00100000
00010000
00100000
00010000
,
00000000
10000000
00100000
01000000
00020000
00000000
20030000
00000000
,
30010000
00100000
00010000
00100000
00000000
00001000
00010000
00001000
,
00000000
01000000
00010000
01000000
00200000
00000000
00300000
00000000
,
10010000
00000000
10000000
01000000
00100000
00000000
00010000
00000000
,
01000000
00001000
01000000
00001000
00010000
00000000
00011000
00000000
,
00000010
00001000
00000010
00001000
00000000
00000001
00000010
00000100
,
00000000
00001000
00000001
00001000
00000020
00000000
00000030
00000000
,
00000100
00000001
00000100
00000001
00000100
00000010
00001000
00000010
,
00000000
00010000
00001000
00010000
00000200
00000000
00000300
00000000
,
00010000
00001000
00100000
00010000
10000000
00010000
00100000
02000000
,
00000000
00000000
00000000
03000000
,
00000000
10000000
00010000
00000000
01000000
00000000
00001000
00000000
,
00010000
00000010
00001000
00000001
,
00000000
00001000
00000100
00000000
00010000
00000000
00001000
00000000
,
00000020
00000230
00000320
00000030
,
00001001
00000000
00001000
00000100
00001000
00000000
00000010
00000000
,
00010000
00001000
00010000
00001000
00010000
00000000
00000100
00000000
,
00010000
00000000
00001000
01000000
00001000
00000000
00010000
00000000
,
00001000
00100000
00001000
00100000
00001000
00000000
00010000
00000000
,
01000000
00000000
10000000
01000000
10000000
00000000
00100000
00000000
,
01000000
00010000
01000000
00010000
00200000
00000000
00300000
00000000
,
00001000
00000000
00010000
00001000
00010000
00000000
00000010
00000000
,
00001000
00000100
00000010
00000001
00002000
00000000
00003000
00000000
,
00001001
00000000
00000001
00000100
00000001
00000000
00001000
00000000
,
00000100
00000010
00000100
00000010
00000100
00000000
00010000
00000000
,
00001000
00000000
00100000
00010000
00100000
00000000
00001000
00000000
,
01000000
00010000
01000000
00100000
20000000
00000000
30000000
00000000
,
01000000
00100000
01000000
00100000
00010000
00100000
00001000
00000000
,
00010000
00000010
00010000
00000010
00001000
00000010
00000100
00000000
,
00000001
00001000
00000001
00001000
00000100
00000010
00000001
00000000
,
00000200
00000000
00000000
00000300
,
00000001
00000000
00000000
00001000
00000001
00000000
00000000
00001000
,
00000001
00000010
00000100
00010000
,
00001000
00000000
00000000
00100000
00001000
00000000
00000000
00100000
,
00001000
01000000
00010000
00100000
,
01000000
00000000
00000000
10000000
01000000
00000000
00000000
10000000
,
01000000
00100000
00001000
00010000
,
00000010
00000000
00000000
00001000
00000001
00000000
00001000
00000000
,
00000001
00000010
00000001
00000010
00000100
00000000
00000000
00000000
,
00001100
00001100
00010100
00010100
,
00010000
00001000
00010000
00000000
00001000
00000000
00000000
00000000
,
00101000
00101000
00110000
00110000
,
00010000
10000000
00010000
00000000
01000000
00000000
00000000
00000000
,
10100000
10100000
11000000
11000000
,
00010000
00100000
00010000
00000000
00100000
00000000
00001000
00000000
,
00010000
00000000
00000010
00000000
00001000
00000010
00001000
00000000
,
00000001
00000100
00000010
00000000
00002000
00000000
00000000
00000000
,
00003001
00000000
00000010
00000000
00000100
00000010
00000100
00000000
,
00010000
00000000
00001000
00010000
00000000
00001000
00010000
00001000
,
00000000
00100000
00000000
00010000
00100000
00000000
01000000
00000000
,
20000000
00000000
30000000
00000000
,
00010000
00000000
01000000
00100000
01000000
00000000
00010000
00000000
,
00100000
00001000
00100000
00001000
00000000
00010000
00001000
00000000
,
00010000
00000010
00010000
00000000
00001000
00000000
00010000
00000100
,
00020000
00000000
00030000
00000000
,
00012000
00000000
00003020
00000000
,
00000032
00000000
00000203
00000000
,
00002300
00000000
00023000
00000000
,
00230000
00000000
00300000
00000000
,
10010000
00000000
10000000
01000000
00000000
00100000
00010000
00100000
,
00010000
00000000
01000000
00001000
00000000
00010000
00001000
00010000
,
00000100
00001000
00000100
00000000
00000010
00000001
00000010
00000000
,
00002002
00000000
00000000
00000000
00000000
00003003
00000000
00000000
,
00000001
00000100
00000001
00000000
00001000
00000100
00001000
00000000
,
00000001
00000010
00000100
00001000
00000000
00000010
00000010
00000000
,
00010000
00001000
00010000
00000000
00000100
00001000
00000100
00000000
,
00010000
00001000
00100000
00001000
00100000
00000000
00110000
00000000
,
00010000
01000000
00010000
00000000
10000000
01000000
10000000
00000000
,
00010000
00100000
01000000
10000000
02000000
00000000
03000000
00000000
,
00100000
00000000
00001000
00010000
00000000
00010000
00001000
00000000
,
00000020
00000000
00000030
00000000
,
00000100
00001000
00000100
00000000
00000010
00000001
00000010
00000000
,
00000100
00010000
00001000
00010000
00000000
00000010
00001000
00000000
,
00000001
00000010
00000100
00000000
00001000
00000100
00000010
00000000
,
00000001
00001000
00000001
00001000
00000001
00000000
00000011
00000000
,
00001000
00000100
00001000
00000000
00000100
00010000
00001000
00000000
,
00100000
00010000
00100000
00000000
02000000
00000000
03000000
00000000
,
10010000
00000000
00000000
01100000
00000000
10000000
00010000
00000000
,
00200000
01000000
02000000
03300000
,
10000000
01000000
10000000
01000000
00100000
00010000
00100000
00001000
,
00010000
00001000
01000000
00010000
01000000
00000000
00011000
00000000
,
00000010
00001000
00000010
00001000
00000001
00000010
00000100
00001000
,
00000000
00000010
00000100
00000010
00000200
00000000
00000300
00000000
,
00000001
00001000
00000001
00001000
00000001
00000010
00001000
00010000
,
00000000
00001000
00000010
00000001
00000010
00000000
00000110
00000000
,
00000100
00010000
00001000
00010000
00000000
00001000
00100000
00001000
,
01000000
00010000
01000000
00100000
10000000
00010000
00100000
02000000
,
00000000
00000000
00000000
00000000
,
03000000
00000000
00000000
00000000
;

//--------------- dance-double - forcednature ----------------
#NOTEDATA:;
#STEPSTYPE:dance-double;
#DESCRIPTION:forcednature;
#DIFFICULTY:Hard;
#METER:15;
#RADARVALUES:0,0,0,0,0;
#CREDIT:forcednature;
#NOTES:
00000000
00000000
00000000
00000000
,
00000000
00000000
00000000
00000000
,
00000000
00000000
00000000
00000000
,
00000000
00000000
00000000
00000000
,
00000000
00000000
00000000
00000000
,
00001000
00010000
00001000
00010000
00001000
00000000
00000010
00000000
,
00000001
00000010
00000100
00000000
00001000
00000000
00001010
00000000
,
00000000
00000001
00000100
00000001
00000100
00000000
00001000
00000000
,
00010000
00001000
00010000
00100000
01000000
00000000
01100000
00000000
,
10010000
00000000
00000000
11000000
00000000
01000000
00100000
00001000
,
00010000
00000000
00000000
00011000
00000000
00001000
00000010
00000001
,
00000010
00000000
00000110
00000000
00000100
00010000
00001000
00100000
,
00020000
00000000
00000000
00030000
,
10000000
00100000
10000000
00010000
00100000
01000000
00100000
00010000
,
00000000
01000000
00001000
00010000
00001000
00000000
00011000
00000000
,
00000010
00001000
00000010
00000100
00000001
00000001
00001000
00000001
,
00000000
00000010
00001000
00010000
00002000
00000000
00003000
00000000
,
00010000
00000000
01000000
00000000
10000000
01000000
10000000
00000000
00010000
00000000
10000000
00100000
10000000
00000000
00010000
00000000
,
00100000
01000000
00100000
00001000
00010000
00000000
00011000
00000000
,
00001000
00000010
00000001
00000001
00000100
00000001
00000001
00000010
,
00000000
00000100
00010000
00001000
00020000
00000000
00030000
00000000
,
00011000
00000000
00001000
00000010
00000000
00001000
00010000
00001000
,
00000000
00010000
01000000
10000000
02000000
00000000
03000000
00000000
,
01100000
00000000
00100000
00001000
00000000
00010000
00000010
00010000
,
00000000
00000100
00000010
00000100
00002000
00000000
00003002
00000000
,
00000103
00000000
00000100
00000000
00001000
00000000
00010000
00000000
00001000
00000000
01000000
00010000
01000000
00000000
00100000
00000000
,
10000000
00010000
00100000
01000000
00200000
00000000
00300000
00000000
,
01000000
10000000
01000000
00010000
00001000
00000010
00000001
00000200
,
00000000
00000000
00000000
00000300
,
00000000
00000010
00001000
00000010
00010000
00001000
00010000
00000100
,
00001000
00000100
00000010
00001000
00010000
00000000
00001000
00000000
,
00000000
00100000
00010000
00100000
00001000
00010000
00001000
01000000
,
00010000
10000000
00010000
00100000
02000000
00000000
03000000
00000000
,
01100000
00000000
00100000
00001000
00010000
00001000
01000000
00010000
,
00100000
01000000
00010000
00001000
00020000
00000000
00030010
00000000
,
00011000
00000000
00001000
00010000
00001000
00000010
00000001
00000010
,
00000100
00010000
00001000
00000010
00002000
00000000
00013000
00000000
,
00011000
00000000
00010000
00100000
01000000
00100000
10000000
00010000
,
10000000
01000000
00010000
00001000
00200000
00000000
00300000
00000000
,
00011000
00000000
00000010
00000010
00010000
00000010
00000100
00000001
,
00000020
00002030
00023000
00032000
00003020
00000030
00000000
00000000
,
00000110
00000000
00000100
00000100
00010000
00001000
00010000
00000010
,
00000100
00000010
00010000
00001000
00020000
00000000
00130000
00000000
,
10010000
00000000
00000000
00000000
10000000
00000000
00100000
00000000
01000000
00000000
00010000
10000000
00010000
00000000
00100000
00000000
,
01000000
10000000
01000000
00010000
00002000
00000000
00003000
00000000
,
00100000
00000000
00001000
00000000
00001000
00000000
01000000
00000000
00001000
00000000
00010000
00001000
00010000
00000000
00000000
00000000
,
00000010
00000000
00010000
00000000
00010000
00000000
00000100
00000000
00010000
00000000
00001000
00010000
00001000
00000000
00000000
00000000
,
00000010
00000000
00000001
00000000
00000001
00000000
00000010
00000000
00000100
00000000
00001000
00000001
00001000
00000000
00000020
00000000
,
00000000
00000000
00000000
00000030
,
00000200
00000000
00000300
00000001
00000200
00000000
00000300
00000001
,
00000100
00000010
00001000
00000100
00020000
00030000
00002000
00003000
,
02000000
00000000
03000000
00010000
02000000
00000000
03000000
00010000
,
01000000
00100000
10000000
00010000
00200000
00300000
00002000
00003000
,
00020000
00000000
00030000
00000010
00020000
00000000
00030000
00000010
,
00001000
00000001
00001000
00000100
00000020
00000030
00000002
00000003
,
00000200
00000000
00000300
00001000
00020000
00000000
00032000
00000000
,
00013000
00100000
10000000
00100000
02000000
00000000
03000000
00000000
,
01010000
00101000
00011000
00010010
,
00000010
00000000
00001000
00000001
00001000
00000000
00000100
00000000
00000020
00000000
00000000
00000000
00000030
00000000
00000000
00000000
,
00001100
00010010
00011000
00101000
,
00100000
00000000
00010000
10000000
00010000
00000000
01000000
00000000
00200000
00000000
00000000
00000000
00300000
00000000
00000000
00000000
,
10100000
01001000
00011000
00010100
,
00000100
00000000
00001000
00000001
00001000
00000000
00000010
00000000
00000200
00000000
00000000
00000000
00002300
00000000
00000000
00000000
,
00013000
00001000
00010000
00001000
00010000
00100000
10000000
00010000
,
00100000
00000000
01000000
10000000
01000000
00000000
00010000
00000000
00002000
00000000
00000000
00000000
00003000
00000000
00000000
00000000
,
00000010
00000000
00000010
00000100
00001000
00000100
00010000
00001000
,
00000010
00000100
00000010
00000001
00000000
00000100
00000010
00000100
,
00000000
00000001
00000000
00000010
00000100
00000000
00000010
00001000
,
00020000
00000000
00000000
00000000
00030000
00000000
00001000
01000000
,
00001000
00000000
00010000
00000010
00010000
00001000
00100000
00001000
,
00010000
00000100
00010000
00001000
00000000
00001000
00100000
00010000
,
10000000
00100000
01000000
00001000
00010000
00000100
00010000
00001000
,
00000020
00000000
00000030
00000100
,
00002002
00003000
00000200
00000003
,
00002000
00000300
00020000
00003000
,
00200000
00030000
20000000
30300000
,
20020000
00000000
30030000
00000000
,
11000000
00000000
11000000
00000000
00010000
00100000
01000000
00100000
,
00001000
00010000
00000100
00010000
00000000
00001000
00010000
00000010
,
00001000
00000000
00000001
00001000
00000001
00000000
00000010
00000000
00000100
00000000
00010000
00000000
00001000
00000000
01000000
00000000
,
00200000
00000000
00000000
00000000
00000000
00300000
00000000
00000000
,
10000000
01000000
00010000
00001000
00000010
00000001
00000100
00000001
,
00000010
00000100
00001000
00000020
00000000
00010030
00010000
00001000
,
00100000
01000000
00100000
00001000
00010000
00001000
01000000
00100000
,
10000000
00010000
10000000
00000000
01000000
00000000
00010000
00000000
00002000
00000000
00000000
00000000
00023000
00000000
00000000
00000000
,
00031000
00000010
00000001
00000001
00000010
00001000
00010000
00010000
,
00001000
00000000
00000100
00000000
00001000
00000000
00010000
00000000
00100000
00000000
00000000
10000000
00010000
00000000
00000000
00000000
,
01010000
00000000
10000000
10100000
00000000
00100000
01000000
00100000
,
00020000
00000000
00032000
00000000
00003020
00000000
00001030
00001000
,
00010000
00000100
00001000
00000100
00000010
00000001
00000100
00001000
,
00000100
00000001
00001000
00000020
00000000
00010030
00010000
00001000
,
00000100
00001000
00010000
00100000
01000000
00100000
10000000
00010000
,
00100000
00010000
00100000
00000000
01000000
00000000
10000000
00000000
02000000
00000000
00000000
00000000
03020000
00000000
00000000
00000000
,
00031000
00000010
00001000
00001000
00010000
00100000
00010000
00010000
,
00001000
00000000
00010000
00000000
01000000
00000000
00010000
00000000
00001000
00000000
00000000
00000010
00000001
00000000
00000000
00000000
,
00000101
00000000
00001000
00001010
00000000
00000001
00000010
00001000
,
00020000
00000100
00002000
00033000
,
00000010
00000000
00010000
00001000
00010000
00000000
00100000
00000000
10000000
00000000
00010000
10000000
00010000
00000000
00100000
00000000
,
01000000
00000000
10000000
01000000
00100000
00000000
00001000
00000000
00020000
00000000
00000000
00000000
00032000
00000000
00000000
00000000
,
00103000
00000000
00001000
00010000
00001000
00000000
00000010
00000000
00000001
00000000
00001000
00000001
00001000
00000000
00000010
00000000
,
00000100
00000000
00000010
00010000
00001000
00000000
00100000
00000000
00002000
00000000
00000000
00000000
00003000
00000000
00000000
00000000
,
01000000
00000000
00001000
00000000
00010000
00001000
00010000
00001000
00010000
00000000
00001000
00100000
00001000
00000000
00010000
00000000
,
01000000
00000000
10000000
01000000
00100000
00000000
00001000
00000000
00020000
00000000
00000000
00000000
00030000
00000000
00000000
00000000
,
00001010
00000000
00000001
00000101
00000000
00000100
00000010
00010000
,
00001000
00000000
00100000
00010000
00100000
00010000
00100000
00000000
01000000
00000000
10000000
00000000
00100000
00000000
02000000
00000000
,
00000000
00000000
00000000
00000000
,
03000000
00000000
00000000
00000000
;
