#VERSION:0.83;
#TITLE:O JIYA;
#SUBTITLE:;
#ARTIST:ASMAT & emi;
#TITLETRANSLIT:;
#SUBTITLETRANSLIT:;
#ARTISTTRANSLIT:;
#GENRE:;
#CREDIT:valgrind;
#MUSIC:O JIYA.ogg;
#BANNER:;
#BACKGROUND:;
#CDTITLE:;
#SAMPLESTART:0.000;
#SAMPLELENGTH:0.000;
#SELECTABLE:YES;
#OFFSET:-0.145;
#BPMS:0.000=151.000;
#STOPS:;
#BGCHANGES:;
#FGCHANGES:;

//--------------- dance-single - ----------------
#NOTEDATA:;
#STEPSTYPE:dance-single;
#DESCRIPTION:;
#DIFFICULTY:Challenge;
#METER:13;
#RADARVALUES:0,0,0,0,0;
#NOTES:
0000
0000
0000
0000
,
0000
0000
0000
0000
,
0000
0000
0000
0000
,
0000
0000
0000
0000
,
1000
0000
0000
1000
0100
0000
0020
0000
0030
0000
0010
0000
0001
0000
1000
0000
,
0001
0000
0000
0001
0100
0000
0020
0000
0030
0000
0010
0000
0100
0000
0001
0000
,
1000
0000
0000
1000
0100
0000
0020
0000
0030
0000
0010
0000
0001
0000
0100
0000
,
0101
1010
2001
3100
,
0010
0000
0000
0000
0200
0000
0000
0000
0001
0000
0000
0000
0310
000M
0000
0000
0002
0000
0000
0000
0000
0000
0000
0000
0000
0000
0000
0000
1003
0000
0000
0000
,
0001
0100
0001
0010
0100
0010
0001
1000
,
0010
0000
0000
0000
0200
0000
0000
0000
1000
0000
0000
0000
0310
M000
0000
0000
2000
0000
0000
0000
0000
0000
0000
0000
0000
0000
0000
0000
3001
0000
0000
0000
,
0010
0010
0100
1000
0010
0000
1001
0000
,
1000
0000
0000
0000
0020
0000
0000
0000
0001
0000
0000
0000
0130
000M
0000
0000
0002
0000
0000
0000
0000
0000
0000
0000
0000
0000
0000
0000
1003
0000
0000
0000
,
0001
0010
0100
0001
0100
0010
0001
1000
,
0001
0000
0000
0000
0020
0000
0000
0000
1000
0000
0000
0000
0130
M000
0000
0000
2000
0000
0000
0000
0000
0000
0000
0000
0000
0000
0000
0000
3001
0000
0000
0000
,
0100
0010
1000
0100
0010
0000
1001
0000
,
0001
0100
0010
1000
0000
1000
0001
0010
,
0100
0010
0001
1000
0001
0100
0010
1000
,
0001
0010
0100
1000
0000
1000
0001
0100
,
0010
1000
0100
0010
1000
0010
0002
0000
,
1003
0000
0100
0000
0010
0000
0001
0000
0000
0000
0001
0000
1000
0000
0010
1000
,
0010
0100
0001
1000
0200
0000
0310
0001
,
1000
0010
0100
0001
0000
0001
1000
0100
,
1100
0011
2001
3020
,
1000
0000
0000
0000
0000
0000
0000
0000
0230
0000
0000
00M0
1000
0000
0000
0000
0000
0000
0000
M000
0310
0000
0000
0000
1000
0000
0000
0000
0001
0000
0000
0000
,
0200
0000
0302
0000
0013
1000
0010
0200
,
1000
0000
0000
0000
0000
0000
0000
0000
0320
0000
0000
0M00
1000
0000
0000
0000
0000
0000
0000
0000
0130
0000
0000
0000
1000
0000
0000
0000
0001
0000
0000
0000
,
0020
0000
0032
0100
0000
1003
0010
0100
,
0001
0000
0000
0000
0100
0000
0000
0000
0020
0000
0000
0M00
0001
0000
0000
0000
0000
0000
0000
0000
0130
0000
0000
0000
0001
0000
0000
0000
1000
0000
0000
0000
,
0020
0000
2030
0000
3100
0001
0100
0020
,
0001
0000
0000
0000
0000
0000
0000
0000
0230
0000
0000
00M0
0001
0000
0000
0000
0000
0000
0000
000M
0310
0000
0000
0000
0001
0000
0000
0000
0100
0000
0000
0000
,
0020
0000
0000
0000
1030
0000
0001
0000
0010
0100
0010
0100
2000
0000
0000
0000
,
3010
1000
0001
0010
0100
1000
0020
0000
,
0230
0000
0000
0000
1000
0000
0000
0000
0320
M000
0000
0000
0001
0000
0000
0000
0230
000M
0000
0000
1000
0000
0000
0000
0320
M000
0000
0000
0000
0000
0000
0000
,
0130
0001
1000
0100
0010
0001
0200
0000
,
0010
0010
0010
0000
0010
0010
0000
0310
,
0100
0001
1000
0010
0100
0001
0020
0000
,
0230
0000
0000
0000
0001
0000
0000
0000
0320
000M
0000
0000
1000
0000
0000
0000
0230
M000
0000
0000
0001
0000
0000
0000
0320
000M
0000
0000
0000
0000
0000
0000
,
0130
1000
0001
0010
0100
1000
0020
0000
,
0100
0100
0100
0000
0100
0100
0000
0130
,
0001
0100
0001
0100
0010
1000
0010
1000
0100
0000
0000
0000
1001
0000
0000
0000
,
1000
0000
0000
0000
0200
0000
0000
0000
0001
0000
0000
0000
1300
000M
0000
0000
0002
0000
0000
0000
0000
0000
0000
0000
0000
0000
0000
0000
0013
0000
0000
0000
,
0100
0010
1000
0001
0100
0010
0001
1000
,
0001
0000
0000
0000
0200
0000
0000
0000
1000
0000
0000
0000
0301
M000
0000
0000
2000
0000
0000
0000
0000
0000
0000
0000
0000
0000
0000
0000
3100
0000
0000
0000
,
1000
0001
0010
0001
0200
0300
0120
0000
,
0130
0000
0000
0000
2000
0000
0000
0000
0001
0000
0000
0000
3100
000M
0000
0000
0002
0000
0000
0000
0000
0000
0000
0000
0000
0000
0000
0000
1003
0000
0000
0000
,
0100
0001
1000
0010
1000
0001
0100
1000
,
0100
0000
0000
0000
0002
0000
0000
0000
1000
0000
0000
0000
0103
M000
0000
0000
2000
0000
0000
0000
0000
0000
0000
0000
0000
0000
0000
0000
3001
0000
0000
0000
,
0100
0010
1000
0100
0010
0000
1001
0000
,
0001
0000
0000
0001
0100
0000
0010
0000
0010
0000
0000
0010
1000
0000
0001
0000
,
0010
0000
0000
0010
0100
0000
2000
0000
3000
0000
0010
0000
0100
0000
0001
0000
,
1000
0000
0100
0000
0010
0000
0010
0000
0001
0010
0001
0000
1000
0000
0100
0000
,
0010
0000
0000
0010
0001
0000
0000
0001
0100
0000
0000
0100
0010
0000
0000
0000
,
1000
0000
0000
1000
0100
0000
0010
0000
0010
0000
0000
0010
0001
0000
1000
0000
,
0010
0000
0000
0010
0100
0000
0001
0000
0010
0000
0000
0010
0001
0000
1000
0000
,
0010
0001
0010
0100
1000
0100
0010
1000
,
1010
0101
2002
0000
,
3003
0000
0000
0000
;
